Subcategories

Eric Johnson - Up Close (2010)

Posted By: uff
Eric Johnson - Up Close (2010)

Eric Johnson - Up Close (2010)
Rock | 1cd | EAC Rip | Flac + Cue + Log | covers
EMI/Vortexan, 8 28527 77732 4 | rel: 2010 | 410Mb

By Eric Johnson’s standards, the five-year gap between 2005’s Bloom and 2010’s Up Close is swift. It’s the shortest time between albums since Ah Via Musicom followed Tones by a mere four years and although Up Close could hardly be called spontaneous, it does have a looseness that’s often absent in Johnson’s work, perhaps because it trades so heavily on the guitarist’s Texas roots, a point he underscores by having songs called “Texas” and “Austin.” Naturally, this means there’s a bunch of blues on Up Close, which finds room for cameos by Steve Miller, Jimmie Vaughan, Jonny Lang, and Sonny Landreth, but even these moments don’t bear much grit because dirt is not part of Johnson’s repertoire. He prefers clean and sculpted, an aesthetic that runs from his tone to his rhythms. He remains indebted to the fusion etched out by Jeff Beck on Blow by Blow but he no longer is taking it to the extremes, as when he divided Bloom into movements. Up Close is merely Eric Johnson served straight-up: it is not far removed from the feel of Ah Via Musicom, lacking only the major melodies that sucked in crossover listeners, but Johnson’s journey is not one of innovation, it’s of refinement and he continues to find interesting ways to hone his specific craft on Up Close. ~Allmusic

Track listing
01. Awaken (1:04)
02. Fatdaddy (2:44)
03. Brilliant Room (3:53)
04. Texas (6:02)
05. Gem (4:09)
06. Traverse (1:18)
07. Autin (4:01)
08. Soul Surprise (6:11)
09. On the Way (3:09)
10. Arithmetic (4:32)
11. The Sea and the Mountain (1:50)
12. Vortexan (3:04)
13. A Change Has Come to Me (5:19)
14. Change (revisited) (1:39)
15. You Book (4:15)

Personnel
- Roscoe Beck - Bass Guitar
- Kevin Hall - Drums
- Eric Johnson - Guitar, Vocals, Producer
- Sonny Landreth - Guitar ("Your Book")
- Jonny Lang - Guitar and Vocals ("Austin")
- Malford Milligan - Vocals ("Brilliant Room")
- Steve Miller - Vocals ("Texas")
- Barry "Frosty" Smith - Drums
- Tommy Taylor - Drums
- Jimmie Vaughan - Guitar ("Texas")


Exact Audio Copy V0.99 prebeta 4 from 23. January 2008

Отчёт EAC об извлечении, выполненном 28. декабря 2010, 22:23

Eric Johnson / Up Close

Дисковод: ASUS DRW-20B1LT Adapter: 4 ID: 0

Режим чтения : Достоверность
Использование точного потока : Да
Отключение кэша аудио : Да
Использование указателей C2 : Нет

Коррекция смещения при чтении : 6
Способность читать области Lead-in и Lead-out : Нет
Заполнение пропущенных сэмплов тишиной : Да
Удаление блоков с тишиной в начале и конце : Нет
При вычислениях CRC использовались нулевые сэмплы : Да
Интерфейс : Встроенный Win32-интерфейс для Win NT/2000

Выходной формат : Пользовательский кодировщик
Выбранный битрейт : 320 kBit/s
Качество : Высокий
Добавление ID3-тэга : Нет
Утилита сжатия : D:\Program Files\Exact Audio Copy\Flac\flac.exe
Дополнительные параметры : -8 –delete-input-file -o "D:\CDImage.flac" -V %s


TOC извлечённого CD

Трек | Старт | Длительность | Начальный сектор | Конечный сектор
––––––––––––––––––––––––––––––––––-
1 | 0:00.00 | 1:04.50 | 0 | 4849
2 | 1:04.50 | 2:44.10 | 4850 | 17159
3 | 3:48.60 | 3:53.02 | 17160 | 34636
4 | 7:41.62 | 6:02.18 | 34637 | 61804
5 | 13:44.05 | 4:09.70 | 61805 | 80549
6 | 17:54.00 | 1:18.23 | 80550 | 86422
7 | 19:12.23 | 4:01.15 | 86423 | 104512
8 | 23:13.38 | 6:11.10 | 104513 | 132347
9 | 29:24.48 | 3:09.39 | 132348 | 146561
10 | 32:34.12 | 4:32.49 | 146562 | 167010
11 | 37:06.61 | 1:50.18 | 167011 | 175278
12 | 38:57.04 | 3:04.25 | 175279 | 189103
13 | 42:01.29 | 5:19.73 | 189104 | 213101
14 | 47:21.27 | 1:39.28 | 213102 | 220554
15 | 49:00.55 | 4:15.51 | 220555 | 239730


Характеристики диапазона извлечения и сообщения об ошибках

Выбранный диапазон

Имя файла D:\Eric Johnson - Up Close.wav

Пиковый уровень 99.8 %
Качество диапазона 100.0 %
CRC теста 15734532
CRC копии 15734532
Копирование… OK

Ошибок не произошло


AccurateRip: сводка

Трек 1 нет в базе данных
Трек 2 нет в базе данных
Трек 3 нет в базе данных
Трек 4 нет в базе данных
Трек 5 нет в базе данных
Трек 6 нет в базе данных
Трек 7 нет в базе данных
Трек 8 нет в базе данных
Трек 9 нет в базе данных
Трек 10 нет в базе данных
Трек 11 нет в базе данных
Трек 12 нет в базе данных
Трек 13 нет в базе данных
Трек 14 нет в базе данных
Трек 15 нет в базе данных

Ни одного трека нет в базе AccurateRip

Конец отчёта



[CUETools log; Date: 2016. 12. 04. 20:48:42; Version: 2.1.6]
[AccurateRip ID: 001c96de-0149d60d-d10c7c0f] found.
Track [ CRC | V2 ] Status
01 [04fc9724|f66666ca] (03+04/67) Accurately ripped
02 [56627df1|dda29749] (03+04/69) Accurately ripped
03 [d2a8c5d3|95a70995] (03+04/69) Accurately ripped
04 [e28251b1|267ee425] (03+04/69) Accurately ripped
05 [3bd323ac|e58ac6a5] (03+04/69) Accurately ripped
06 [ededcaac|d705cac9] (03+04/68) Accurately ripped
07 [a418aabe|ca3ab9fc] (03+04/69) Accurately ripped
08 [a433e4e7|6bc6adc4] (03+04/69) Accurately ripped
09 [93149416|2f3b8e82] (03+04/69) Accurately ripped
10 [db0b0a76|eff64184] (03+04/69) Accurately ripped
11 [98dce559|2904140c] (03+04/68) Accurately ripped
12 [25207926|c8d0f100] (03+04/69) Accurately ripped
13 [198eb8dc|819cb1df] (03+04/69) Accurately ripped
14 [368772a0|b8095efd] (03+04/67) Accurately ripped
15 [e8c41302|884680ff] (03+04/69) Accurately ripped
Offsetted by 114:
01 [6bfec62e] (16/67) Accurately ripped
02 [76227ae2] (16/69) Accurately ripped
03 [c3228cd4] (16/69) Accurately ripped
04 [96e488f3] (16/69) Accurately ripped
05 [139604f3] (16/69) Accurately ripped
06 [dcbc636c] (16/68) Accurately ripped
07 [3df3ddb2] (16/69) Accurately ripped
08 [3286b9f2] (16/69) Accurately ripped
09 [dc465d93] (16/69) Accurately ripped
10 [af5b3b5c] (16/69) Accurately ripped
11 [78765364] (16/68) Accurately ripped
12 [a490726a] (16/69) Accurately ripped
13 [a051103c] (16/69) Accurately ripped
14 [491b6222] (16/67) Accurately ripped
15 [783091a6] (16/69) Accurately ripped
Offsetted by 126:
01 [38fcf3af] (02/67) Accurately ripped
02 [06777f58] (02/69) Accurately ripped
03 [9a2a9f75] (02/69) Accurately ripped
04 [b39ab1db] (02/69) Accurately ripped
05 [81693a10] (02/69) Accurately ripped
06 [b0a72868] (02/68) Accurately ripped
07 [a2219b97] (02/69) Accurately ripped
08 [5e7cb39c] (02/69) Accurately ripped
09 [d30306c3] (02/69) Accurately ripped
10 [470b9fe9] (02/69) Accurately ripped
11 [5bb2a43f] (02/68) Accurately ripped
12 [c661285e] (02/69) Accurately ripped
13 [c972fe7c] (02/69) Accurately ripped
14 [80f50f8e] (02/67) Accurately ripped
15 [0e06183e] (02/69) Accurately ripped

Track Peak [ CRC32 ] [W/O NULL]
– 99,8 [15734532] [850B649E]
01 98,2 [3825D7A2] [3069DC05]
02 98,5 [C3491542] [D83F1A1C]
03 98,6 [B0467683] [1CEC7358]
04 98,9 [25C22E9D] [A3E477A5]
05 99,8 [7CFC0991] [6474119E]
06 89,5 [4D70B085] [513FDE99]
07 98,9 [A8A00089] [542C42F4]
08 98,7 [E4A8C011] [C7468936]
09 98,7 [EE5D43C7] [10927284]
10 98,9 [94E0E518] [564106A7]
11 91,8 [665A6EEA] [5962AB31]
12 98,2 [C3A0138D] [E3086F47]
13 98,4 [7F4C52C1] [7817F323]
14 98,2 [8CCB38B1] [24F0F713]
15 98,6 [A9BD6F35] [8400020A]


Thx to orbster
Bigfile
Filefactory

password: asd