Subcategories

Eric Clapton - 24 Nights: Live At The Royal Albert Hall, London 1990 & 1991 (1999) ***RE-UP***

Posted By: popsakov
Eric Clapton - 24 Nights: Live At The Royal Albert Hall, London 1990 & 1991 (1999) ***RE-UP***

Eric Clapton - 24 Nights: Live At The Royal Albert Hall, London 1990 & 1991 (1999)
DVD-5 | Video: MPEG 2, PAL 4:3 (720x576), 25.000 fps, VBR (8200 Kbps) | LPCM, 48.0 Khz, 1536 Kbps, Stereo
Rock, Blues | 01:30:03 | ~ 4,45 Gb | 5% Recovery

Highlights from Eric Clapton's sold-out 24 night run at London's Royal Albert Hall (1990-1991) are featured on this video, which includes guest appearances from Robert Cray, Albert Collins, Buddy Guy, Jimmie Vaughan, and Phil Collins. Songs include "Running on Faith," "Wonderful Tonight," "Sunshine of Your Love," "Hard Times," and "Bell Bottom Blues."

General
Complete name : E:\DVD\Eric Clapton - 24 Nights\VIDEO_TS\VTS_01_1.VOB
Format : MPEG-PS
File size : 1 024 MiB
Duration : 21mn 10s
Overall bit rate : 6 762 Kbps

Video
ID : 224 (0xE0)
Format : MPEG Video
Format version : Version 2
Format profile : Main@Main
Format settings, BVOP : Yes
Format settings, Matrix : Default
Format settings, GOP : M=3, N=13
Duration : 21mn 10s
Bit rate mode : Variable
Bit rate : 5 091 Kbps
Nominal bit rate : 8 200 Kbps
Width : 720 pixels
Height : 576 pixels
Display aspect ratio : 4:3
Frame rate : 25.000 fps
Standard : PAL
Color space : YUV
Chroma subsampling : 4:2:0
Bit depth : 8 bits
Scan type : Interlaced
Scan order : Top Field First
Bits/(Pixel*Frame) : 0.491
Stream size : 771 MiB (75%)

Audio
ID : 160 (0xA0)
Format : PCM
Format settings, Endianness : Big
Format settings, Sign : Signed
Muxing mode : DVD-Video
Duration : 21mn 10s
Bit rate mode : Constant
Bit rate : 1 536 Kbps
Channel(s) : 2 channels
Channel positions : Front: L R
Sampling rate : 48.0 KHz
Bit depth : 16 bits
Stream size : 233 MiB (23%)

Text #1
ID : 32 (0x20)
Format : RLE
Format/Info : Run-length encoding

Text #2
ID : 33 (0x21)
Format : RLE
Format/Info : Run-length encoding

Menu

General
Complete name : E:\DVD\Eric Clapton - 24 Nights\VIDEO_TS\VTS_01_2.VOB
Format : MPEG-PS
File size : 1 024 MiB
Duration : 21mn 51s
Overall bit rate : 6 548 Kbps

Video
ID : 224 (0xE0)
Format : MPEG Video
Format version : Version 2
Format profile : Main@Main
Format settings, BVOP : Yes
Format settings, Matrix : Default
Format settings, GOP : M=3, N=13
Duration : 21mn 51s
Bit rate mode : Variable
Bit rate : 4 882 Kbps
Nominal bit rate : 8 200 Kbps
Width : 720 pixels
Height : 576 pixels
Display aspect ratio : 4:3
Frame rate : 25.000 fps
Standard : PAL
Color space : YUV
Chroma subsampling : 4:2:0
Bit depth : 8 bits
Scan type : Interlaced
Scan order : Top Field First
Bits/(Pixel*Frame) : 0.471
Stream size : 763 MiB (75%)

Audio
ID : 160 (0xA0)
Format : PCM
Format settings, Endianness : Big
Format settings, Sign : Signed
Muxing mode : DVD-Video
Duration : 21mn 51s
Bit rate mode : Constant
Bit rate : 1 536 Kbps
Channel(s) : 2 channels
Channel positions : Front: L R
Sampling rate : 48.0 KHz
Bit depth : 16 bits
Video delay : -589ms
Stream size : 240 MiB (23%)

Text #1
ID : 32 (0x20)
Format : RLE
Format/Info : Run-length encoding

Text #2
ID : 33 (0x21)
Format : RLE
Format/Info : Run-length encoding

Menu

General
Complete name : E:\DVD\Eric Clapton - 24 Nights\VIDEO_TS\VTS_01_3.VOB
Format : MPEG-PS
File size : 1 024 MiB
Duration : 22mn 26s
Overall bit rate : 6 380 Kbps

Video
ID : 224 (0xE0)
Format : MPEG Video
Format version : Version 2
Format profile : Main@Main
Format settings, BVOP : Yes
Format settings, Matrix : Default
Format settings, GOP : M=3, N=13
Duration : 22mn 26s
Bit rate mode : Variable
Bit rate : 4 717 Kbps
Nominal bit rate : 8 200 Kbps
Width : 720 pixels
Height : 576 pixels
Display aspect ratio : 4:3
Frame rate : 25.000 fps
Standard : PAL
Color space : YUV
Chroma subsampling : 4:2:0
Bit depth : 8 bits
Scan type : Interlaced
Scan order : Top Field First
Bits/(Pixel*Frame) : 0.455
Stream size : 757 MiB (74%)

Audio
ID : 160 (0xA0)
Format : PCM
Format settings, Endianness : Big
Format settings, Sign : Signed
Muxing mode : DVD-Video
Duration : 22mn 26s
Bit rate mode : Constant
Bit rate : 1 536 Kbps
Channel(s) : 2 channels
Channel positions : Front: L R
Sampling rate : 48.0 KHz
Bit depth : 16 bits
Video delay : -199ms
Stream size : 247 MiB (24%)

Text #1
ID : 32 (0x20)
Format : RLE
Format/Info : Run-length encoding
Duration : 22mn 21s
Video delay : 960ms

Text #2
ID : 33 (0x21)
Format : RLE
Format/Info : Run-length encoding
Duration : 22mn 22s
Video delay : 920ms

Menu

General
Complete name : E:\DVD\Eric Clapton - 24 Nights\VIDEO_TS\VTS_01_4.VOB
Format : MPEG-PS
File size : 1 024 MiB
Duration : 22mn 8s
Overall bit rate : 6 463 Kbps

Video
ID : 224 (0xE0)
Format : MPEG Video
Format version : Version 2
Format profile : Main@Main
Format settings, BVOP : Yes
Format settings, Matrix : Default
Format settings, GOP : M=3, N=13
Duration : 22mn 8s
Bit rate mode : Variable
Bit rate : 4 799 Kbps
Nominal bit rate : 8 200 Kbps
Width : 720 pixels
Height : 576 pixels
Display aspect ratio : 4:3
Frame rate : 25.000 fps
Standard : PAL
Color space : YUV
Chroma subsampling : 4:2:0
Bit depth : 8 bits
Scan type : Interlaced
Scan order : Top Field First
Bits/(Pixel*Frame) : 0.463
Stream size : 760 MiB (74%)

Audio
ID : 160 (0xA0)
Format : PCM
Format settings, Endianness : Big
Format settings, Sign : Signed
Muxing mode : DVD-Video
Duration : 22mn 8s
Bit rate mode : Constant
Bit rate : 1 536 Kbps
Channel(s) : 2 channels
Channel positions : Front: L R
Sampling rate : 48.0 KHz
Bit depth : 16 bits
Video delay : -115ms
Stream size : 243 MiB (24%)

Menu

General
Complete name : E:\DVD\Eric Clapton - 24 Nights\VIDEO_TS\VTS_01_5.VOB
Format : MPEG-PS
File size : 130 MiB
Duration : 2mn 26s
Overall bit rate : 7 455 Kbps

Video
ID : 224 (0xE0)
Format : MPEG Video
Format version : Version 2
Format profile : Main@Main
Format settings, BVOP : Yes
Format settings, Matrix : Default
Format settings, GOP : M=3, N=13
Duration : 2mn 26s
Bit rate mode : Variable
Bit rate : 5 771 Kbps
Nominal bit rate : 8 200 Kbps
Width : 720 pixels
Height : 576 pixels
Display aspect ratio : 4:3
Frame rate : 25.000 fps
Standard : PAL
Color space : YUV
Chroma subsampling : 4:2:0
Bit depth : 8 bits
Scan type : Interlaced
Scan order : Top Field First
Bits/(Pixel*Frame) : 0.557
Stream size : 101 MiB (77%)

Audio
ID : 160 (0xA0)
Format : PCM
Format settings, Endianness : Big
Format settings, Sign : Signed
Muxing mode : DVD-Video
Duration : 2mn 26s
Bit rate mode : Constant
Bit rate : 1 536 Kbps
Channel(s) : 2 channels
Channel positions : Front: L R
Sampling rate : 48.0 KHz
Bit depth : 16 bits
Video delay : -231ms
Stream size : 26.8 MiB (21%)

Menu

Tracklist:

The Four Piece Nights:

01. Running on Faith
02. White Room
03. Sunshine of your Love

The Blues Nights:

04. Watch Yourself
05. Have you ever loved a woman
06. Worried life blues

The Nine Piece Nights:

07. Pretending
08. Bad love
09. Old Love
10. Wonderful Tonight

The Orchestra Nights:

11. Bell Bottom Blues
12. Hard Times
13. Edge of Darkness

Total time: 90 min.
Eric Clapton - 24 Nights: Live At The Royal Albert Hall, London 1990 & 1991 (1999) ***RE-UP***

Eric Clapton - 24 Nights: Live At The Royal Albert Hall, London 1990 & 1991 (1999) ***RE-UP***

Eric Clapton - 24 Nights: Live At The Royal Albert Hall, London 1990 & 1991 (1999) ***RE-UP***

Eric Clapton - 24 Nights: Live At The Royal Albert Hall, London 1990 & 1991 (1999) ***RE-UP***

Eric Clapton - 24 Nights: Live At The Royal Albert Hall, London 1990 & 1991 (1999) ***RE-UP***

Eric Clapton - 24 Nights: Live At The Royal Albert Hall, London 1990 & 1991 (1999) ***RE-UP***

All thanks go to the original ripper(s) …

> Eric Clapton in my blog <

Download: