Subcategories

Eric Clapton - Baloise Session 2013 (2015) [HDTV 1080i]

Posted By: juanchito
Eric Clapton - Baloise Session 2013 (2015) [HDTV 1080i]

Eric Clapton - Baloise Session 2013 (2015)
HDTV 1080i | TS | Mpeg4 AVC, 1920x1080, 9605 kbps, 25 fps | 6.29 GB
Audio: AC3, 256 kbps, 48 kHz, stereo; AC3, 256 kbps, 48 kHz, stereo; AC3, 256 kbps, 48 kHz, stereo
Blues/Rock | Length: 01:21:00 | Uploadable/Nitroflare


Eric Clapton Live At Baloise Session (November 13, 2013). Extras. Information: Recording from a satellite channel ARTE 2015 apr. 04

Eric Clapton - Baloise Session 2013 (2015) [HDTV 1080i]

Eric Clapton - Baloise Session 2013 (2015) [HDTV 1080i]

Eric Clapton - Baloise Session 2013 (2015) [HDTV 1080i]

Eric Clapton - Baloise Session 2013 (2015) [HDTV 1080i]


Tracklist
Don't Go to Strangers
Knock on Wood
Hoochie Coochie Man
Got My Mojo Workin'
After Midnight
Call Me the Breeze
Gin House
How Long
Driftin' Blues
Nobody Knows You When You're Down and Out
Layla
Wonderful Tonight
Little Queen of Spades
Cocaine
High Time We Went

General
ID : 1 (0x1)
Complete name : D:\Downloads\Eric Clapton. Baloise Session 2013.ts
Format : MPEG-TS
File size : 6.29 GiB
Duration : 1h 21mn
Overall bit rate mode : Variable
Overall bit rate : 11.1 Mbps

Video
ID : 571 (0x23B)
Menu ID : 307 (0x133)
Format : AVC
Format/Info : Advanced Video Codec
Format profile : High@L4.0
Format settings, CABAC : Yes
Format settings, ReFrames : 4 frames
Codec ID : 27
Duration : 1h 20mn
Bit rate : 9 605 Kbps
Width : 1 920 pixels
Height : 1 080 pixels
Display aspect ratio : 16:9
Frame rate : 25.000 fps
Standard : Component
Color space : YUV
Chroma subsampling : 4:2:0
Bit depth : 8 bits
Scan type : Interlaced
Scan order : Top Field First
Bits/(Pixel*Frame) : 0.185
Stream size : 5.43 GiB (86%)
Color primaries : BT.601 PAL
Transfer characteristics : BT.470 System B, BT.470 System G
Matrix coefficients : BT.601
Color range : Limited

Audio #1
ID : 572 (0x23C)
Menu ID : 307 (0x133)
Format : AC-3
Format/Info : Audio Coding 3
Mode extension : CM (complete main)
Format settings, Endianness : Big
Codec ID : 6
Duration : 1h 20mn
Bit rate mode : Constant
Bit rate : 256 Kbps
Channel(s) : 2 channels
Channel positions : Front: L R
Sampling rate : 48.0 KHz
Bit depth : 16 bits
Compression mode : Lossy
Delay relative to video : -120ms
Stream size : 148 MiB (2%)
Language : French

Audio #2
ID : 573 (0x23D)
Menu ID : 307 (0x133)
Format : AC-3
Format/Info : Audio Coding 3
Mode extension : CM (complete main)
Format settings, Endianness : Big
Codec ID : 6
Duration : 1h 20mn
Bit rate mode : Constant
Bit rate : 256 Kbps
Channel(s) : 2 channels
Channel positions : Front: L R
Sampling rate : 48.0 KHz
Bit depth : 16 bits
Compression mode : Lossy
Delay relative to video : -120ms
Stream size : 148 MiB (2%)
Language : qaa

Audio #3
ID : 574 (0x23E)
Menu ID : 307 (0x133)
Format : AC-3
Format/Info : Audio Coding 3
Mode extension : CM (complete main)
Format settings, Endianness : Big
Codec ID : 6
Duration : 1h 20mn
Bit rate mode : Constant
Bit rate : 256 Kbps
Channel(s) : 2 channels
Channel positions : Front: L R
Sampling rate : 48.0 KHz
Bit depth : 16 bits
Compression mode : Lossy
Delay relative to video : -120ms
Stream size : 148 MiB (2%)
Language : qad

Audio #4
ID : 575 (0x23F)
Menu ID : 307 (0x133)
Format : AC-3
Format/Info : Audio Coding 3
Mode extension : CM (complete main)
Format settings, Endianness : Big
Codec ID : 6
Duration : 1h 20mn
Bit rate mode : Constant
Bit rate : 192 Kbps
Channel(s) : 2 channels
Channel positions : Front: L R
Sampling rate : 48.0 KHz
Bit depth : 16 bits
Compression mode : Lossy
Delay relative to video : -120ms
Stream size : 111 MiB (2%)
Language : German

Text #1
ID : 576 (0x240)
Menu ID : 307 (0x133)
Format : DVB Subtitle
Codec ID : 6
Language : French

Text #2
ID : 577 (0x241)
Menu ID : 307 (0x133)
Format : DVB Subtitle
Codec ID : 6
Language : French



Thanks to the original uploader