Subcategories

Eric Street Band - The Route to The Blues (2009)

Posted By: gribovar
Eric Street Band - The Route to The Blues (2009)

Eric Street Band - The Route to The Blues (2009)
EAC Rip | WavPack (image+.cue+log) - 321 MB | MP3 CBR 320 kbps (LAME 3.93) - 118 MB | Covers - 34 MB
Genre: Electric Blues | RAR 3% Rec. | Label: Southside Music (SMUK 1118)

Looking at the personnel, this is presumably some kind of offshoot of the well known Reading based Southside Blues Band. I would have to say that this is the most mature, polished and well produced piece of material I have heard thus far from vocalist and co-writer of eight of the nine featured tracks, Dennis Siggery. Only nine tracks, but, with a playing time of over fifty minutes, its good value. For the most part it's slow to medium paced and fairly gritty, contemporary stuff, all dominated with an earthy vibrato vocal style that reminds you of a certain Roger Chapman.
Tracklist:
01. All I Wanted
02. The Wrong Road
03. The Habit
04. Mr. Fat Cat
05. I Need A Lover
06. Sweet Cocaine
07. Reconsider Baby
08. Ride With Me
09. The Reality Show

Total time: 52:00

Exact Audio Copy V1.0 beta 1 from 15. November 2010

EAC extraction logfile from 29. April 2011, 20:15

Eric Street Band / The Route to The Blues

Used drive : HL-DT-STDVD-RAM GH22LP20 Adapter: 4 ID: 1

Read mode : Secure
Utilize accurate stream : Yes
Defeat audio cache : Yes
Make use of C2 pointers : No

Read offset correction : 102
Overread into Lead-In and Lead-Out : No
Fill up missing offset samples with silence : Yes
Delete leading and trailing silent blocks : No
Null samples used in CRC calculations : Yes
Used interface : Installed external ASPI interface

Used output format : Пользовательский кодировщик
Selected bitrate : 896 kBit/s
Quality : High
Add ID3 tag : No
Command line compressor : C:\Program Files (x86)\Exact Audio Copy\WAV Pack\wavpack.exe
Additional command line options : -hlmx2 %s


TOC of the extracted CD

Track | Start | Length | Start sector | End sector
––––––––––––––––––––––––––––-
1 | 0:00.00 | 6:10.69 | 0 | 27818
2 | 6:10.69 | 5:15.66 | 27819 | 51509
3 | 11:26.60 | 5:41.12 | 51510 | 77096
4 | 17:07.72 | 6:15.12 | 77097 | 105233
5 | 23:23.09 | 6:14.11 | 105234 | 133294
6 | 29:37.20 | 5:55.46 | 133295 | 159965
7 | 35:32.66 | 7:17.42 | 159966 | 192782
8 | 42:50.33 | 5:39.54 | 192783 | 218261
9 | 48:30.12 | 3:29.55 | 218262 | 233991


Range status and errors

Selected range

Filename X:\Releases RAW\Eric Street Band - The Route to The Blues\Eric Street Band - The Route to The Blues.wav

Peak level 100.0 %
Extraction speed 0.1 X
Range quality 100.0 %
Test CRC 9E7484CC
Copy CRC 9E7484CC
Copy OK

No errors occurred


AccurateRip summary

Track 1 not present in database
Track 2 not present in database
Track 3 not present in database
Track 4 not present in database
Track 5 not present in database
Track 6 not present in database
Track 7 not present in database
Track 8 not present in database
Track 9 not present in database

None of the tracks are present in the AccurateRip database

End of status report

==== Log checksum F87D6CF4CF4F9A9F1E1407253209EB356D2C3A65D0634ADDDC34D3EC1F81E6F0 ====

Thanks to Гордый