Evelyn "Champagne" King ‎- So Romantic (1984) {Japan for EU}

Posted By: BlondStyle
Evelyn "Champagne" King ‎- So Romantic (1984) {Japan for EU}

Evelyn "Champagne" King ‎- So Romantic (1984) {Japan for EU}
EAC | FLAC, Img+CUE+LOG+Full Scans-600dpi (PNG) | 424,96 Mb (incl. 5%)
MP3 | CBR, 320 kbps | Full Scans-600dpi (JPEG) | 138,13 Mb (incl. 5%)
Genre: R&B, Soul/Funk, Electronic | Label: RCA Records (USA) | Released: 1984-10-16 | 43:39 Min
Evelyn "Champagne" King ‎- So Romantic (1984) {Japan for EU}

"So Romantic" is the seventh album released by R&B singer Evelyn "Champagne" King on the RCA label in 1984. It was produced by Clif Magness, Glen Ballard, Carl Sturken, Evan Rogers, Hawk, Jimmy Douglass, and The System. The album peaked at #38 on the R&B albums chart. It produced the hit singles "Just for the Night", "I'm So Romantic", "Out of Control", "Give Me One Reason", and "Till Midnight". ~Wikipedia~

On the heels of 1983's artistically and commercially disappointing Face to Face, King served up a much more consistent follow-up with this album. From the onset of the set's vivacious opener, "Show Me (Don't Tell Me)" - with a lyrical context notably similar to 1983's "Action," So Romantic allows King plenty of room to showcase her flair for dance music without overcrowding her with excessive electronic gimmicks. It does an impressive job of melding dancefloor beats with rock guitars and keyboards - a vein in which the singer is very at home. Whether it be the intelligently produced "Just for the Night" boasting an understated echo chamber effect that is concentrated in the background; the straightforward and soulful "Give Me One Reason" (one of the set's most melodic tunes, along with the emotive "Till Midnight"); or the nocturnal rocker "I'm So Romantic," the overall sound is very solid with an adept mixture of live instrumentation and synthesizers. With King's bold vocals atop them, the songs on So Romantic make it one of her strongest '80s albums. ~Review by Justin Kantor~
Evelyn "Champagne" King ‎- So Romantic (1984) {Japan for EU}

Evelyn "Champagne" King ‎- So Romantic (1984) {Japan for EU}


Release of this album: 1984, October, 16 [LP RCA Victor, Cat.# AFL1-5308, USA]
Release of this CD: 1984, October, 16 [CD RCA Records (Germany), Cat.# PD85308 / UPC: 0035628530820]
© 1984 RCA Records, ℗ RCA Corporation
Made in Japan (CD)
Printed in Germany


Credits:

Arranged By [Horns] – Clif Magness (tracks: 1), Glen Ballard (tracks: 1), Jerry Hey (tracks: 1, 5)
Backing Vocals – Britta Phillipa (tracks: 8), Cindy Mizelle (tracks: 9), Eugene Jackson (tracks: 6), Evan Rogers (tracks: 2), Evelyn "Champagne" King (tracks: 2 to 6), Jimmy Douglass (tracks: 6), Julia Waters Tillman (tracks: 1, 5), Lisa Fisher (tracks: 9), Maxine Waters (tracks: 1, 5), Mic Murphy (tracks: 7, 8)
Bass – Eugene Jackson (tracks: 6), Hawk (tracks: 3), Joe Chemay (tracks: 5), Samuel Anderson (tracks: 7)
Bass [Synthesizer] – Clif Magness (tracks: 1), Jimmy Douglass (tracks: 6)
Drum Programming – Carl Sturken (tracks: 2), David Frank (tracks: 9), Hawk (tracks: 3, 4), Pat Leonard (tracks: 3, 4)
Drums – Paul Leim (tracks: 1, 5), Yogi Horton (tracks: 8)
Engineer – Bob Rosa (tracks: 2), Chris Lord-Alge (tracks: 2), Jimmy Douglass (tracks: 6, 7), Ray Blair (tracks: 3, 4), Stephen Benben (tracks: 6, 7), Tom Lord-Alge (tracks: 2)
Engineer [Assistant] – Frank Dookun (tracks: 3, 4), Glen Holguin (tracks: 3, 4)
Engineer [Technical] – Mike Ross (tracks: 1, 5)
Guitar – Clarence "Binky" Brice (tracks: 7), Carl Sturken (tracks: 2), Clif Magness (tracks: 5), Dennis Herring (tracks: 1, 5), Paul Pesco (tracks: 8), Zal Clemenson (tracks: 6)
Keyboards – David Frank (tracks: 8, 9), Randy Waldman (tracks: 1, 5), Robbie Kilgore (tracks: 2)
Mixed By – Carl Beatty (tracks: 9), Chris Lord-Alge (tracks: 2), Francis Buckley (tracks: 1, 5), Michael Brauer (tracks: 8), Ray Blair (tracks: 3, 4)
Mixed By [Assistant] – Alexander Haas (tracks: 8), Mark Cobrin (tracks: 9)
Percussion – Clif Magness (tracks: 1, 5)
Piano – Glen Ballard (tracks: 5)
Producer – Carl Sturken (tracks: 2), Clif Magness (tracks: 1, 5), Evan Rogers (tracks: 2), Glen Ballard (tracks: 1, 5), Hawk (tracks: 3, 4), Jimmy Douglass (tracks: 6, 7), The System (tracks: 8, 9)
Recorded By – Francis Buckley (tracks: 1, 5)
Rhythm Guitar – Bruce Gaitsch (tracks: 3, 4), Hawk (tracks: 3, 4)
Saxophone – Larry Williams (tracks: 1, 5)
Soloist, Synthesizer – Randy Waldman (tracks: 1, 5)
Synthesizer – Adrian Lee (tracks: 6), Hawk (tracks: 3, 4), Kenny Hairston (tracks: 7), Pat Leonard (tracks: 3, 4), Robbie Kilgore (tracks: 7)
Synthesizer [Additional] – Glen Ballard (tracks: 5)
Trumpet – Gary Grant (tracks: 1, 5), Jerry Hey (tracks: 1, 5)


Tracklist:

01. Show Me (Don't Tell Me) (04:45)
(Glen Ballard / Clif Magness)
02. Heartbreaker (05:02)
(Evan Rogers / Carl Sturken)
03. Till Midnight (05:04)
(Keithen Carter / Bruce Gaitsch)
04. Just For The Night (04:48)
(Keithen Carter / Pat Leonard / Bruce Gaitsch)
05. Give Me One Reason (03:59)
(Glen Ballard / Clif Magness)
06. Out Of Control (05:34)
(Jimmy Douglass / Eugene Jackson)
07. Talking in My Sleep (05:01)
(Evelyn "Champagne" King / Clarence Robert Brice)
08. I'm So Romantic (05:17)
(Mic Murphy / David Frank)
09. So In Love (04:09)
(Mic Murphy / David Frank)

Exact Audio Copy V1.0 beta 3 from 29. August 2011

EAC extraction logfile from 24. September 2016, 13:18

Evelyn ''Champagne'' King / So Romantic

Used drive : PIONEER BD-RW BDR-208D Adapter: 1 ID: 0

Read mode : Secure
Utilize accurate stream : Yes
Defeat audio cache : Yes
Make use of C2 pointers : No

Read offset correction : 667
Overread into Lead-In and Lead-Out : No
Fill up missing offset samples with silence : Yes
Delete leading and trailing silent blocks : No
Null samples used in CRC calculations : Yes
Used interface : Native Win32 interface for Win NT & 2000

Used output format : Internal WAV Routines
Sample format : 44.100 Hz; 16 Bit; Stereo


TOC of the extracted CD

Track | Start | Length | Start sector | End sector
––––––––––––––––––––––––––––-
1 | 0:00.00 | 4:45.37 | 0 | 21411
2 | 4:45.37 | 5:02.00 | 21412 | 44061
3 | 9:47.37 | 5:03.50 | 44062 | 66836
4 | 14:51.12 | 4:47.50 | 66837 | 88411
5 | 19:38.62 | 3:58.55 | 88412 | 106316
6 | 23:37.42 | 5:33.58 | 106317 | 131349
7 | 29:11.25 | 5:01.37 | 131350 | 153961
8 | 34:12.62 | 5:17.23 | 153962 | 177759
9 | 39:30.10 | 4:09.15 | 177760 | 196449


Range status and errors

Selected range

Filename D:\BlondStyle\Evelyn ''Champagne'' King - So Romantic.wav

Peak level 85.5 %
Extraction speed 7.0 X
Range quality 100.0 %
Test CRC 46BC11F3
Copy CRC 46BC11F3
Copy OK

No errors occurred


AccurateRip summary

Track 1 accurately ripped (confidence 1) [77AB6F05] (AR v1)
Track 2 accurately ripped (confidence 1) [B3E513AA] (AR v1)
Track 3 accurately ripped (confidence 1) [5AAE9BE1] (AR v1)
Track 4 accurately ripped (confidence 1) [382EB3EF] (AR v1)
Track 5 accurately ripped (confidence 1) [C6EC8BFB] (AR v1)
Track 6 accurately ripped (confidence 1) [01127745] (AR v1)
Track 7 accurately ripped (confidence 1) [497A0217] (AR v1)
Track 8 accurately ripped (confidence 1) [5A58D70C] (AR v1)
Track 9 accurately ripped (confidence 1) [14484A8E] (AR v1)

All tracks accurately ripped

End of status report

–– CUETools DB Plugin V2.1.3

[CTDB TOCID: UUKvldjmcGl6IejQoxx0dplOTRk-] found, Submit result: UUKvldjmcGl6IejQoxx0dplOTRk- has been confirmed
[5da1dd93] (1/1) Accurately ripped


==== Log checksum 566911899D7000D7CA0A412AD801D30352177E77CE236A7C32DC3CB75454DAA2 ====

[Disc ID: 000f0dc2-006e70af-7f0a3b09]
Track [ CRC ] Status
01 [77ab6f05] (01/01) Accurately ripped as in pressing(s) #1
02 [b3e513aa] (01/01) Accurately ripped as in pressing(s) #1
03 [5aae9be1] (01/01) Accurately ripped as in pressing(s) #1
04 [382eb3ef] (01/01) Accurately ripped as in pressing(s) #1
05 [c6ec8bfb] (01/01) Accurately ripped as in pressing(s) #1
06 [01127745] (01/01) Accurately ripped as in pressing(s) #1
07 [497a0217] (01/01) Accurately ripped as in pressing(s) #1
08 [5a58d70c] (01/01) Accurately ripped as in pressing(s) #1
09 [14484a8e] (01/01) Accurately ripped as in pressing(s) #1

foobar2000 1.3.12 beta 4 / Dynamic Range Meter 1.1.1
log date: 2016-09-25 20:13:57

––––––––––––––––––––––––––––––––––––––––
Analyzed: Evelyn ''Champagne'' King / So Romantic
––––––––––––––––––––––––––––––––––––––––

DR Peak RMS Duration Track
––––––––––––––––––––––––––––––––––––––––
DR13 -3.91 dB -18.85 dB 4:45 01-Show Me (Don't Tell Me)
DR14 -4.07 dB -19.62 dB 5:02 02-Heartbreaker
DR12 -4.76 dB -19.92 dB 5:04 03-Till Midnight
DR13 -2.45 dB -18.65 dB 4:48 04-Just For The Night
DR14 -1.35 dB -18.80 dB 3:59 05-Give Me One Reason
DR13 -1.57 dB -17.03 dB 5:34 06-Out Of Control
DR15 -2.51 dB -19.17 dB 5:01 07-Talking In My Sleep
DR12 -2.11 dB -15.78 dB 5:17 08-I'm So Romantic
DR11 -3.21 dB -17.14 dB 4:09 09-So In Love
––––––––––––––––––––––––––––––––––––––––

Number of tracks: 9
Official DR value: DR13

Samplerate: 44100 Hz
Channels: 2
Bits per sample: 16
Bitrate: 850 kbps
Codec: FLAC
================================================================================


See also:
Evelyn "Champagne" King - I'm In Love (1981) [2011, Remastered & Expanded Edition]
Nitroflare
FLAC+Scans@600dpi(PNG) | MP3+Scans@600dpi(JPEG)
password: BlondStyle