Jan A.P. Kaczmarek & VA - Evening: Original Motion Picture Soundtrack (2007)

Posted By: Designol
Jan A.P. Kaczmarek & VA - Evening: Original Motion Picture Soundtrack (2007)

Jan A.P. Kaczmarek & VA - Evening: Original Motion Picture Soundtrack (2007)
EAC | APE | Image (Cue&Log) ~ 243 Mb (incl 5%) | Mp3 (CBR320/Stereo) ~ 149 Mb (incl 5%) | Scans included
Genre: Soundtrack, Score | Label: Verve | # B0009205-02 | Time: 00:44:16

Like so many contemporary official soundtrack releases, Evening brings together the film's original score with a batch of familiar period pop hits – unlike most soundtracks, the two disparate halves prove surprisingly complementary, each capturing the film's romantic intimacy without sentimentality or mawkishness. Composer Jan A.P. Kaczmarek's score returns to his signature piano and strings, but he exhibits an uncommon restraint and subtlety here that allows his lovely melodies room to breathe. This is music that arrives by its sophistication naturally, favoring nuance over Sturm und Drang. No less compelling are contributions like Peggy Lee's "Gee Baby, Ain't I Good to You" and Sarah Vaughan's "Stairway to the Stars," which further underscore the maturity and elegance of the cumulative listening experience.

Review by Jason Ankeny, Allmusic.com

Jan A.P. Kaczmarek & VA - Evening: Original Motion Picture Soundtrack (2007)

Jan A.P. Kaczmarek Website
Jan A.P. Kaczmarek at Wiki

Film at IMDB
Film at Wiki


Tracklist:

01. Opening Titles (02:59)
02. Time After Time - Ella Fitzgerald (03:31)
03. Anne Arrives (01:57)
04. Pretend - Steve Ash (01:37)
05. I've Got the World on a String - Michael Buble (02:46)
06. Gee Baby, Ain't I Good to You - Peggy Lee (03:24)
07. Before the Wedding (02:04)
08. Anne And Harris in Love (02:13)
09. You're My Thrill - Peggy Lee (03:24)
10. Memories of the Evening (02:17)
11. The Dream Continues (02:27)
12. Sairway to the Stars - Sarah Vaughan (04:45)
13. Remembering Buddy (03:04)
14. Stella By Starlight - Anita O'Day (02:05)
15. Evening (05:36)


EAC extraction logfile from 10. November 2007, 19:31 for CD
Unknown Artist / Unknown Title

Used drive : HL-DT-STDVD-ROM GDR8161B Adapter: 0 ID: 1
Read mode : Secure with NO C2, accurate stream, disable cache
Read offset correction : 102
Overread into Lead-In and Lead-Out : No

Used output format : Internal WAV Routines
44.100 Hz; 16 Bit; Stereo

Other options :
Fill up missing offset samples with silence : Yes
Delete leading and trailing silent blocks : No
Installed external ASPI interface


Range status and errors
Selected range
Filename C:\Documents and Settings\Ricardo\Mis documentos\Mi mъsica\Jan A P Kaczmarek & VVAA - Evening\Score\Jan A P Kaczmarek & VVAA - Evening.wav

Peak level 100.0 %
Range quality 100.0 %
CRC 6270541D
Copy OK

No errors occured

End of status report

[CUETools log; Date: 07.01.2014 21:46:42; Version: 2.1.4]
[CTDB TOCID: WUZ6bt1cuc6MBKOOsZwZQzZkWI8-] disk not present in database.
[AccurateRip ID: 0016874e-0100ebb6-b10a5f0f] found.
Track [ CRC | V2 ] Status
01 [075f8d43|ea7d8f6e] (3+2/5) Accurately ripped
02 [aaae0f21|31a7025e] (3+2/5) Accurately ripped
03 [1d54d020|9d076720] (3+2/5) Accurately ripped
04 [493257ce|ed9570d4] (3+2/5) Accurately ripped
05 [9730163c|eccf191e] (3+2/5) Accurately ripped
06 [6c173611|04525113] (3+2/5) Accurately ripped
07 [490ffc47|44f3345f] (3+2/5) Accurately ripped
08 [a2456ae6|bfe572f8] (3+2/5) Accurately ripped
09 [70a69389|f4395dcd] (3+2/5) Accurately ripped
10 [ac29254b|2782f255] (3+2/5) Accurately ripped
11 [e0191df2|6736539a] (3+2/5) Accurately ripped
12 [1c84360b|3a4c1c5b] (3+2/5) Accurately ripped
13 [040833c7|1974b37e] (3+2/5) Accurately ripped
14 [e7c70ba4|b0e84c04] (3+2/5) Accurately ripped
15 [8b15bf9a|b4008c5e] (3+2/5) Accurately ripped

Track Peak [ CRC32 ] [W/O NULL]
– 100,0 [6270541D] [7CD0E09D]
01 81,7 [7969F90C] [55E16C5A]
02 99,5 [04E77695] [46304318]
03 92,4 [E9AAA486] [695F818B]
04 91,8 [CC6FE35D] [8E24E17A]
05 100,0 [E439A9A8] [3B14A4DA]
06 99,9 [BA4E69CF] [5E80C497]
07 93,7 [42690722] [6C38A82B]
08 80,7 [E6311B01] [1BCBE209]
09 89,1 [900F822E] [4BD5B741]
10 79,6 [CB3B3E00] [82779FC0]
11 84,8 [533B6E24] [CDA2F5F4]
12 99,9 [CBAAA8CA] [F3342D0D]
13 82,4 [5653BFA8] [35E7D73B]
14 84,3 [054B051C] [D73CC53D]
15 65,0 [30AF222D] [858D2B04]

foobar2000 1.2 / Dynamic Range Meter 1.1.1
log date: 2014-01-07 22:03:39

––––––––––––––––––––––––––––––––––––––––
Analyzed: Jan A. P. Kaczmarek / Evening
––––––––––––––––––––––––––––––––––––––––

DR Peak RMS Duration Track
––––––––––––––––––––––––––––––––––––––––
DR10 -1.75 dB -16.53 dB 3:00 01-Opening Titles
DR14 -0.04 dB -17.18 dB 3:31 02-Time After Time - Ella Fitzgerald
DR10 -0.68 dB -14.24 dB 1:58 03-Anne Arrives
DR13 -0.74 dB -17.87 dB 1:37 04-Pretend - Steve Ash
DR13 0.00 dB -15.70 dB 2:47 05-I've Got the World on a String - Michael Buble
DR12 0.00 dB -16.02 dB 3:24 06-Gee Baby, Ain't I Good to You - Peggy Lee
DR13 -0.56 dB -18.12 dB 2:05 07-Before the Wedding
DR9 -1.86 dB -13.66 dB 2:13 08-Anne And Harris in Love
DR12 -1.00 dB -17.50 dB 3:25 09-You're My Thrill - Peggy Lee
DR12 -1.97 dB -17.88 dB 2:17 10-Memories of the Evening
DR12 -1.43 dB -16.41 dB 2:27 11-The Dream Continues
DR15 0.00 dB -18.34 dB 4:45 12-Sairway to the Stars - Sarah Vaughan
DR13 -1.67 dB -18.18 dB 3:04 13-Remembering Buddy
DR11 -1.48 dB -17.09 dB 2:06 14-Stella By Starlight - Anita O'Day
DR8 -3.73 dB -14.55 dB 5:37 15-Evening
––––––––––––––––––––––––––––––––––––––––

Number of tracks: 15
Official DR value: DR12

Samplerate: 44100 Hz
Channels: 2
Bits per sample: 16
Bitrate: 604 kbps
Codec: Monkey's Audio
================================================================================

Jan A.P. Kaczmarek & VA - Evening: Original Motion Picture Soundtrack (2007)

Jan A.P. Kaczmarek & VA - Evening: Original Motion Picture Soundtrack (2007)