Subcategories

Evgeny Kissin - Chopin: Sonata No. 3, Mazurkas (1994)

Posted By: tirexiss
Evgeny Kissin - Chopin: Sonata No. 3, Mazurkas (1994)

Evgeny Kissin - Chopin: Sonata No. 3, Mazurkas (1994)
EAC | FLAC (image+.cue, log) | Covers Included | 64:50 | 217 MB
Genre: Classical | Label: RCA Victor Red Seal | Catalog: 09026 62542 2

Kissin is among the master-pianists of our time.
What magnificence and assertion he finds in the B minor Sonata's opening, what menace in the following uprush of chromatic scales, his deliberate pedal haze capturing one of Chopin's most truly modernist moments. He may relish lefthand counter-melody in the return of the second subject and elsewhere, yet such detail is offered within the context of the whole. A momentary failure of concentration in the Scherzo comes as reassuring evidence of human fallibility but elsewhere one can only marvel at a manner so trenchant, musicianly and resolutely unsentimental. The equestrian finale is among the most lucid on record and concludes in a controlled triumph that has the audience cheering to the heavens.
The 12 Mazurkas are no less remarkable for their strength and discretion. Everything unfolds with complete naturalness and authority.
The beautifully idiomatic rubato is so stylishly applied that you're only aware of the finest fluctuations of pulse and emotion. Few pianists have gone to the heart of the matter with such assurance (always excepting Arthur Rubinstein). The recording captures Kissin's clear, unnarcissistic sonority admirably and audience noise is minimal.

Evgeny Kissin - Chopin: Sonata No. 3, Mazurkas (1994)

Track List:

01. Sonata No.3 in B minor - i [0:09:43.17]
02. Sonata No.3 in B minor - ii [0:02:43.43]
03. Sonata No.3 in B minor - iii [0:10:12.62]
04. Sonata No. 3 in B minor - iv [0:05:36.65]
05. Mazurka in Fm, Op. 63 No.2 [0:01:47.30]
06. Mazurka in C, Op. 56 No.2 [0:01:42.25]
07. Mazurka in C#, Op.63 No.3 [0:01:57.03]
08. Mazurka in Db, Op.30 No.3 [0:02:44.40]
09. Mazurka in Fm, Op.68 No.4 [0:02:01.05]
10. Mazurka in G, Op.50 No.1 [0:02:16.65]
11. Mazurka in G#, Op.50 No.3 [0:05:26.12]
12. Mazurka in D, Op.33 No.2 [0:02:12.70]
13. Mazurka in Bbm, Op.24 No.4 [0:05:19.40]
14. Mazurka in F#m, Op.59 No.3 [0:03:24.20]
15. Mazurka in Am, Op.17 No.3 [0:04:59.13]
16. Mazurka in B, Op.63 No.1 [0:02:26.40]

Performers:
Evgeny Kissin - piano

Exact Audio Copy V1.0 beta 3 from 29. August 2011

EAC extraction logfile from 11. March 2013, 19:54

Evgeny Kissin / Chopin – Sonata No.3, Mazurkas – Kissin

Used drive : TSSTcorpCDDVDW SH-222BB Adapter: 2 ID: 1

Read mode : Secure
Utilize accurate stream : Yes
Defeat audio cache : Yes
Make use of C2 pointers : No

Read offset correction : 6
Overread into Lead-In and Lead-Out : No
Fill up missing offset samples with silence : Yes
Delete leading and trailing silent blocks : No
Null samples used in CRC calculations : Yes
Used interface : Native Win32 interface for Win NT & 2000

Used output format : User Defined Encoder
Selected bitrate : 1024 kBit/s
Quality : High
Add ID3 tag : No
Command line compressor : C:\Program Files\Exact Audio Copy\Flac\flac.exe
Additional command line options : -8 -V -T "TITLE=%title%" -T "ARTIST=%artist%" -T "ALBUMARTIST=%albumartist%" -T "ALBUM=%albumtitle%" -T "DATE=%year%" -T "TRACKNUMBER=%tracknr%" -T "TRACKTOTAL=%numtracks%" -T "GENRE=%genre%" -T "COMMENT=%comment%" -T "PERFORMER=%albuminterpret%" -T "COMPOSER=%composer%" %source% -o %dest%


TOC of the extracted CD

Track | Start | Length | Start sector | End sector
––––––––––––––––––––––––––––-
1 | 0:00.00 | 9:43.17 | 0 | 43741
2 | 9:43.17 | 2:43.43 | 43742 | 56009
3 | 12:26.60 | 10:12.62 | 56010 | 101971
4 | 22:39.47 | 5:36.65 | 101972 | 127236
5 | 28:16.37 | 1:47.30 | 127237 | 135291
6 | 30:03.67 | 1:42.25 | 135292 | 142966
7 | 31:46.17 | 1:57.03 | 142967 | 151744
8 | 33:43.20 | 2:44.40 | 151745 | 164084
9 | 36:27.60 | 2:01.05 | 164085 | 173164
10 | 38:28.65 | 2:16.65 | 173165 | 183429
11 | 40:45.55 | 5:26.12 | 183430 | 207891
12 | 46:11.67 | 2:12.70 | 207892 | 217861
13 | 48:24.62 | 5:19.40 | 217862 | 241826
14 | 53:44.27 | 3:24.20 | 241827 | 257146
15 | 57:08.47 | 4:59.13 | 257147 | 279584
16 | 62:07.60 | 2:26.40 | 279585 | 290574


Range status and errors

Selected range

Filename G:\Ripped general\[1747] Chopin – Sonata No.3, Mazurkas – Kissin\Chopin – Sonata No.3, Mazurkas – Kissin.wav

Peak level 98.4 %
Extraction speed 7.9 X
Range quality 100.0 %
Test CRC ED737D62
Copy CRC ED737D62
Copy OK

No errors occurred


AccurateRip summary

Track 1 accurately ripped (confidence 6) [6ABBF561] (AR v2)
Track 2 accurately ripped (confidence 6) [C3FB018F] (AR v2)
Track 3 accurately ripped (confidence 6) [62BA68A1] (AR v2)
Track 4 accurately ripped (confidence 6) [B639F3F5] (AR v2)
Track 5 accurately ripped (confidence 6) [91A6C42A] (AR v2)
Track 6 accurately ripped (confidence 6) [8863B2C5] (AR v2)
Track 7 accurately ripped (confidence 6) [A333834D] (AR v2)
Track 8 accurately ripped (confidence 6) [187560E1] (AR v2)
Track 9 accurately ripped (confidence 6) [95B5E1A5] (AR v2)
Track 10 accurately ripped (confidence 6) [35F7031F] (AR v2)
Track 11 accurately ripped (confidence 6) [23DD7C15] (AR v2)
Track 12 accurately ripped (confidence 6) [E22A397B] (AR v2)
Track 13 accurately ripped (confidence 6) [4F81BA37] (AR v2)
Track 14 accurately ripped (confidence 6) [14E623EF] (AR v2)
Track 15 accurately ripped (confidence 6) [E169C87C] (AR v2)
Track 16 accurately ripped (confidence 6) [DC5D699F] (AR v2)

All tracks accurately ripped

End of status report

Thanks to the Original ripper (unknown)!

Welcome to my blog!

Download: