Subcategories

Exarsis - New War Order (2017) [Japanese Ed.]

Posted By: Andi_Deris
Exarsis - New War Order (2017) [Japanese Ed.]

Exarsis - New War Order (2017) [Japanese Ed.]
EAC Rip | FLAC: Image+Cue+Log | 378 Mb | MP3 CBR 320 kbps | 116 Mb | Scans | 77 Mb | 45:20
Spiritual Beast Co., Ltd. | IUCP-16277
Thrash Metal

Greek thrashers Exarsis are coming back with their 4th studio album entitled "New War Order".

Statement from the band:

"The reason it took us so long is that we gave all the time it needed to sound exactly how we wanted and now we are not only sure that "New War Order" is the best Exarsis album we have ever released but it will be one of the greatest thrash albums this movement can give… So be prepared for some intense old school shit!!!

This is a complete analog mix (in a digital environment) there has been absolutely no use of plug-ings or digital sounds!

Responsible for this is once again Mike Karpathiou (D Studio). Without Mike this record would be way different. He is definitely the 6th member of the band!"

Exarsis - New War Order (2017) [Japanese Ed.]




Track Listing

01. Zionism (The Reaping) (00:44)
02. Twisted Logic (03:24)
03. The Underground (03:39)
04. General Guidance (04:36)
05. Just Buried (04:17)
06. Chaos Creation (01:32)
07. Prophet For Profit (05:02)
08. Combined Disasters (03:45)
09. HAARP Weapon (03:45)
10. Human Project (07:57)
11. Evil Has No Boundaries (Bonus Track) (03:17)
12. Hypertension (Bonus Track) (03:20)

Produced by Mike Karpathiou

The Band

• Nick J. Tragakis - Vocals
• Chris Poulos - Bass
• Kostis Foukarakis - Guitars
• Antonis Lambrakis - Guitars
• Achilleas Kamzolas - Drums

Exact Audio Copy V1.3 from 2. September 2016

EAC extraction logfile from 16. November 2017, 14:24

Exarsis / New War Order (Japan)

Used drive : ATAPI iHAS122 W Adapter: 2 ID: 0

Read mode : Secure
Utilize accurate stream : Yes
Defeat audio cache : Yes
Make use of C2 pointers : No

Read offset correction : 48
Overread into Lead-In and Lead-Out : No
Fill up missing offset samples with silence : Yes
Delete leading and trailing silent blocks : No
Null samples used in CRC calculations : Yes
Used interface : Installed external ASPI interface

Used output format : User Defined Encoder
Selected bitrate : 1024 kBit/s
Quality : High
Add ID3 tag : No
Command line compressor : C:\Program Files\FLAC\flac.exe
Additional command line options : -V -8 -T "Date=%year%" -T "Genre=%genre%" -T"COMMENT=Ripped by Ilijan" -8 -V %source%


TOC of the extracted CD

Track | Start | Length | Start sector | End sector
––––––––––––––––––––––––––––-
1 | 0:00.00 | 0:44.16 | 0 | 3315
2 | 0:44.16 | 3:24.10 | 3316 | 18625
3 | 4:08.26 | 3:39.30 | 18626 | 35080
4 | 7:47.56 | 4:35.54 | 35081 | 55759
5 | 12:23.35 | 4:17.22 | 55760 | 75056
6 | 16:40.57 | 1:31.62 | 75057 | 81943
7 | 18:12.44 | 5:02.07 | 81944 | 104600
8 | 23:14.51 | 3:45.19 | 104601 | 121494
9 | 26:59.70 | 3:45.01 | 121495 | 138370
10 | 30:44.71 | 7:57.16 | 138371 | 174161
11 | 38:42.12 | 3:16.55 | 174162 | 188916
12 | 41:58.67 | 3:20.12 | 188917 | 203928


Range status and errors

Selected range

Filename D:\Vknish + Devastator = Swolo4\Exarsis - New War Order (Japan).wav

Peak level 100.0 %
Extraction speed 3.7 X
Range quality 99.9 %
Test CRC FB10EA6B
Copy CRC FB10EA6B
Copy OK

No errors occurred


AccurateRip summary

Track 1 not present in database
Track 2 not present in database
Track 3 not present in database
Track 4 not present in database
Track 5 not present in database
Track 6 not present in database
Track 7 not present in database
Track 8 not present in database
Track 9 not present in database
Track 10 not present in database
Track 11 not present in database
Track 12 not present in database

None of the tracks are present in the AccurateRip database

End of status report

–– CUETools DB Plugin V2.1.6

[CTDB TOCID: zwxI6KlUN5zVtojZBYgHgzuI0gM-] disk not present in database
Submit result: zwxI6KlUN5zVtojZBYgHgzuI0gM- has been uploaded


==== Log checksum CBEB315B123383A2FB19D3C5E506B2BBEFCBA48CB459290A80EFDBCE2A6DF0BB ====


Many thanks to the original uploader: Ilijan



Password: pass