Subcategories
Tags
Language
Tags

Extreme: Singles Collection (1990 - 1995)

Posted By: v3122
Extreme: Singles Collection (1990 - 1995)

Extreme: Singles Collection (1990 - 1995)
EAC | Flac(Image) + Cue + Log & MP3 CBR 320Kbps
15CD | A&M Records / Pony Canyon | ~ 1851 or 655 Mb | Scans(jpg) -> 182 Mb
Hard Rock, Glam Metal

Extreme's music was never easy to classify, since it rarely confined itself to heavy metal, hard rock, or pop. The Massachusetts-based band formed in 1985; guitarist Nuno Bettencourt had already played in a local band with bassist Pat Badger, while singer Gary Cherone fronted his own group with drummer Paul Geary. The two bands eventually merged, and Cherone and Bettencourt formed a songwriting partnership that would soon place Extreme atop the Billboard charts, if only for a short period.

Coupling the technical proficiency of Bettencourt's guitar with a funky rhythmic base, the band issued a self-titled debut album in 1989. It peaked at number 80 – a modest showing for a new, unseasoned band – and the song "Play with Me" was used to orchestrate the chase scene during Bill & Ted's Excellent Adventure. Extreme had begun to earn respect in the heavy metal world, but it wasn't until the arrival of the band's follow-up effort, Pornograffitti (particularly the the Everly Brothers-style acoustic ballad "More Than Words"), that a mainstream audience latched onto the group's sound. "More Than Words" became a number one hit, while its follow-up single, an acoustic-based pop/rocker titled "Hole Hearted," hit number four. Extreme were now one of the most popular acts in the pop-metal genre, but the looming arrival of grunge music – not to mention the band's own shifting tastes – combined to make Extreme's reign relatively short-lived.

The band's third album, III Sides to Every Story, was an ambitious effort whose sales (while strong at first) couldn't match those of Pornograffitti. Geary left the lineup soon after, seeking a career in music business instead, and a revised version of the band (featuring the percussion of Mike Mangini, formerly of Annihilator) returned in 1995 with Waiting for the Punchline. It, too, suffered from a lack of sales. Accordingly, Extreme's bandmates announced their breakup the following year. Bettencourt went on to launch a solo career and issued the Schizophonic album in 1997; he then released two additional albums with his band Mourning Widows. Meanwhile, Cherone enjoyed a brief stint as the vocalist for Van Halen. His one album with the band, 1998's Van Halen III, was slammed by critics and fans alike, resulting in poor sales and Cherone's speedy exit.

A 13-track best-of collection titled An Accidental Collision of Atoms kept Extreme's legacy alive in 2000, and the band quietly reunited in 2004 for a small series of shows. The reunion gigs continued into 2008, when a new album, Saudades de Rock, marked the group's first batch of new material in 13 years. It was followed by a lengthy tour, and the next few years saw the band continuing to write new material and tour occasionally, but between Bettencourt going on tour with Rihanna and Cherone's new project Hurtsmile, Extreme kept getting put on the sidelines. In 2016 the band released Pornograffitti Live 25: Metal Meltdown, an audio/video presentation of its 2015 concert at Las Vegas' Hard Rock Casino.

by Stephen Thomas Erlewine, allmusic
Extreme: Singles Collection (1990 - 1995)


Extreme: Singles Collection (1990 - 1995):

Extreme: Singles Collection (1990 - 1995)

Tracklist CD1 - 1990 - Extragraffitti:
A&M Records / Pony Canyon, PCCY-10155

1. Get The Funk Out
2. Decadence Dance (Edit)
3. Mutha (Don't Wanna Go To School Today) (Remix)
4. Little Girls (Edit)
5. Kid Ego
6. Nice Place To Visit
7. Message From Extreme

Exact Audio Copy V1.0 beta 3 from 29. August 2011

EAC extraction logfile from 28. August 2014, 18:53

Extreme / Extragraffitti

Used drive : Optiarc DVD-ROM DDU1675S Adapter: 3 ID: 0

Read mode : Secure
Utilize accurate stream : Yes
Defeat audio cache : Yes
Make use of C2 pointers : No

Read offset correction : 6
Overread into Lead-In and Lead-Out : No
Fill up missing offset samples with silence : Yes
Delete leading and trailing silent blocks : No
Null samples used in CRC calculations : Yes
Used interface : Native Win32 interface for Win NT & 2000

Used output format : User Defined Encoder
Selected bitrate : 1024 kBit/s
Quality : High
Add ID3 tag : No
Command line compressor : C:\Program Files (x86)\Exact Audio Copy\FLAC\FLAC.EXE
Additional command line options : -V -8 -T "Date=%year%" -T "Genre=%genre%" %source%


TOC of the extracted CD

Track | Start | Length | Start sector | End sector
––––––––––––––––––––––––––––-
1 | 0:00.00 | 4:23.25 | 0 | 19749
2 | 4:23.25 | 4:30.35 | 19750 | 40034
3 | 8:53.60 | 3:33.00 | 40035 | 56009
4 | 12:26.60 | 3:25.60 | 56010 | 71444
5 | 15:52.45 | 4:03.67 | 71445 | 89736
6 | 19:56.37 | 3:18.30 | 89737 | 104616
7 | 23:14.67 | 2:01.08 | 104617 | 113699


Range status and errors

Selected range

Filename E:\Torrent\# MY\Extreme - Discography (1989-2010)\1990 - Extragraffitti (EP)\Extreme - Extragraffitti.wav

Peak level 100.0 %
Extraction speed 3.7 X
Range quality 100.0 %
Test CRC 9F42E452
Copy CRC 9F42E452
Copy OK

No errors occurred


AccurateRip summary

Track 1 accurately ripped (confidence 3) [93581EC6] (AR v2)
Track 2 accurately ripped (confidence 2) [64B6D077] (AR v2)
Track 3 accurately ripped (confidence 3) [97263361] (AR v2)
Track 4 accurately ripped (confidence 3) [2393C2DC] (AR v2)
Track 5 accurately ripped (confidence 3) [10CE3545] (AR v2)
Track 6 accurately ripped (confidence 3) [6E21A1A4] (AR v2)
Track 7 accurately ripped (confidence 3) [A9DA0981] (AR v2)

All tracks accurately ripped

End of status report

–– CUETools DB Plugin V2.1.3

[CTDB TOCID: i9CfNP2O3HYLXyEN.92NcONhYn4-] found, Submit result: i9CfNP2O3HYLXyEN.92NcONhYn4- has been uploaded
[8d3a2a0b] (1/1) No match


==== Log checksum 6742F0636DEAD82B197C9A4010AC594D93019D0AB454E70DD52E4E85BEB6CCE3 ====


Extreme: Singles Collection (1990 - 1995)

Tracklist CD2 - 1990 - Get The Funk Out:
A&M Records, 390 613-2

1. Get The Funk Out
2. Li'l Jack Horny
3. Mutha (Don't Wanna Go To School Today) (Remix)

Exact Audio Copy V1.1 from 23. June 2015

EAC extraction logfile from 19. June 2017, 21:13

Extreme / Get The Funk Out (EP)

Used drive : ASUS DRW-24B1ST Adapter: 1 ID: 1

Read mode : Secure
Utilize accurate stream : Yes
Defeat audio cache : Yes
Make use of C2 pointers : No

Read offset correction : 6
Overread into Lead-In and Lead-Out : No
Fill up missing offset samples with silence : Yes
Delete leading and trailing silent blocks : No
Null samples used in CRC calculations : Yes
Used interface : Native Win32 interface for Win NT & 2000

Used output format : User Defined Encoder
Selected bitrate : 128 kBit/s
Quality : High
Add ID3 tag : No
Command line compressor : C:\Program Files (x86)\Exact Audio Copy\Flac\flac.exe
Additional command line options : -V -8 -T "Genre=%genre%" -T "Artist=%artist%" -T "Title=%title%" -T "Album=%albumtitle%" -T "Date=%year%" -T "Tracknumber=%tracknr%" -T "Comment=%comment%" %source%


TOC of the extracted CD

Track | Start | Length | Start sector | End sector
––––––––––––––––––––––––––––-
1 | 0:00.33 | 4:24.07 | 33 | 19839
2 | 4:24.40 | 4:53.35 | 19840 | 41849
3 | 9:18.00 | 3:31.18 | 41850 | 57692


Range status and errors

Selected range

Filename E:\Torrent\# MY\# Подготовка раздач\Extreme\EPs, Singles\1990 - Get The Funk Out (EP) (A&M Records, 390 613-2, Germany)\Extreme - Get The Funk Out (EP).wav

Peak level 100.0 %
Extraction speed 2.0 X
Range quality 99.9 %
Test CRC A1C4DF56
Copy CRC A1C4DF56
Copy OK

No errors occurred


AccurateRip summary

Track 1 accurately ripped (confidence 2) [42184859] (AR v1)
Track 2 accurately ripped (confidence 1) [82273741] (AR v1)
Track 3 accurately ripped (confidence 1) [14555173] (AR v2)

All tracks accurately ripped

End of status report

–– CUETools DB Plugin V2.1.6

[CTDB TOCID: YyqDnzgfVKNqkuFB.EX3RW72ztg-] found
Submit result: YyqDnzgfVKNqkuFB.EX3RW72ztg- has been confirmed
Track | CTDB Status
1 | (2/2) Accurately ripped
2 | (2/2) Accurately ripped
3 | (2/2) Accurately ripped


==== Log checksum C5A8C82727CD47F76B74287AE40576BE1245B07F5D664D32926B4B9D0F1F13B9 ====


Extreme: Singles Collection (1990 - 1995)

Tracklist CD3 - 1991 - Decadence Dance:
A&M Records, AMCD 773

1. Decadence Dance
2. Money (In God We Trust)
3. More Than Words (Acapella with Congas)
4. Decadence Dance (Album version)

Exact Audio Copy V1.1 from 23. June 2015

EAC extraction logfile from 19. June 2017, 20:52

Extreme / Decadence Dance (EP)

Used drive : ASUS DRW-24B1ST Adapter: 1 ID: 1

Read mode : Secure
Utilize accurate stream : Yes
Defeat audio cache : Yes
Make use of C2 pointers : No

Read offset correction : 6
Overread into Lead-In and Lead-Out : No
Fill up missing offset samples with silence : Yes
Delete leading and trailing silent blocks : No
Null samples used in CRC calculations : Yes
Used interface : Native Win32 interface for Win NT & 2000

Used output format : User Defined Encoder
Selected bitrate : 128 kBit/s
Quality : High
Add ID3 tag : No
Command line compressor : C:\Program Files (x86)\Exact Audio Copy\Flac\flac.exe
Additional command line options : -V -8 -T "Genre=%genre%" -T "Artist=%artist%" -T "Title=%title%" -T "Album=%albumtitle%" -T "Date=%year%" -T "Tracknumber=%tracknr%" -T "Comment=%comment%" %source%


TOC of the extracted CD

Track | Start | Length | Start sector | End sector
––––––––––––––––––––––––––––-
1 | 0:00.32 | 4:31.68 | 32 | 20424
2 | 4:32.25 | 4:04.05 | 20425 | 38729
3 | 8:36.30 | 4:11.17 | 38730 | 57571
4 | 12:47.47 | 6:50.60 | 57572 | 88381


Range status and errors

Selected range

Filename E:\Torrent\# MY\# Подготовка раздач\Extreme\EPs, Singles\1991 - Decadence Dance (EP) (A&M Records, AMCD 773, U.K.)\Extreme - Decadence Dance (EP).wav

Peak level 85.5 %
Extraction speed 4.6 X
Range quality 100.0 %
Test CRC B9321A7D
Copy CRC B9321A7D
Copy OK

No errors occurred


AccurateRip summary

Track 1 accurately ripped (confidence 3) [96DC02E7] (AR v2)
Track 2 accurately ripped (confidence 3) [BE3578E3] (AR v2)
Track 3 accurately ripped (confidence 3) [7E81DD9A] (AR v2)
Track 4 accurately ripped (confidence 3) [88B5DB12] (AR v2)

All tracks accurately ripped

End of status report

–– CUETools DB Plugin V2.1.6

[CTDB TOCID: MBV2NgGh9sf4.TJapHNRIISR9NA-] found
Submit result: MBV2NgGh9sf4.TJapHNRIISR9NA- has been confirmed
Track | CTDB Status
1 | (2/2) Accurately ripped
2 | (2/2) Accurately ripped
3 | (2/2) Accurately ripped
4 | (2/2) Accurately ripped


==== Log checksum CFB8D0D6E7F86F817407D143F6823210B52B024579DE2809894591658A3E19D4 ====


Extreme: Singles Collection (1990 - 1995)

Tracklist CD4 - 1991 - Hole Hearted:
A&M Records, 390 733-2

1. Hole Hearted
2. More Than Words (A Cappella with Congas)
3. Suzi (Wants Her All Day What?)

Exact Audio Copy V1.1 from 23. June 2015

EAC extraction logfile from 21. June 2017, 8:53

Extreme / Hole Hearted (EP)

Used drive : ASUS DRW-24B1ST Adapter: 1 ID: 1

Read mode : Secure
Utilize accurate stream : Yes
Defeat audio cache : Yes
Make use of C2 pointers : No

Read offset correction : 6
Overread into Lead-In and Lead-Out : No
Fill up missing offset samples with silence : Yes
Delete leading and trailing silent blocks : No
Null samples used in CRC calculations : Yes
Used interface : Native Win32 interface for Win NT & 2000

Used output format : User Defined Encoder
Selected bitrate : 128 kBit/s
Quality : High
Add ID3 tag : No
Command line compressor : C:\Program Files (x86)\Exact Audio Copy\Flac\flac.exe
Additional command line options : -V -8 -T "Genre=%genre%" -T "Artist=%artist%" -T "Title=%title%" -T "Album=%albumtitle%" -T "Date=%year%" -T "Tracknumber=%tracknr%" -T "Comment=%comment%" %source%


TOC of the extracted CD

Track | Start | Length | Start sector | End sector
––––––––––––––––––––––––––––-
1 | 0:00.00 | 3:40.65 | 0 | 16564
2 | 3:40.65 | 4:12.72 | 16565 | 35536
3 | 7:53.62 | 3:32.60 | 35537 | 51496


Range status and errors

Selected range

Filename E:\Torrent\# MY\# Подготовка раздач\Extreme\EPs, Singles\1991 - Hole Hearted (EP) (A&M Records, 390 733-2, Germany)\Extreme - Hole Hearted (EP).wav

Peak level 100.0 %
Extraction speed 4.0 X
Range quality 100.0 %
Test CRC 6ADD8704
Copy CRC 6ADD8704
Copy OK

No errors occurred


AccurateRip summary

Track 1 accurately ripped (confidence 3) [9C3E3E89] (AR v2)
Track 2 accurately ripped (confidence 4) [80C6955F] (AR v2)
Track 3 accurately ripped (confidence 3) [82E68B23] (AR v2)

All tracks accurately ripped

End of status report

–– CUETools DB Plugin V2.1.6

[CTDB TOCID: 9rzCgzX_lW.LP4.Q.iUJncpbl1o-] found
Submit result: 9rzCgzX_lW.LP4.Q.iUJncpbl1o- has been confirmed
Track | CTDB Status
1 | (7/7) Accurately ripped
2 | (7/7) Accurately ripped
3 | (7/7) Accurately ripped


==== Log checksum 8E1B4E91F4A300B667AB0833F0E70138A5206CB7E257A55E7C29E88ABB021A98 ====


Extreme: Singles Collection (1990 - 1995)

Tracklist CD5 - 1991 - Hole Hearted:
A&M Records, AMCD 839

1. Hole Hearted
2. Get The Funk Out (12" Remix)
3. Suzi (Wants Her All Day What?)
4. Sex n' Love

Exact Audio Copy V1.1 from 23. June 2015

EAC extraction logfile from 26. March 2017, 17:22

Extreme / Hole Hearted (EP)

Used drive : ASUS DRW-24B1ST Adapter: 1 ID: 1

Read mode : Secure
Utilize accurate stream : Yes
Defeat audio cache : Yes
Make use of C2 pointers : No

Read offset correction : 6
Overread into Lead-In and Lead-Out : No
Fill up missing offset samples with silence : Yes
Delete leading and trailing silent blocks : No
Null samples used in CRC calculations : Yes
Used interface : Native Win32 interface for Win NT & 2000

Used output format : User Defined Encoder
Selected bitrate : 1024 kBit/s
Quality : High
Add ID3 tag : No
Command line compressor : C:\Program Files (x86)\Exact Audio Copy\Flac\flac.exe
Additional command line options : -V -8 -T "Date=%year%" -T "Genre=%genre%" %source%


TOC of the extracted CD

Track | Start | Length | Start sector | End sector
––––––––––––––––––––––––––––-
1 | 0:00.00 | 3:40.00 | 0 | 16499
2 | 3:40.00 | 7:00.35 | 16500 | 48034
3 | 10:40.35 | 3:32.40 | 48035 | 63974
4 | 14:13.00 | 2:42.15 | 63975 | 76139


Range status and errors

Selected range

Filename E:\Torrent\# MY\# Подготовка раздач\Extreme\1991 - Hole Hearted (EP) (A&M Records, AMCD 839, U.K.)\Extreme - Hole Hearted (EP).wav

Peak level 87.0 %
Extraction speed 4.4 X
Range quality 100.0 %
Test CRC E243DBF1
Copy CRC E243DBF1
Copy OK

No errors occurred


AccurateRip summary

Track 1 accurately ripped (confidence 4) [ADACE439] (AR v2)
Track 2 accurately ripped (confidence 4) [D16752E5] (AR v2)
Track 3 accurately ripped (confidence 4) [71F32116] (AR v2)
Track 4 accurately ripped (confidence 5) [DBE15508] (AR v2)

All tracks accurately ripped

End of status report

–– CUETools DB Plugin V2.1.6

[CTDB TOCID: hgXM8KThlb0jyH_4fh8Eh__jkcY-] found
Submit result: hgXM8KThlb0jyH_4fh8Eh__jkcY- has been confirmed
Track | CTDB Status
1 | (3/3) Accurately ripped
2 | (3/3) Accurately ripped
3 | (3/3) Accurately ripped
4 | (3/3) Accurately ripped


==== Log checksum 7A1F8ADFAF68C3508A94903D296D8994BA0749D6FB27BB51F85F98D0A01476AC ====


Extreme: Singles Collection (1990 - 1995)

Tracklist CD6 - 1991 - More Than Words:
A&M Records, 390 764-2

1. More Than Words (Remix)
2. Kid Ego
3. Nice Place To Visit

Exact Audio Copy V1.1 from 23. June 2015

EAC extraction logfile from 21. June 2017, 9:06

Extreme / More Than Words (EP)

Used drive : ASUS DRW-24B1ST Adapter: 1 ID: 1

Read mode : Secure
Utilize accurate stream : Yes
Defeat audio cache : Yes
Make use of C2 pointers : No

Read offset correction : 6
Overread into Lead-In and Lead-Out : No
Fill up missing offset samples with silence : Yes
Delete leading and trailing silent blocks : No
Null samples used in CRC calculations : Yes
Used interface : Native Win32 interface for Win NT & 2000

Used output format : User Defined Encoder
Selected bitrate : 128 kBit/s
Quality : High
Add ID3 tag : No
Command line compressor : C:\Program Files (x86)\Exact Audio Copy\Flac\flac.exe
Additional command line options : -V -8 -T "Genre=%genre%" -T "Artist=%artist%" -T "Title=%title%" -T "Album=%albumtitle%" -T "Date=%year%" -T "Tracknumber=%tracknr%" -T "Comment=%comment%" %source%


TOC of the extracted CD

Track | Start | Length | Start sector | End sector
––––––––––––––––––––––––––––-
1 | 0:00.33 | 3:44.05 | 33 | 16837
2 | 3:44.38 | 4:02.55 | 16838 | 35042
3 | 7:47.18 | 3:17.55 | 35043 | 49872


Range status and errors

Selected range

Filename E:\Torrent\# MY\# Подготовка раздач\Extreme\EPs, Singles\1991 - More Than Words (EP) (A&M Records, 390 764-2, Germany)\Extreme - More Than Words (EP).wav

Peak level 100.0 %
Extraction speed 1.9 X
Range quality 99.9 %
Test CRC 0482D944
Copy CRC 0482D944
Copy OK

No errors occurred


AccurateRip summary

Track 1 accurately ripped (confidence 24) [688AB425] (AR v2)
Track 2 accurately ripped (confidence 22) [63911874] (AR v2)
Track 3 accurately ripped (confidence 24) [70D3AC0B] (AR v2)

All tracks accurately ripped

End of status report

–– CUETools DB Plugin V2.1.6

[CTDB TOCID: zCDAL_cbZ4elnFbe8WaEXynhbww-] found
Submit result: zCDAL_cbZ4elnFbe8WaEXynhbww- has been confirmed
Track | CTDB Status
1 | (23/24) Accurately ripped
2 | (23/24) Accurately ripped
3 | (22/24) Accurately ripped


==== Log checksum DEE96816C850330AEDC7163E806ABBD4630749E7F2BB97EE6CCC9C15A9E47BD1 ====


Extreme: Singles Collection (1990 - 1995)

Tracklist CD7 - 1992 - Rest In Peace:
A&M Records, AMCD 0055

1. Rest In Peace (Radio edit)
2. Rest In Peace (LP version)
3. Peacemaker Die
4. Monica

Exact Audio Copy V1.1 from 23. June 2015

EAC extraction logfile from 15. May 2017, 21:16

Extreme / Rest In Peace (EP)

Used drive : ASUS DRW-24B1ST Adapter: 1 ID: 1

Read mode : Secure
Utilize accurate stream : Yes
Defeat audio cache : Yes
Make use of C2 pointers : No

Read offset correction : 6
Overread into Lead-In and Lead-Out : No
Fill up missing offset samples with silence : Yes
Delete leading and trailing silent blocks : No
Null samples used in CRC calculations : Yes
Used interface : Native Win32 interface for Win NT & 2000

Used output format : User Defined Encoder
Selected bitrate : 1024 kBit/s
Quality : High
Add ID3 tag : No
Command line compressor : C:\Program Files (x86)\Exact Audio Copy\Flac\flac.exe
Additional command line options : -V -8 -T "Genre=%genre%" -T "Artist=%artist%" -T "Title=%title%" -T "Album=%albumtitle%" -T "Date=%year%" -T "Tracknumber=%tracknr%" -T "Comment=%comment%" %source%


TOC of the extracted CD

Track | Start | Length | Start sector | End sector
––––––––––––––––––––––––––––-
1 | 0:00.67 | 5:00.03 | 67 | 22569
2 | 5:00.70 | 6:04.12 | 22570 | 49881
3 | 11:05.07 | 6:05.63 | 49882 | 77319
4 | 17:10.70 | 3:18.70 | 77320 | 92239


Range status and errors

Selected range

Filename E:\Torrent\# MY\# Подготовка раздач\Extreme\EPs, Singles\1992 - Rest In Peace (EP) (A&M Records, AMCD 0055, U.K.)\Extreme - Rest In Peace (EP).wav

Peak level 92.9 %
Extraction speed 2.3 X
Range quality 99.9 %
Test CRC EF357680
Copy CRC EF357680
Copy OK

No errors occurred


AccurateRip summary

Track 1 accurately ripped (confidence 9) [DF642ABA] (AR v2)
Track 2 accurately ripped (confidence 8) [E5516BAB] (AR v2)
Track 3 accurately ripped (confidence 8) [CBB64E09] (AR v2)
Track 4 accurately ripped (confidence 9) [15A52F2D] (AR v2)

All tracks accurately ripped

End of status report

–– CUETools DB Plugin V2.1.6

[CTDB TOCID: co78uFAs7L50BW8HxB9BaSXwRRA-] found
Submit result: already submitted
Track | CTDB Status
1 | (9/9) Accurately ripped
2 | (9/9) Accurately ripped
3 | (9/9) Accurately ripped
4 | (9/9) Accurately ripped


==== Log checksum 3E96047FA840CB7E2723E00A8B1161A8D97DE4FD8040A2BA8D55AE841D435673 ====


Extreme: Singles Collection (1990 - 1995)

Tracklist CD8 - 1992 - Song For Love:
A&M Records, AMCD 698

1. Song For Love
2. Love Of My Life

Exact Audio Copy V1.1 from 23. June 2015

EAC extraction logfile from 15. May 2017, 20:46

Extreme / Song For Love (EP)

Used drive : ASUS DRW-24B1ST Adapter: 1 ID: 1

Read mode : Secure
Utilize accurate stream : Yes
Defeat audio cache : Yes
Make use of C2 pointers : No

Read offset correction : 6
Overread into Lead-In and Lead-Out : No
Fill up missing offset samples with silence : Yes
Delete leading and trailing silent blocks : No
Null samples used in CRC calculations : Yes
Used interface : Native Win32 interface for Win NT & 2000

Used output format : User Defined Encoder
Selected bitrate : 1024 kBit/s
Quality : High
Add ID3 tag : No
Command line compressor : C:\Program Files (x86)\Exact Audio Copy\Flac\flac.exe
Additional command line options : -V -8 -T "Genre=%genre%" -T "Artist=%artist%" -T "Title=%title%" -T "Album=%albumtitle%" -T "Date=%year%" -T "Tracknumber=%tracknr%" -T "Comment=%comment%" %source%


TOC of the extracted CD

Track | Start | Length | Start sector | End sector
––––––––––––––––––––––––––––-
1 | 0:00.00 | 4:47.10 | 0 | 21534
2 | 4:47.10 | 4:31.10 | 21535 | 41869


Range status and errors

Selected range

Filename E:\Torrent\# MY\# Подготовка раздач\Extreme\EPs, Singles\1992 - Song For Love (EP) (A&M Records, AMCD 698, U.K.)\Extreme - Song For Love (EP).wav

Peak level 87.3 %
Extraction speed 2.2 X
Range quality 100.0 %
Test CRC 5AFEB771
Copy CRC 5AFEB771
Copy OK

No errors occurred


AccurateRip summary

Track 1 accurately ripped (confidence 10) [FB0206C7] (AR v2)
Track 2 accurately ripped (confidence 10) [9A7EB82B] (AR v2)

All tracks accurately ripped

End of status report

–– CUETools DB Plugin V2.1.6

[CTDB TOCID: 7zwZzyoVMuuww.pjsdFMFVQIzZw-] found
Submit result: already submitted
Track | CTDB Status
1 | (11/11) Accurately ripped
2 | (11/11) Accurately ripped


==== Log checksum 172F8CAB898CB8BAAF626D6E939EE8537427473EA38B647128E2402A576E895E ====


Extreme: Singles Collection (1990 - 1995)

Tracklist CD9 - 1992 - Stop The World:
A&M Records, AMCD 0096

1. Stop The World (Radio edit)
2. Christmas Time Again
3. Warheads
4. Don't Leave Me Alone

Exact Audio Copy V1.1 from 23. June 2015

EAC extraction logfile from 19. June 2017, 21:30

Extreme / Stop The World (EP)

Used drive : ASUS DRW-24B1ST Adapter: 1 ID: 1

Read mode : Secure
Utilize accurate stream : Yes
Defeat audio cache : Yes
Make use of C2 pointers : No

Read offset correction : 6
Overread into Lead-In and Lead-Out : No
Fill up missing offset samples with silence : Yes
Delete leading and trailing silent blocks : No
Null samples used in CRC calculations : Yes
Used interface : Native Win32 interface for Win NT & 2000

Used output format : User Defined Encoder
Selected bitrate : 128 kBit/s
Quality : High
Add ID3 tag : No
Command line compressor : C:\Program Files (x86)\Exact Audio Copy\Flac\flac.exe
Additional command line options : -V -8 -T "Genre=%genre%" -T "Artist=%artist%" -T "Title=%title%" -T "Album=%albumtitle%" -T "Date=%year%" -T "Tracknumber=%tracknr%" -T "Comment=%comment%" %source%


TOC of the extracted CD

Track | Start | Length | Start sector | End sector
––––––––––––––––––––––––––––-
1 | 0:00.32 | 4:37.35 | 32 | 20841
2 | 4:37.67 | 5:06.58 | 20842 | 43849
3 | 9:44.50 | 5:21.17 | 43850 | 67941
4 | 15:05.67 | 5:43.43 | 67942 | 93709


Range status and errors

Selected range

Filename E:\Torrent\# MY\# Подготовка раздач\Extreme\EPs, Singles\1992 - Stop The World (EP) (A&M Records, AMCD 0096, U.K.)\Extreme - Stop The World (EP).wav

Peak level 95.2 %
Extraction speed 2.4 X
Range quality 100.0 %
Test CRC 4FEBD25C
Copy CRC 4FEBD25C
Copy OK

No errors occurred


AccurateRip summary

Track 1 accurately ripped (confidence 5) [C49041C3] (AR v2)
Track 2 accurately ripped (confidence 5) [C0100F2D] (AR v2)
Track 3 accurately ripped (confidence 4) [41004796] (AR v2)
Track 4 accurately ripped (confidence 6) [C47C9400] (AR v2)

All tracks accurately ripped

End of status report

–– CUETools DB Plugin V2.1.6

[CTDB TOCID: XCjlUAnwBIf3H8q0wTe5kI1NFG8-] found
Submit result: already submitted
Track | CTDB Status
1 | (7/7) Accurately ripped
2 | (7/7) Accurately ripped
3 | (7/7) Accurately ripped
4 | (7/7) Accurately ripped


==== Log checksum EFE05A1058B6AE6832FB71126DF58D4FAADABC12137EA527E07C006A3DEAB3F7 ====


Extreme: Singles Collection (1990 - 1995)

Tracklist CD10 - 1993 - Tragic Comic:
A&M Records, POCM-1024

1. Tragic Comic (Radio edit)
2. Hole Hearted (Horn mix)
3. Rise 'n Shine (Acoustic)
4. Cupid's Dead (Horn mix)
5. When I'm President (Live)
6. Help!

Exact Audio Copy V1.1 from 23. June 2015

EAC extraction logfile from 22. May 2017, 22:24

Extreme / Tragic Comic (EP)

Used drive : ASUS DRW-24B1ST Adapter: 1 ID: 1

Read mode : Secure
Utilize accurate stream : Yes
Defeat audio cache : Yes
Make use of C2 pointers : No

Read offset correction : 6
Overread into Lead-In and Lead-Out : No
Fill up missing offset samples with silence : Yes
Delete leading and trailing silent blocks : No
Null samples used in CRC calculations : Yes
Used interface : Native Win32 interface for Win NT & 2000

Used output format : User Defined Encoder
Selected bitrate : 1024 kBit/s
Quality : High
Add ID3 tag : No
Command line compressor : C:\Program Files (x86)\Exact Audio Copy\Flac\flac.exe
Additional command line options : -V -8 -T "Genre=%genre%" -T "Artist=%artist%" -T "Title=%title%" -T "Album=%albumtitle%" -T "Date=%year%" -T "Tracknumber=%tracknr%" -T "Comment=%comment%" %source%


TOC of the extracted CD

Track | Start | Length | Start sector | End sector
––––––––––––––––––––––––––––-
1 | 0:00.37 | 4:41.40 | 37 | 21151
2 | 4:42.02 | 3:47.68 | 21152 | 38244
3 | 8:29.70 | 6:01.30 | 38245 | 65349
4 | 14:31.25 | 5:57.60 | 65350 | 92184
5 | 20:29.10 | 5:37.10 | 92185 | 117469
6 | 26:06.20 | 2:21.17 | 117470 | 128061


Range status and errors

Selected range

Filename E:\Torrent\# MY\# Подготовка раздач\Extreme\EPs, Singles\1993 - Tragic Comic (EP) (A&M Records, POCM-1024, Japan)\Extreme - Tragic Comic (EP).wav

Peak level 100.0 %
Extraction speed 2.4 X
Range quality 99.9 %
Test CRC 434C25C0
Copy CRC 434C25C0
Copy OK

No errors occurred


AccurateRip summary

Track 1 cannot be verified as accurate (confidence 3) [F7A7F336], AccurateRip returned [8E5A69BA] (AR v2)
Track 2 accurately ripped (confidence 2) [903B15E3] (AR v1)
Track 3 accurately ripped (confidence 2) [4C4EE564] (AR v1)
Track 4 accurately ripped (confidence 2) [C1E31734] (AR v1)
Track 5 accurately ripped (confidence 2) [492B7BEC] (AR v1)
Track 6 accurately ripped (confidence 2) [ECFA7020] (AR v1)

5 трек(и) скопированы точно
1 трек(и) не удалось проверить на точность

Some tracks could not be verified as accurate

End of status report

–– CUETools DB Plugin V2.1.6

[CTDB TOCID: K8JrpG8OTa7eJzxLh.Eed2exPqE-] found
Submit result: already submitted
Track | CTDB Status
1 | (14/14) Accurately ripped
2 | (14/14) Accurately ripped
3 | (14/14) Accurately ripped
4 | (14/14) Accurately ripped
5 | (14/14) Accurately ripped
6 | (14/14) Accurately ripped


==== Log checksum CC2982D2CC375DC75CE06F3C3FF877FB54DF4D39F5086797CE7551E9A7DCCCF9 ====


Extreme: Singles Collection (1990 - 1995)

Tracklist CD11 - 1994 - There Is No God:
A&M Records, POCM-1079

1. There Is No God (Edit)
2. Never Been Funked
3. Better Off Dead

Exact Audio Copy V1.0 beta 3 from 29. August 2011

EAC extraction logfile from 28. August 2014, 19:06

Extreme / There Is No God

Used drive : Optiarc DVD-ROM DDU1675S Adapter: 3 ID: 0

Read mode : Secure
Utilize accurate stream : Yes
Defeat audio cache : Yes
Make use of C2 pointers : No

Read offset correction : 6
Overread into Lead-In and Lead-Out : No
Fill up missing offset samples with silence : Yes
Delete leading and trailing silent blocks : No
Null samples used in CRC calculations : Yes
Used interface : Native Win32 interface for Win NT & 2000

Used output format : User Defined Encoder
Selected bitrate : 1024 kBit/s
Quality : High
Add ID3 tag : No
Command line compressor : C:\Program Files (x86)\Exact Audio Copy\FLAC\FLAC.EXE
Additional command line options : -V -8 -T "Date=%year%" -T "Genre=%genre%" %source%


TOC of the extracted CD

Track | Start | Length | Start sector | End sector
––––––––––––––––––––––––––––-
1 | 0:00.37 | 4:25.30 | 37 | 19941
2 | 4:25.67 | 3:35.68 | 19942 | 36134
3 | 8:01.60 | 5:39.27 | 36135 | 61586


Range status and errors

Selected range

Filename E:\Torrent\# MY\Extreme - Discography (1989-2010)\1994 - There Is No God (Single)\Extreme - There Is No God.wav

Peak level 99.2 %
Extraction speed 3.2 X
Range quality 100.0 %
Test CRC A08D6C35
Copy CRC A08D6C35
Copy OK

No errors occurred


AccurateRip summary

Track 1 accurately ripped (confidence 3) [662C70AD] (AR v2)
Track 2 accurately ripped (confidence 3) [E1AEB0A6] (AR v2)
Track 3 accurately ripped (confidence 3) [EBF22A57] (AR v2)

All tracks accurately ripped

End of status report

–– CUETools DB Plugin V2.1.3

[CTDB TOCID: x2xwz9rwvBmbTH3Hbgvqyknvtr0-] disk not present in database, Submit result: discs with pregaps not supported in this protocol version


==== Log checksum BCEAA157002BABB4CB2C58B3F44DC745A53B16772307EDDFF847AB7A20DC2A33 ====


Extreme: Singles Collection (1990 - 1995)

Tracklist CD12 - 1995 - Hip Today:
A&M Records, 580 993-2

1. Hip Today (Edit)
2. Better Off Dead
3. Never Been Funked
4. Kid Ego (Live)

Exact Audio Copy V1.1 from 23. June 2015

EAC extraction logfile from 25. May 2017, 22:05

Extreme / Hip Today (EP) (Disc 1)

Used drive : ASUS DRW-24B1ST Adapter: 1 ID: 1

Read mode : Secure
Utilize accurate stream : Yes
Defeat audio cache : Yes
Make use of C2 pointers : No

Read offset correction : 6
Overread into Lead-In and Lead-Out : No
Fill up missing offset samples with silence : Yes
Delete leading and trailing silent blocks : No
Null samples used in CRC calculations : Yes
Used interface : Native Win32 interface for Win NT & 2000

Used output format : User Defined Encoder
Selected bitrate : 1024 kBit/s
Quality : High
Add ID3 tag : No
Command line compressor : C:\Program Files (x86)\Exact Audio Copy\Flac\flac.exe
Additional command line options : -V -8 -T "Genre=%genre%" -T "Artist=%artist%" -T "Title=%title%" -T "Album=%albumtitle%" -T "Date=%year%" -T "Tracknumber=%tracknr%" -T "Comment=%comment%" %source%


TOC of the extracted CD

Track | Start | Length | Start sector | End sector
––––––––––––––––––––––––––––-
1 | 0:00.33 | 4:17.10 | 33 | 19317
2 | 4:17.43 | 5:40.62 | 19318 | 44879
3 | 9:58.30 | 3:36.40 | 44880 | 61119
4 | 13:34.70 | 4:49.63 | 61120 | 82857


Range status and errors

Selected range

Filename E:\Torrent\# MY\# Подготовка раздач\Extreme\EPs, Singles\1995 - Hip Today (EP) (A&M Records, 580 991-2, U.K.)\Disc 1\Extreme - Hip Today (EP) (Disc 1).wav

Peak level 97.7 %
Extraction speed 2.3 X
Range quality 100.0 %
Test CRC A7D582F7
Copy CRC A7D582F7
Copy OK

No errors occurred


AccurateRip summary

Track 1 accurately ripped (confidence 2) [BE097BB3] (AR v2)
Track 2 accurately ripped (confidence 2) [D493326F] (AR v2)
Track 3 accurately ripped (confidence 2) [73168E9D] (AR v2)
Track 4 accurately ripped (confidence 2) [232A2837] (AR v2)

All tracks accurately ripped

End of status report

–– CUETools DB Plugin V2.1.6

[CTDB TOCID: m_tv7ZsHRVjOyH8W5NZB4QrIrBA-] found
Submit result: m_tv7ZsHRVjOyH8W5NZB4QrIrBA- has been confirmed
Track | CTDB Status
1 | (3/3) Accurately ripped
2 | (3/3) Accurately ripped
3 | (3/3) Accurately ripped
4 | (3/3) Accurately ripped


==== Log checksum 04CA96FB54A6E561ABF9142F91A1219B45237993F074462D2E19CDE64492500B ====


Extreme: Singles Collection (1990 - 1995)

Tracklist CD13 - 1995 - Hip Today:
A&M Records, 580 991-2

1. Hip Today (Edit)
2. There Is No God (Edit)
3. When I’m President (Live)
4. Strutter

Exact Audio Copy V1.1 from 23. June 2015

EAC extraction logfile from 25. May 2017, 21:44

Extreme / Hip Today (EP)

Used drive : ASUS DRW-24B1ST Adapter: 1 ID: 1

Read mode : Secure
Utilize accurate stream : Yes
Defeat audio cache : Yes
Make use of C2 pointers : No

Read offset correction : 6
Overread into Lead-In and Lead-Out : No
Fill up missing offset samples with silence : Yes
Delete leading and trailing silent blocks : No
Null samples used in CRC calculations : Yes
Used interface : Native Win32 interface for Win NT & 2000

Used output format : User Defined Encoder
Selected bitrate : 1024 kBit/s
Quality : High
Add ID3 tag : No
Command line compressor : C:\Program Files (x86)\Exact Audio Copy\Flac\flac.exe
Additional command line options : -V -8 -T "Genre=%genre%" -T "Artist=%artist%" -T "Title=%title%" -T "Album=%albumtitle%" -T "Date=%year%" -T "Tracknumber=%tracknr%" -T "Comment=%comment%" %source%


TOC of the extracted CD

Track | Start | Length | Start sector | End sector
––––––––––––––––––––––––––––-
1 | 0:00.33 | 4:17.05 | 33 | 19312
2 | 4:17.38 | 4:25.52 | 19313 | 39239
3 | 8:43.15 | 5:37.20 | 39240 | 64534
4 | 14:20.35 | 4:40.35 | 64535 | 85569


Range status and errors

Selected range

Filename E:\Torrent\# MY\# Подготовка раздач\Extreme\EPs, Singles\1995 - Hip Today (EP) (A&M Records, 580 991-2, U.K.)\CD-2\Extreme - Hip Today (Disc 2).wav

Peak level 97.7 %
Extraction speed 4.3 X
Range quality 100.0 %
Test CRC 880399FA
Copy CRC 880399FA
Copy OK

No errors occurred


AccurateRip summary

Track 1 accurately ripped (confidence 3) [3123B90B] (AR v2)
Track 2 accurately ripped (confidence 3) [30FD9B13] (AR v2)
Track 3 accurately ripped (confidence 3) [5557F608] (AR v2)
Track 4 accurately ripped (confidence 3) [D6EE67D8] (AR v2)

All tracks accurately ripped

End of status report

–– CUETools DB Plugin V2.1.6

[CTDB TOCID: k9XwpDZR_zVss4H2pYO5XLGbHfI-] found
Submit result: already submitted
Track | CTDB Status
1 | (4/4) Accurately ripped
2 | (4/4) Accurately ripped
3 | (4/4) Accurately ripped
4 | (4/4) Accurately ripped


==== Log checksum EF7D19F4B2D110C25C40269725A18E02B8F0FCE4331B0BE763F86F136FEF3D6D ====


Extreme: Singles Collection (1990 - 1995)

Tracklist CD14 - 1995 - Running Gag:
A&M Records, POCM-1130

1. Unconditionally (Chr edit)
2. Am I Ever Gonna Change (Live)
3. Tell Me Something I Don't Know (Live)
4. Naked (Live)
5. When Will It Rain

Exact Audio Copy V1.0 beta 3 from 29. August 2011

EAC extraction logfile from 28. August 2014, 19:26

Extreme / Running Gag

Used drive : Optiarc DVD-ROM DDU1675S Adapter: 3 ID: 0

Read mode : Secure
Utilize accurate stream : Yes
Defeat audio cache : Yes
Make use of C2 pointers : No

Read offset correction : 6
Overread into Lead-In and Lead-Out : No
Fill up missing offset samples with silence : Yes
Delete leading and trailing silent blocks : No
Null samples used in CRC calculations : Yes
Used interface : Native Win32 interface for Win NT & 2000

Used output format : User Defined Encoder
Selected bitrate : 1024 kBit/s
Quality : High
Add ID3 tag : No
Command line compressor : C:\Program Files (x86)\Exact Audio Copy\FLAC\FLAC.EXE
Additional command line options : -V -8 -T "Date=%year%" -T "Genre=%genre%" %source%


TOC of the extracted CD

Track | Start | Length | Start sector | End sector
––––––––––––––––––––––––––––-
1 | 0:00.00 | 3:45.55 | 0 | 16929
2 | 3:45.55 | 6:40.72 | 16930 | 47001
3 | 10:26.52 | 6:58.60 | 47002 | 78411
4 | 17:25.37 | 6:06.38 | 78412 | 105899
5 | 23:32.00 | 5:02.25 | 105900 | 128574


Range status and errors

Selected range

Filename E:\Torrent\# MY\Extreme - Discography (1989-2010)\1995 - Running Gag (EP)\Extreme - Running Gag.wav

Peak level 100.0 %
Extraction speed 6.8 X
Range quality 100.0 %
Test CRC 4CBD3232
Copy CRC 4CBD3232
Copy OK

No errors occurred


AccurateRip summary

Track 1 accurately ripped (confidence 2) [D46A7320] (AR v2)
Track 2 accurately ripped (confidence 2) [5B139DDF] (AR v2)
Track 3 accurately ripped (confidence 2) [E233EBCE] (AR v2)
Track 4 accurately ripped (confidence 2) [89D883E7] (AR v2)
Track 5 accurately ripped (confidence 2) [02BBB0D2] (AR v2)

All tracks accurately ripped

End of status report

–– CUETools DB Plugin V2.1.3

[CTDB TOCID: Lg.KHWrrMiRW0JwSAvG4c2qOHDI-] found, Submit result: Lg.KHWrrMiRW0JwSAvG4c2qOHDI- has been confirmed
[b8713fce] (3/3) Accurately ripped


==== Log checksum C8D8A658F3EAA278128C102322EC9FC047CCDBF83D6F34422F4CD21415D7E98F ====


Extreme: Singles Collection (1990 - 1995)

Tracklist CD15 - 1995 - Unconditionally:
A&M Records, 581 119-2

1. Unconditionally (Nuno edit)
2. Am I Ever Gonna Change (Live)
3. When Will It Rain
4. Naked (Live)

Exact Audio Copy V1.1 from 23. June 2015

EAC extraction logfile from 2. June 2017, 21:52

Extreme / Unconditionally (EP)

Used drive : ASUS DRW-24B1ST Adapter: 1 ID: 1

Read mode : Secure
Utilize accurate stream : Yes
Defeat audio cache : Yes
Make use of C2 pointers : No

Read offset correction : 6
Overread into Lead-In and Lead-Out : No
Fill up missing offset samples with silence : Yes
Delete leading and trailing silent blocks : No
Null samples used in CRC calculations : Yes
Used interface : Native Win32 interface for Win NT & 2000

Used output format : User Defined Encoder
Selected bitrate : 1024 kBit/s
Quality : High
Add ID3 tag : No
Command line compressor : C:\Program Files (x86)\Exact Audio Copy\Flac\flac.exe
Additional command line options : -V -8 -T "Genre=%genre%" -T "Artist=%artist%" -T "Title=%title%" -T "Album=%albumtitle%" -T "Date=%year%" -T "Tracknumber=%tracknr%" -T "Comment=%comment%" %source%


TOC of the extracted CD

Track | Start | Length | Start sector | End sector
––––––––––––––––––––––––––––-
1 | 0:00.33 | 3:47.15 | 33 | 17072
2 | 3:47.48 | 6:43.10 | 17073 | 47307
3 | 10:30.58 | 5:05.02 | 47308 | 70184
4 | 15:35.60 | 6:04.20 | 70185 | 97504


Range status and errors

Selected range

Filename E:\Torrent\# MY\# Подготовка раздач\Extreme\EPs, Singles\1995 - Unconditionally (EP) (A&M Records, 581 119-2, U.K.)\Extreme - Unconditionally (EP).wav

Peak level 100.0 %
Extraction speed 2.4 X
Range quality 100.0 %
Test CRC 3ECB0D07
Copy CRC 3ECB0D07
Copy OK

No errors occurred


AccurateRip summary

Track 1 accurately ripped (confidence 2) [26588ADD] (AR v2)
Track 2 accurately ripped (confidence 2) [26A5A7E9] (AR v2)
Track 3 accurately ripped (confidence 2) [4C3E016F] (AR v2)
Track 4 accurately ripped (confidence 2) [67E7AA7B] (AR v2)

All tracks accurately ripped

End of status report

–– CUETools DB Plugin V2.1.6

[CTDB TOCID: kMyLp2ywD3QGx4EsycxR3DN8UJc-] found
Submit result: kMyLp2ywD3QGx4EsycxR3DN8UJc- has been confirmed
Track | CTDB Status
1 | (3/3) Accurately ripped
2 | (3/3) Accurately ripped
3 | (3/3) Accurately ripped
4 | (3/3) Accurately ripped


==== Log checksum 3087E4CA146505C664A588BE54FA0EBD8078B9973FD78226F08AB84311367148 ====


All thanks go to Ginger Devil

Extreme in my Blog

Download Extreme: Singles Collection (1990 - 1995):