Subcategories

Eyal Sela - Sela (2001) {Magda}

Posted By: tiburon
Eyal Sela - Sela (2001) {Magda}

Eyal Sela - Sela (2001) {Magda}
EAC 1.3 | FLAC tracks level 8 | Cue+Log+M3U | Full Scans 300dpi | 285MB + 5% Recovery
MP3 CBR 320 Kbps | 149MB + 5% Recovery
Genre: Ethnic Fusion

Upon graduating from The Music Academy in Jerusalem, Sela evolved from classical music and jazz into ethnic music, specializing in unique woodwind instruments of this genre. Sela plays in a variety of classic and ethnic woodwinds including: Classical Clarinet, Turkish Clarinet, Silver Flute, Indian Bamboo Flute, Turkish Zorna, Armanian Duduk, African Flute, Saxophone, Irish Penny Whislte, Middle Eastern Ney Flute. In recent years, Sela has performed and recorded with some of the best international artists including Omar Faruk Tekbilek (Turkey), Ross Daily (Greece), Adel Salameh (France) and the leading international Jewish singer, Avraham Fried (USA). He has also performed with some of the leading Israeli musicians and singers such as Idan Raichel (The Idan Raichel Project), Rita, Etti Ankri, Yair Dalal, Shem Tov Levy, Din Din Aviv. Sela was the writer, composer and musical director of the soundtrack of Avi Nesher‘s film The Secrets and was the musical director of the great Indian musical show Bharati. Among his performances, Sela performed with Yair Dalal at the Nobel Peace Prize ceremony and concert in Oslo in 1996.He has released 3 albums: Sela (1995), Dharma (1999), Call of the Mountain (2004). Among his activities Sela has offered master classes at the Music Academy in Jerusalem along with other reputable music institutions and universities across the world. He has presented on the subjects of Turkish, Indian and Balkan music, and was a part of the musical masters staff in the Ethnic Music Center in Safed. He was a lecturer and the Academy of Music in Jerusalem, lecturing on 'The introduction to Turkish, Balkan and Indian Music.' He was also a staff member at the Sefad Collage for the study of Jewish and Ethnical music.
Track List
01. Yugo1 (Yugoslavian Folk)
02. Mawall (Eyal Sela)
03. Ankara (Turkish Folk)
04. Groove13 (Bulgarian Folk)
05. Bottles (Armenian Folk)
06. Bulgarian Cheese (Bulgarian Folk)
07. Jonny and Chris Awake (Herbert Jags)
08. Yugo Sax (Balkan Folk)
09. Zur Mishelo (Sephardic Jewish Traditional)
10. Stivie (Eyal Sela)
11. Mamaliga (Romanian Folk)
12. Trance (Turkish Folk)
13. Halaka "Mironic" (Jewish Traditional)
14. Balkan 98 (Yugoslavian Folk)

musicians
clarinet, alto sax (8), soprano sax (1), bass clarinet (5) - Eyal Sela
oud - Yair Dalal
freetless bass - Noam Topelberg
guitars - Yosi Ron
drums - Asaf Sircus
zaf (rick), bandir, darbuka, irish drum, buzaron, zimpros - Zoar Fresco


Exact Audio Copy V1.3 from 2. September 2016

EAC extraction logfile from 4. December 2017, 15:37

Eyal Sela / Sela

Used drive : HL-DT-STDVDRAM GH24NSB0 Adapter: 1 ID: 0

Read mode : Secure
Utilize accurate stream : Yes
Defeat audio cache : Yes
Make use of C2 pointers : No

Read offset correction : 6
Overread into Lead-In and Lead-Out : No
Fill up missing offset samples with silence : Yes
Delete leading and trailing silent blocks : No
Null samples used in CRC calculations : Yes
Used interface : Native Win32 interface for Win NT & 2000
Gap handling : Appended to previous track

Used output format : User Defined Encoder
Selected bitrate : 1024 kBit/s
Quality : High
Add ID3 tag : No
Command line compressor : C:\Program Files (x86)\Exact Audio Copy\FLAC\FLAC.EXE
Additional command line options : -V -8 -T "Genre=%genre%" -T "Artist=%artist%" -T "Title=%title%" -T "Album=%albumtitle%" -T "Date=%year%" -T "Tracknumber=%tracknr%" -T "Comment=%comment%" %source%


TOC of the extracted CD

Track | Start | Length | Start sector | End sector
––––––––––––––––––––––––––––-
1 | 0:01.00 | 3:56.62 | 75 | 17836
2 | 3:57.62 | 1:52.08 | 17837 | 26244
3 | 5:49.70 | 4:38.45 | 26245 | 47139
4 | 10:28.40 | 2:42.70 | 47140 | 59359
5 | 13:11.35 | 7:34.70 | 59360 | 93479
6 | 20:46.30 | 2:38.10 | 93480 | 105339
7 | 23:24.40 | 5:42.35 | 105340 | 131024
8 | 29:07.00 | 3:10.00 | 131025 | 145274
9 | 32:17.00 | 4:08.47 | 145275 | 163921
10 | 36:25.47 | 3:34.38 | 163922 | 180009
11 | 40:00.10 | 4:28.42 | 180010 | 200151
12 | 44:28.52 | 2:06.05 | 200152 | 209606
13 | 46:34.57 | 4:56.48 | 209607 | 231854
14 | 51:31.30 | 3:27.22 | 231855 | 247401


Track 1

Filename D:\Music\MG rips\Eyal Sela - Sela - 2001 (Magda) [FLAC]\01 - Yugo1.wav

Pre-gap length 0:00:03.00

Peak level 68.3 %
Extraction speed 1.0 X
Track quality 100.0 %
Test CRC DC30ED3C
Copy CRC DC30ED3C
Cannot be verified as accurate (confidence 1) [4A0DBFF3], AccurateRip returned [FC0A608A] (AR v2)
Copy OK

Track 2

Filename D:\Music\MG rips\Eyal Sela - Sela - 2001 (Magda) [FLAC]\02 - Mawall.wav

Peak level 26.4 %
Extraction speed 0.9 X
Track quality 100.0 %
Test CRC 45B09267
Copy CRC 45B09267
Cannot be verified as accurate (confidence 1) [92DB61A1], AccurateRip returned [9F7E10E2] (AR v2)
Copy OK

Track 3

Filename D:\Music\MG rips\Eyal Sela - Sela - 2001 (Magda) [FLAC]\03 - Ankara.wav

Peak level 63.5 %
Extraction speed 1.2 X
Track quality 100.0 %
Test CRC 280566FA
Copy CRC 280566FA
Cannot be verified as accurate (confidence 1) [0C9A924C], AccurateRip returned [577E1729] (AR v2)
Copy OK

Track 4

Filename D:\Music\MG rips\Eyal Sela - Sela - 2001 (Magda) [FLAC]\04 - Groove13.wav

Pre-gap length 0:00:02.65

Peak level 59.5 %
Extraction speed 1.2 X
Track quality 100.0 %
Test CRC 8FFA682A
Copy CRC 8FFA682A
Cannot be verified as accurate (confidence 1) [79B8AE3E], AccurateRip returned [5985519A] (AR v2)
Copy OK

Track 5

Filename D:\Music\MG rips\Eyal Sela - Sela - 2001 (Magda) [FLAC]\05 - Bottles.wav

Pre-gap length 0:00:02.65

Peak level 80.4 %
Extraction speed 1.5 X
Track quality 100.0 %
Test CRC 0903D7CC
Copy CRC 0903D7CC
Cannot be verified as accurate (confidence 1) [9C23BFE8], AccurateRip returned [CDF0E386] (AR v2)
Copy OK

Track 6

Filename D:\Music\MG rips\Eyal Sela - Sela - 2001 (Magda) [FLAC]\06 - Bulgarian Cheese.wav

Pre-gap length 0:00:02.65

Peak level 51.3 %
Extraction speed 1.4 X
Track quality 100.0 %
Test CRC 66C1B855
Copy CRC 66C1B855
Cannot be verified as accurate (confidence 1) [F396368B], AccurateRip returned [1E2E29E5] (AR v2)
Copy OK

Track 7

Filename D:\Music\MG rips\Eyal Sela - Sela - 2001 (Magda) [FLAC]\07 - Jonny and Chris Awake.wav

Pre-gap length 0:00:02.65

Peak level 61.5 %
Extraction speed 1.7 X
Track quality 100.0 %
Test CRC E7ECEF81
Copy CRC E7ECEF81
Cannot be verified as accurate (confidence 1) [D23A2EDE], AccurateRip returned [44A48742] (AR v2)
Copy OK

Track 8

Filename D:\Music\MG rips\Eyal Sela - Sela - 2001 (Magda) [FLAC]\08 - Yugo Sax.wav

Pre-gap length 0:00:01.65

Peak level 49.0 %
Extraction speed 1.6 X
Track quality 100.0 %
Test CRC D0C25BEB
Copy CRC D0C25BEB
Cannot be verified as accurate (confidence 1) [A8AF129D], AccurateRip returned [AAA79DB5] (AR v2)
Copy OK

Track 9

Filename D:\Music\MG rips\Eyal Sela - Sela - 2001 (Magda) [FLAC]\09 - Zur Mishelo.wav

Pre-gap length 0:00:02.65

Peak level 61.6 %
Extraction speed 1.6 X
Track quality 99.9 %
Test CRC 54004765
Copy CRC 54004765
Cannot be verified as accurate (confidence 1) [FCFDEB29], AccurateRip returned [56A0DA28] (AR v2)
Copy OK

Track 10

Filename D:\Music\MG rips\Eyal Sela - Sela - 2001 (Magda) [FLAC]\10 - Stivie.wav

Pre-gap length 0:00:02.65

Peak level 53.1 %
Extraction speed 1.8 X
Track quality 100.0 %
Test CRC F40FA8F7
Copy CRC F40FA8F7
Cannot be verified as accurate (confidence 1) [F48FCAAA], AccurateRip returned [BC832A22] (AR v2)
Copy OK

Track 11

Filename D:\Music\MG rips\Eyal Sela - Sela - 2001 (Magda) [FLAC]\11 - Mamaliga.wav

Pre-gap length 0:00:02.65

Peak level 63.0 %
Extraction speed 1.7 X
Track quality 99.9 %
Test CRC FD71E95E
Copy CRC FD71E95E
Cannot be verified as accurate (confidence 1) [13F77678], AccurateRip returned [1C30F266] (AR v2)
Copy OK

Track 12

Filename D:\Music\MG rips\Eyal Sela - Sela - 2001 (Magda) [FLAC]\12 - Trance.wav

Pre-gap length 0:00:02.65

Peak level 68.1 %
Extraction speed 1.7 X
Track quality 100.0 %
Test CRC 9F8858E6
Copy CRC 9F8858E6
Cannot be verified as accurate (confidence 1) [85ECA275], AccurateRip returned [B8541713] (AR v2)
Copy OK

Track 13

Filename D:\Music\MG rips\Eyal Sela - Sela - 2001 (Magda) [FLAC]\13 - Halaka.wav

Pre-gap length 0:00:02.65

Peak level 69.0 %
Extraction speed 2.1 X
Track quality 100.0 %
Test CRC C78AA311
Copy CRC C78AA311
Cannot be verified as accurate (confidence 1) [36E059B4], AccurateRip returned [4A11AC9D] (AR v2)
Copy OK

Track 14

Filename D:\Music\MG rips\Eyal Sela - Sela - 2001 (Magda) [FLAC]\14 - Balkan 98.wav

Pre-gap length 0:00:02.65

Peak level 89.0 %
Extraction speed 2.0 X
Track quality 100.0 %
Test CRC 7CF9DF42
Copy CRC 7CF9DF42
Cannot be verified as accurate (confidence 1) [7522E5DB], AccurateRip returned [1CECD2B3] (AR v2)
Copy OK


No tracks could be verified as accurate
You may have a different pressing from the one(s) in the database

No errors occurred

End of status report

==== Log checksum B41739E1B3DCAEEE80D0A069FA5FB5718FF1067B35216862E832CB49A22E8417 ====

Eyal Sela - Sela (2001) {Magda}
Eyal Sela - Sela (2001) {Magda}


Thanks to the original ripper