Tags
Language
Tags

FM - 4 Studio Albums (1977-1980) [Japanese Edition 2013]

Posted By: gribovar
FM - 4 Studio Albums (1977-1980) [Japanese Edition 2013]

FM - 4 Studio Albums (1977-1980) [Japanese Edition 2013]
EAC Rip | FLAC (image+.cue+log) - 968 MB | MP3 CBR 320 kbps (LAME 3.93) - 353 MB | Covers - 684 MB
Genre: Progressive Rock | RAR 3% Rec. | Label: Arcangelo

Founded in Toronto, Canada in 1976 - Disbanded in 1989 - Reformed in 1994-1996, 2006 and again since 2011.
This trio came from Toronto around the end of the 70's but got slightly over-shadowed by the profusion of bands exploding all over the album charts, with Rush, Triumph, Saga, Max Webster etc.. It is no wonder some could not get their share of sunlight, among which Goddo, Moxy, Zon, Santers and most certainly FM. Their first LP full of a weird sort of hard rock with strange studio tampering alerted most potential fans that this was a very particular band with their lead violinist Nash The Slash playing as a mummy and Martin Deller at the drum seat as well as Cameron Hawkins on bass. Unfortunately, their crazy frontman opted for a fairly successful solo career (crazy videos on MuchMusic - the equivalent of MTV in the early 80's) and the remaining duo had to find Ben Mink as a replacement but they never managed to regain the magic of their first album. They will still manage another three albums.

FM - 4 Studio Albums (1977-1980) [Japanese Edition 2013]

FM - Black Noise (1977) [Japanese Edition 2013]
EAC Rip | FLAC (image+.cue+log) - 269 MB | MP3 CBR 320 kbps (LAME 3.93) - 95 MB | Covers - 150 MB
Genre: Progressive Rock | RAR 3% Rec. | Label: Arcangelo (ARC-8076)

Tracklist:
01. Phasors on Stun
02. One O'clock Tomorrow
03. Hours
04. Journey
05. Dialing for Dharma
06. Slaughter in Robot Village
07. Aldeberan
08. Black Noise

Total time: 40:19

Exact Audio Copy V1.0 beta 3 from 29. August 2011

EAC extraction logfile from 17. July 2013, 20:11

FM / Black Noise

Used drive : PLEXTOR BD-R PX-B950SA Adapter: 6 ID: 0

Read mode : Secure
Utilize accurate stream : Yes
Defeat audio cache : Yes
Make use of C2 pointers : No

Read offset correction : 6
Overread into Lead-In and Lead-Out : No
Fill up missing offset samples with silence : Yes
Delete leading and trailing silent blocks : No
Null samples used in CRC calculations : Yes
Used interface : Native Win32 interface for Win NT & 2000

Used output format : Internal WAV Routines
Sample format : 44.100 Hz; 16 Bit; Stereo


TOC of the extracted CD

Track | Start | Length | Start sector | End sector
––––––––––––––––––––––––––––-
1 | 0:00.00 | 3:48.72 | 0 | 17171
2 | 3:48.72 | 6:04.58 | 17172 | 44529
3 | 9:53.55 | 2:33.71 | 44530 | 56075
4 | 12:27.51 | 4:40.04 | 56076 | 77079
5 | 17:07.55 | 3:13.02 | 77080 | 91556
6 | 20:20.57 | 5:00.74 | 91557 | 114130
7 | 25:21.56 | 5:01.22 | 114131 | 136727
8 | 30:23.03 | 9:55.46 | 136728 | 181398


Range status and errors

Selected range

Filename C:\Users\Meijin\Desktop\ALLexxess\FM\1977 Black Noise (Mini LP SHM-CD Arcangelo Japan 2013)\FM - Black Noise.wav

Peak level 99.4 %
Extraction speed 6.7 X
Range quality 100.0 %
Test CRC 28BA2E0D
Copy CRC 28BA2E0D
Copy OK

No errors occurred


AccurateRip summary

Track 1 not present in database
Track 2 not present in database
Track 3 not present in database
Track 4 not present in database
Track 5 not present in database
Track 6 not present in database
Track 7 not present in database
Track 8 not present in database

None of the tracks are present in the AccurateRip database

End of status report

==== Log checksum 90F1534E869F3CC9A2413A9D2D0628EF8373F536803C3D7317A162371D0708AD ====

[CUETools log; Date: 28.03.2021 14:53:31; Version: 2.1.4]
[CTDB TOCID: cz3ohdjmyR2dqgzCmgxSrkhmLiE-] found.
Track | CTDB Status
1 | (37/38) Accurately ripped
2 | (37/38) Accurately ripped
3 | (37/38) Accurately ripped
4 | (37/38) Accurately ripped
5 | (38/38) Accurately ripped
6 | (38/38) Accurately ripped
7 | (37/38) Accurately ripped
8 | (38/38) Accurately ripped
[AccurateRip ID: 000af751-004a0a59-5c097208] found.
Track [ CRC | V2 ] Status
01 [0108c354|eaae849c] (00+03/21) Accurately ripped
02 [5243e0ab|4df89cd1] (00+03/21) Accurately ripped
03 [2ed56e0e|3b56111f] (00+03/21) Accurately ripped
04 [dca534f0|a5ef2a2e] (00+03/21) Accurately ripped
05 [9cfb9654|344683bc] (00+03/21) Accurately ripped
06 [c8e5e400|9694bd35] (00+03/21) Accurately ripped
07 [9275a392|01a290aa] (00+03/21) Accurately ripped
08 [51cefd8b|63ab0ec5] (00+03/21) Accurately ripped
Offsetted by 646:
01 [3e53c2ec] (00/21) No match (V2 was not tested)
02 [72a7916d] (00/21) No match (V2 was not tested)
03 [22bde1fa] (00/21) No match (V2 was not tested)
04 [f4686494] (00/21) No match (V2 was not tested)
05 [021dd5d2] (00/21) No match (V2 was not tested)
06 [32d67686] (00/21) No match (V2 was not tested)
07 [8c0b39cc] (00/21) No match (V2 was not tested)
08 [d268962d] (00/21) No match (V2 was not tested)

Track Peak [ CRC32 ] [W/O NULL] [ LOG ]
– 99,4 [28BA2E0D] [D8F36160] CRC32
01 92,2 [F7309566] [7F906D18]
02 99,4 [320754EB] [EFA47B30]
03 97,6 [0223E57B] [797EF389]
04 99,4 [5C81FEBB] [EB5F8277]
05 98,6 [2CD7AAFA] [58581688]
06 99,4 [7795F4DC] [37C48311]
07 95,1 [FB448440] [CD611C8F]
08 99,4 [6B64AF3C] [8B65696F]

FM - 4 Studio Albums (1977-1980) [Japanese Edition 2013]

FM - Direct To Disc (Head Room) (1978) [Japanese Edition 2013]
EAC Rip | FLAC (image+.cue+log) - 180 MB | MP3 CBR 320 kbps (LAME 3.93) - 72 MB | Covers - 188 MB
Genre: Progressive Rock | RAR 3% Rec. | Label: Arcangelo (ARC-8077)

Tracklist:
01. Headroom
I. Tyra
II. Reflections One
III. Reflections Two
IV. Real Time
V. Scarberia
02. Border Crossing
I. The First Movement
II. The Second Movement
III. The Third Movement
IV. The Fourth Movement

Total time: 30:51

Exact Audio Copy V1.0 beta 3 from 29. August 2011

EAC extraction logfile from 17. July 2013, 19:43

FM / Direct To Disc

Used drive : PLEXTOR BD-R PX-B950SA Adapter: 6 ID: 0

Read mode : Secure
Utilize accurate stream : Yes
Defeat audio cache : Yes
Make use of C2 pointers : No

Read offset correction : 6
Overread into Lead-In and Lead-Out : No
Fill up missing offset samples with silence : Yes
Delete leading and trailing silent blocks : No
Null samples used in CRC calculations : Yes
Used interface : Native Win32 interface for Win NT & 2000

Used output format : Internal WAV Routines
Sample format : 44.100 Hz; 16 Bit; Stereo


TOC of the extracted CD

Track | Start | Length | Start sector | End sector
––––––––––––––––––––––––––––-
1 | 0:00.00 | 15:04.39 | 0 | 67838
2 | 15:04.39 | 15:46.65 | 67839 | 138853


Range status and errors

Selected range

Filename C:\Users\Meijin\Desktop\ALLexxess\FM\1978 Direct To Disc (Mini LP SHM-CD Arcangelo Japan 2013)\FM - Direct To Disc.wav

Peak level 100.0 %
Extraction speed 6.3 X
Range quality 100.0 %
Test CRC 5C6328D7
Copy CRC 5C6328D7
Copy OK

No errors occurred


AccurateRip summary

Track 1 not present in database
Track 2 not present in database

None of the tracks are present in the AccurateRip database

End of status report

==== Log checksum 1910EE511FBD9983965CEB4BCF4D663543FBAE4E0909C8B3D29B88AAB9F64442 ====

[CUETools log; Date: 28.03.2021 14:53:51; Version: 2.1.4]
[CTDB TOCID: RbU_3PhWxYeOYTN10TKxf8DNe5E-] found.
Track | CTDB Status
1 | (32/32) Accurately ripped
2 | (32/32) Accurately ripped
[AccurateRip ID: 00032765-00086d31-11073b02] found.
Track [ CRC | V2 ] Status
01 [a8f9289b|cfaf1eb4] (00+02/16) Accurately ripped
02 [2ce3effb|527e7103] (00+02/16) Accurately ripped
Offsetted by 646:
01 [4b71d5f5] (00/16) No match (V2 was not tested)
02 [8b4bf01f] (00/16) No match (V2 was not tested)

Track Peak [ CRC32 ] [W/O NULL] [ LOG ]
– 100,0 [5C6328D7] [A31E88E0] CRC32
01 100,0 [31A16DFE] [3F978616]
02 100,0 [B2C3B474] [A6634149]

Thanks to ALLexxess
FM - 4 Studio Albums (1977-1980) [Japanese Edition 2013]

FM - Surveillance (1979) [Japanese Edition 2013]
EAC Rip | FLAC (image+.cue+log) - 248 MB | MP3 CBR 320 kbps (LAME 3.93) - 84 MB | Covers - 144 MB
Genre: Progressive Rock | RAR 3% Rec. | Label: Arcangelo (ARC-8078)

Tracklist:
01. Rocket Roll
02. Orion
03. Horizons
04. Random Harvest
05. Shapes Of Things
06. Seventh Heaven
07. Father Time
08. Sofa Back
09. Destruction

Total time: 35:51

Exact Audio Copy V1.0 beta 3 from 29. August 2011

EAC extraction logfile from 16. July 2013, 20:21

FM / Surveillance

Used drive : PLEXTOR BD-R PX-B950SA Adapter: 6 ID: 0

Read mode : Secure
Utilize accurate stream : Yes
Defeat audio cache : Yes
Make use of C2 pointers : No

Read offset correction : 6
Overread into Lead-In and Lead-Out : No
Fill up missing offset samples with silence : Yes
Delete leading and trailing silent blocks : No
Null samples used in CRC calculations : Yes
Used interface : Native Win32 interface for Win NT & 2000

Used output format : Internal WAV Routines
Sample format : 44.100 Hz; 16 Bit; Stereo


TOC of the extracted CD

Track | Start | Length | Start sector | End sector
––––––––––––––––––––––––––––-
1 | 0:00.00 | 3:28.59 | 0 | 15658
2 | 3:28.59 | 1:30.07 | 15659 | 22415
3 | 4:58.66 | 4:19.66 | 22416 | 41906
4 | 9:18.57 | 4:36.08 | 41907 | 62614
5 | 13:54.65 | 3:03.00 | 62615 | 76339
6 | 16:57.65 | 5:36.01 | 76340 | 101540
7 | 22:33.66 | 4:20.26 | 101541 | 121066
8 | 26:54.17 | 3:00.21 | 121067 | 134587
9 | 29:54.38 | 5:56.46 | 134588 | 161333


Range status and errors

Selected range

Filename C:\Users\Meijin\Desktop\ALLexxess\FM\1979 Surveillance (Mini LP SHM-CD Arcangelo Japan 2013)\FM - Surveillance.wav

Peak level 99.4 %
Extraction speed 6.5 X
Range quality 100.0 %
Test CRC A4FFF5C5
Copy CRC A4FFF5C5
Copy OK

No errors occurred


AccurateRip summary

Track 1 cannot be verified as accurate (confidence 1) [5EB88EB0], AccurateRip returned [243D43EA] (AR v2)
Track 2 cannot be verified as accurate (confidence 1) [499D5788], AccurateRip returned [DB405FEA] (AR v2)
Track 3 cannot be verified as accurate (confidence 1) [9F601FE1], AccurateRip returned [C826DD2B] (AR v2)
Track 4 cannot be verified as accurate (confidence 1) [D2FFE2B8], AccurateRip returned [B1A4A6AA] (AR v2)
Track 5 cannot be verified as accurate (confidence 1) [0F9AD2C8], AccurateRip returned [E7FBA2C1] (AR v2)
Track 6 cannot be verified as accurate (confidence 1) [CED538CF], AccurateRip returned [C8B9DF04] (AR v2)
Track 7 cannot be verified as accurate (confidence 1) [B4C29D57], AccurateRip returned [0ED94EE3] (AR v2)
Track 8 cannot be verified as accurate (confidence 1) [3F3EE5DA], AccurateRip returned [60551527] (AR v2)
Track 9 cannot be verified as accurate (confidence 1) [E1DB10A5], AccurateRip returned [DF241F52] (AR v2)

No tracks could be verified as accurate
You may have a different pressing from the one(s) in the database

End of status report

==== Log checksum B24A10E627E6DCCDFA29ED0FDE6FED8F40B511DBF9678FAD2AC2841B76CCBB0F ====

[CUETools log; Date: 28.03.2021 14:54:16; Version: 2.1.4]
[CTDB TOCID: gloZhTWGyKXVbn6W5HD15lKKRcQ-] found.
Track | CTDB Status
1 | (22/22) Accurately ripped
2 | (22/22) Accurately ripped
3 | (22/22) Accurately ripped
4 | (22/22) Accurately ripped
5 | (22/22) Accurately ripped
6 | (22/22) Accurately ripped
7 | (22/22) Accurately ripped
8 | (22/22) Accurately ripped
9 | (22/22) Accurately ripped
[AccurateRip ID: 000b40bb-00548d91-62086709] found.
Track [ CRC | V2 ] Status
01 [c6c14838|5eb88eb0] (00+03/13) Accurately ripped
02 [477d8914|499d5788] (00+03/15) Accurately ripped
03 [e0d20812|9f601fe1] (00+03/15) Accurately ripped
04 [6714340f|d2ffe2b8] (00+03/15) Accurately ripped
05 [2a060659|0f9ad2c8] (00+03/13) Accurately ripped
06 [e5623c58|ced538cf] (00+03/15) Accurately ripped
07 [4f936697|b4c29d57] (00+03/15) Accurately ripped
08 [57561c6f|3f3ee5da] (00+03/15) Accurately ripped
09 [d72b5e3e|e1db10a5] (00+03/15) Accurately ripped
Offsetted by 646:
01 [243d43ea] (00/13) No match (V2 was not tested)
02 [db405fea] (02/15) Accurately ripped
03 [c826dd2b] (02/15) Accurately ripped
04 [b1a4a6aa] (02/15) Accurately ripped
05 [e7fba2c1] (00/13) No match (V2 was not tested)
06 [c8b9df04] (02/15) Accurately ripped
07 [0ed94ee3] (02/15) Accurately ripped
08 [60551527] (02/15) Accurately ripped
09 [df241f52] (02/15) Accurately ripped

Track Peak [ CRC32 ] [W/O NULL] [ LOG ]
– 99,4 [A4FFF5C5] [14D1FAC8] CRC32
01 99,4 [C1F84D56] [ECB7A98F]
02 99,4 [A98970EA] [6BA82469]
03 99,4 [2B6C71EB] [ABB29A4F]
04 99,4 [8F7ED2BA] [DCE37E2C]
05 99,4 [E83D3CA3] [F1A9090F]
06 99,4 [B5C3127D] [90966032]
07 99,4 [3C3792AA] [3D02F06E]
08 94,7 [FFFE5942] [F21EA756]
09 97,5 [D3CC9D03] [41426136]

FM - 4 Studio Albums (1977-1980) [Japanese Edition 2013]

FM - City Of Fear (1980) [Japanese Edition 2013]
EAC Rip | FLAC (image+.cue+log) - 271 MB | MP3 CBR 320 kbps (LAME 3.93) - 102 MB | Covers - 202 MB
Genre: Progressive Rock | RAR 3% Rec. | Label: Arcangelo (ARC-8079)

Tracklist:
01. Krakow
02. Power
03. Truth Or Consequences
04. Lost And Found
05. City Of Fear
06. Surface To Air
07. Up To You
08. Silence
09. Riding The Thunder
10. Nobody At All

Total time: 43:32

Exact Audio Copy V1.0 beta 3 from 29. August 2011

EAC extraction logfile from 16. July 2013, 19:51

FM / City Of Fear

Used drive : PLEXTOR BD-R PX-B950SA Adapter: 6 ID: 0

Read mode : Secure
Utilize accurate stream : Yes
Defeat audio cache : Yes
Make use of C2 pointers : No

Read offset correction : 6
Overread into Lead-In and Lead-Out : No
Fill up missing offset samples with silence : Yes
Delete leading and trailing silent blocks : No
Null samples used in CRC calculations : Yes
Used interface : Native Win32 interface for Win NT & 2000

Used output format : Internal WAV Routines
Sample format : 44.100 Hz; 16 Bit; Stereo


TOC of the extracted CD

Track | Start | Length | Start sector | End sector
––––––––––––––––––––––––––––-
1 | 0:00.00 | 4:37.41 | 0 | 20815
2 | 4:37.41 | 3:26.64 | 20816 | 36329
3 | 8:04.30 | 4:13.17 | 36330 | 55321
4 | 12:17.47 | 4:24.69 | 55322 | 75190
5 | 16:42.41 | 5:20.73 | 75191 | 99263
6 | 22:03.39 | 5:17.32 | 99264 | 123070
7 | 27:20.71 | 4:33.09 | 123071 | 143554
8 | 31:54.05 | 3:24.39 | 143555 | 158893
9 | 35:18.44 | 4:03.71 | 158894 | 177189
10 | 39:22.40 | 4:09.46 | 177190 | 195910


Range status and errors

Selected range

Filename C:\Users\Meijin\Desktop\ALLexxess\FM\1980 City Of Fear (Mini LP SHM-CD Arcangelo Japan 2013)\FM - City Of Fear.wav

Peak level 99.4 %
Extraction speed 6.7 X
Range quality 99.9 %
Test CRC 1521AA6C
Copy CRC 1521AA6C
Copy OK

No errors occurred


AccurateRip summary

Track 1 cannot be verified as accurate (confidence 1) [204D5599], AccurateRip returned [60C3B528] (AR v2)
Track 2 cannot be verified as accurate (confidence 1) [5FF52D7A], AccurateRip returned [1CBC9860] (AR v2)
Track 3 cannot be verified as accurate (confidence 1) [F175AD4B], AccurateRip returned [1B757847] (AR v2)
Track 4 cannot be verified as accurate (confidence 1) [4D035115], AccurateRip returned [67195EC3] (AR v2)
Track 5 cannot be verified as accurate (confidence 1) [C03DED49], AccurateRip returned [B2128FD9] (AR v2)
Track 6 cannot be verified as accurate (confidence 1) [C7E72082], AccurateRip returned [A09B95B7] (AR v2)
Track 7 cannot be verified as accurate (confidence 1) [E09D4419], AccurateRip returned [B41FA90F] (AR v2)
Track 8 cannot be verified as accurate (confidence 1) [1BDCF5AA], AccurateRip returned [CB35720A] (AR v2)
Track 9 cannot be verified as accurate (confidence 1) [650368FB], AccurateRip returned [4EE16551] (AR v2)
Track 10 cannot be verified as accurate (confidence 1) [B065BE60], AccurateRip returned [EBBEA526] (AR v2)

No tracks could be verified as accurate
You may have a different pressing from the one(s) in the database

End of status report

==== Log checksum 5B92FCE182A6EFE37277EB424507A8868AEB535C1B5DBECAB372BE0A66CC3082 ====

[CUETools log; Date: 28.03.2021 14:54:41; Version: 2.1.4]
[CTDB TOCID: 24YQ84o_OqnmI6Z5ckNBrf8ddk0-] found.
Track | CTDB Status
1 | (23/23) Accurately ripped
2 | (23/23) Accurately ripped
3 | (23/23) Accurately ripped
4 | (23/23) Accurately ripped
5 | (23/23) Accurately ripped
6 | (23/23) Accurately ripped
7 | (23/23) Accurately ripped
8 | (23/23) Accurately ripped
9 | (23/23) Accurately ripped
10 | (23/23) Accurately ripped
[AccurateRip ID: 00109068-0084e8d2-7b0a340a] found.
Track [ CRC | V2 ] Status
01 [71353518|204d5599] (00+02/13) Accurately ripped
02 [e7b3e78a|5ff52d7a] (00+02/13) Accurately ripped
03 [e2d5c0ed|f175ad4b] (00+02/13) Accurately ripped
04 [fd01ed97|4d035115] (00+02/13) Accurately ripped
05 [0d09c5ab|c03ded49] (00+02/13) Accurately ripped
06 [26cf203b|c7e72082] (00+02/13) Accurately ripped
07 [e867c77d|e09d4419] (00+02/13) Accurately ripped
08 [9681ac94|1bdcf5aa] (00+02/13) Accurately ripped
09 [55695af1|650368fb] (00+02/13) Accurately ripped
10 [1333048a|b065be60] (00+02/13) Accurately ripped
Offsetted by 646:
01 [60c3b528] (00/13) No match (V2 was not tested)
02 [1cbc9860] (00/13) No match (V2 was not tested)
03 [1b757847] (00/13) No match (V2 was not tested)
04 [67195ec3] (00/13) No match (V2 was not tested)
05 [b2128fd9] (00/13) No match (V2 was not tested)
06 [a09b95b7] (00/13) No match (V2 was not tested)
07 [b41fa90f] (00/13) No match (V2 was not tested)
08 [cb35720a] (00/13) No match (V2 was not tested)
09 [4ee16551] (00/13) No match (V2 was not tested)
10 [ebbea526] (00/13) No match (V2 was not tested)

Track Peak [ CRC32 ] [W/O NULL] [ LOG ]
– 99,4 [1521AA6C] [BD9B555D] CRC32
01 99,4 [E7F153C1] [47B6A87B]
02 99,4 [C0D1826A] [D980564F]
03 97,7 [0463757A] [C3D1224C]
04 68,7 [4DE6A43A] [90ABFE03]
05 99,4 [855E81C9] [4A9FA148]
06 99,4 [1010F364] [8023199F]
07 99,4 [D078A2D6] [E959AEAB]
08 99,4 [0A90AF83] [68D39B99]
09 99,4 [0D64AEAC] [F7601FA4]
10 99,4 [8ABDB78D] [0EEB17B1]

Thanks to ALLexxess