Subcategories

FM - Closer To Heaven (1993) [Japanese Ed. 1995]

Posted By: Andi_Deris
FM - Closer To Heaven (1993) [Japanese Ed. 1995]

FM - Closer To Heaven (1993) [Japanese Ed. 1995]
EAC Rip | FLAC: Image+Cue+Log | 435 Mb | MP3 CBR 320 kbps | 153 Mb | Scans | 103 Mb | Time: 57:05
Genre: Melodic Hard Rock, AOR | Label: Alfa Music, Inc./Brunette | Cat.#: ALCB-9639

FM spent 11 great years (1984-1995) releasing albums and touring all of Europe with the likes of Meat Loaf, Foreigner, Gary Moore, Status Quo, Magnum, REO Speedwagon and Bon Jovi and became Britain's biggest AOR band! This compilation - great release with different verisons of some old favorites.



FM - Closer To Heaven (1993) [Japanese Ed. 1995]


Track Listing

01. Closer To Heaven (Single Version) (4:55)
02. Burning My Heart Down ('93 Version) (4:49)
03. Don't Stop ('93 Version) (4:01)
04. Heard It Through The Grapevine (Live) (4:19)
05. Frozen Heart ('93 Version) (4:07)
06. All Or Nothing (12' Mix) (5:46)
07. Littlle Bit Of Love (2:42)
08. Primitive Touch (4:19)
09. Flesh And Blood (5:04)
10. Need Your Love So Bad (Acoustic Version) (4:19)
11. Rocky Mountain Way (Acoustic Version) (5:12)
12. Only The Strong Survive (Acoustic Version) (3:04)
13. Closer To Heaven (Acoustic Version) (4:28)

Produced by FM & Andy Reilly

The Band

• Steve Overland - Lead Vocals, Guitar
• Merv Goldsworthy - Bass, Backing Vocals
• Andy Barnett - Lead Guitar, Backing Vocals
• Pete Jupp - Drums, Backing Vocals

• Charlie Olins & Slim Mitman - Keyboards

FM - Closer To Heaven (1993) [Japanese Ed. 1995]


Exact Audio Copy V1.0 beta 3 from 29. August 2011

EAC extraction logfile from 10. May 2012, 21:29

FM / Closer To Heaven

Used drive : SlimtypeDVD A DS8A5SH Adapter: 0 ID: 1

Read mode : Secure
Utilize accurate stream : Yes
Defeat audio cache : Yes
Make use of C2 pointers : No

Read offset correction : 6
Overread into Lead-In and Lead-Out : No
Fill up missing offset samples with silence : Yes
Delete leading and trailing silent blocks : No
Null samples used in CRC calculations : Yes
Used interface : Native Win32 interface for Win NT & 2000

Used output format : User Defined Encoder
Selected bitrate : 320 kBit/s
Quality : High
Add ID3 tag : No
Command line compressor : C:\Program Files (x86)\Exact Audio Copy\Flac\flac.exe
Additional command line options : -V -8 -T "Date=%year%" -T "Genre=%genre%" %source%

TOC of the extracted CD

Track | Start | Length | Start sector | End sector
––––––––––––––––––––––––––––-
1 | 0:00.00 | 4:55.15 | 0 | 22139
2 | 4:55.15 | 4:49.10 | 22140 | 43824
3 | 9:44.25 | 4:01.55 | 43825 | 61954
4 | 13:46.05 | 4:19.07 | 61955 | 81386
5 | 18:05.12 | 4:07.28 | 81387 | 99939
6 | 22:12.40 | 5:46.55 | 99940 | 125944
7 | 27:59.20 | 2:42.17 | 125945 | 138111
8 | 30:41.37 | 4:19.38 | 138112 | 157574
9 | 35:01.00 | 5:04.70 | 157575 | 180444
10 | 40:05.70 | 4:19.62 | 180445 | 199931
11 | 44:25.57 | 5:12.18 | 199932 | 223349
12 | 49:38.00 | 3:04.12 | 223350 | 237161
13 | 52:42.12 | 4:28.10 | 237162 | 257271

Range status and errors

Selected range

Filename D:\My Music\FM - 1993 Closer To Heaven\FM - Closer To Heaven.wav

Peak level 100.0 %
Extraction speed 4.5 X
Range quality 100.0 %
Test CRC 549F842D
Copy CRC 549F842D
Copy OK

No errors occurred

AccurateRip summary

Track 1 not present in database
Track 2 not present in database
Track 3 not present in database
Track 4 not present in database
Track 5 not present in database
Track 6 not present in database
Track 7 not present in database
Track 8 not present in database
Track 9 not present in database
Track 10 not present in database
Track 11 not present in database
Track 12 not present in database
Track 13 not present in database

None of the tracks are present in the AccurateRip database

End of status report

==== Log checksum 0B480DFF34AD5C5A86AA33E639EFF7998E970B47C5EFEE7944F889847500C263 ====


Many thanks to the original uploader: kolushew