Subcategories

FM - Dead Man's Shoes (1995)

Posted By: Andi_Deris
FM - Dead Man's Shoes (1995)

FM - Dead Man's Shoes (1995)
EAC Rip | APE: Image+Cue+Log | 366 Mb | MP3 CBR 320 kbps | 138 Mb | Scans | 82 Mb | Time: 49:17
Genre: Hard Rock, AOR, Blues Rock | Label: Castle Communications | Cat.#: RAW CD 107

Didge Digital left the group and he was replaced by former UFO member Jem Davis. Dead Man's Shoes was released in 1995 and soon after band slowly disbanded. One of the few bands who sing and play totally live.



FM - Dead Man's Shoes (1995)


Track Listing

01. Nobody's Fool (5:32)
02. Ain't No Cure For Love (4:16)
03. Get Ready (3:57)
04. Don't Say (4:28)
05. Mona (4:54)
06. Sister (4:38)
07. You're The One (5:32)
08. Tattoo Needle (5:11)
09. Misery (5:52)
10. Dead Man's Shoes (4:57)

Produced by FM and Andy Reilly

The Band

• Steve Overland - Lead Vocals & Guitar
• Pete Jupp - Drums & Vocals
• Merv Goldsworthy - Bass & Vocals
• Andy Barnett - Lead Guitar & Vocals
• Jem Davis - Keyboards

FM - Dead Man's Shoes (1995)


Exact Audio Copy V0.99 prebeta 4 from 23. January 2008

Отчёт EAC об извлечении, выполненном 7. февраля 2010, 14:43

FM / Dead Man's Shoes

Дисковод: _NEC DVD_RW ND-3550A Adapter: 1 ID: 2

Режим чтения : Достоверность
Использование точного потока : Да
Отключение кэша аудио : Да
Использование указателей C2 : Нет

Коррекция смещения при чтении : 48
Способность читать области Lead-in и Lead-out : Нет
Заполнение пропущенных сэмплов тишиной : Да
Удаление блоков с тишиной в начале и конце : Нет
При вычислениях CRC использовались нулевые сэмплы : Да
Интерфейс : Установленный внешний ASPI-интерфейс

Выходной формат : Внутренние WAV-операции
Формат сэмплов : 44.100 Гц; 16 бит; стерео


TOC извлечённого CD

Трек | Старт | Длительность | Начальный сектор | Конечный сектор
––––––––––––––––––––––––––––––––––-
1 | 0:00.00 | 5:32.52 | 0 | 24951
2 | 5:32.52 | 4:16.18 | 24952 | 44169
3 | 9:48.70 | 3:57.22 | 44170 | 61966
4 | 13:46.17 | 4:28.23 | 61967 | 82089
5 | 18:14.40 | 4:54.72 | 82090 | 104211
6 | 23:09.37 | 4:38.68 | 104212 | 125129
7 | 27:48.30 | 5:32.30 | 125130 | 150059
8 | 33:20.60 | 5:11.05 | 150060 | 173389
9 | 38:31.65 | 5:52.40 | 173390 | 199829
10 | 44:24.30 | 4:57.45 | 199830 | 222149


Характеристики диапазона извлечения и сообщения об ошибках

Выбранный диапазон

Имя файла C:\Documents and Settings\Бодом\Рабочий стол\Новая папка\FM - Dead Man's Shoes.wav

Пиковый уровень 100.0 %
Качество диапазона 99.9 %
CRC копии E7F4E759
Копирование… OK

Ошибок не произошло


AccurateRip: сводка

Трек 1 точное извлечение (доверие 3) [28DB309D]
Трек 2 точное извлечение (доверие 3) [1B9D4BF4]
Трек 3 точное извлечение (доверие 3) [53A6EC7E]
Трек 4 точное извлечение (доверие 3) [9DE4C271]
Трек 5 точное извлечение (доверие 3) [27A9CC7E]
Трек 6 точное извлечение (доверие 3) [9A66E22C]
Трек 7 точное извлечение (доверие 3) [38172832]
Трек 8 точное извлечение (доверие 3) [422967DA]
Трек 9 точное извлечение (доверие 3) [A8AA9D0D]
Трек 10 точное извлечение (доверие 3) [370D00D4]

Все треки извлечены точно

Конец отчёта


Many thanks to the original uploader: booddoom