Subcategories

FM - Live Acoustical Intercourse (1993) [Japanese Ed.] + No Electricity Required [Live] (1993) [Remastered 2008]

Posted By: Andi_Deris
FM - Live Acoustical Intercourse (1993) [Japanese Ed.] + No Electricity Required [Live] (1993) [Remastered 2008]

Excellent acoustical HARD ROCK LIVE. Playing many covers like BAD COMPANY / ZZ TOP / FLEETWOOD MAC / STEVIE WONDER / GRAND FUNK RAILROAD etc., as same as FM's original songs.



FM - Live Acoustical Intercourse (1993) [Japanese Ed.] + No Electricity Required [Live] (1993) [Remastered 2008]


FM - Live Acoustical Intercourse (1993) [Japanese Ed.]
EAC Rip | FLAC: Image+Cue+Log | 437 Mb | MP3 CBR 320 kbps | 163 Mb | Scans | 109 Mb | Time: 01:02:45
Genre: Hard Rock, AOR, Acoustic | Label: Alfa Records/Brunette | Cat.#: ALCB-748

•····························································•


FM - Live Acoustical Intercourse (1993) [Japanese Ed.] + No Electricity Required [Live] (1993) [Remastered 2008]


Track Listing

01. Seagull [Bad Company cover] (3:01)
02. Need Your Love So Bad [Fleetwood Mac cover] (4:39)
03. Rocky Mountain Way [Joe Walsh cover] (feat. Black Velvet) (5:17)
04. Burning My Heart Down / Don't Stop / Get Back [The Beatles cover] (5:57)
05. Blood And Gasoline (5:00)
06. Superstition [Stevie Wonder cover] (4:11)
07. Heard It Through The Grapevine / Stone Fox Chase [Marvin Gaye cover] (3:27)
08. Some Kind of Wonderful [Grand Funk Railroad cover] (3:16)
09. Midnight Hour [Wilson Picket cover] / Dancin' In The Street [Martha Reeves cover] (3:32)
10. Face To Face / Enter Sandman [Metallica] / American Girls / Other Side Of Midnight (6:48)
11. Closer To Heaven (4:53)
12. Only The Strong Survive [Bad Company cover] (3:23)
13. Little Bit Of Love (3:00)
14. Rockin' Me [Steve Miller cover] (3:35)
15. Tush [ZZ Top cover] (2:46)

Produced by FM and Andy Reilly

The Band

• Steve Overland - Lead Vocals & Guitar
• Pete Jupp - Drums & Vocals
• Merv Goldsworthy - Bass & Vocals
• Andy Barnett - Lead Guitar & Vocals

• Charlie Olins - keyboards

Exact Audio Copy V1.0 beta 3 from 29. August 2011

EAC extraction logfile from 10. February 2013, 13:42

FM / Live Acoustical Intercourse

Used drive : SlimtypeDVD A DS8A5SH Adapter: 0 ID: 1

Read mode : Secure
Utilize accurate stream : Yes
Defeat audio cache : Yes
Make use of C2 pointers : No

Read offset correction : 6
Overread into Lead-In and Lead-Out : No
Fill up missing offset samples with silence : Yes
Delete leading and trailing silent blocks : No
Null samples used in CRC calculations : Yes
Used interface : Native Win32 interface for Win NT & 2000

Used output format : User Defined Encoder
Selected bitrate : 320 kBit/s
Quality : High
Add ID3 tag : No
Command line compressor : C:\Program Files (x86)\Exact Audio Copy\Flac\flac.exe
Additional command line options : -V -8 -T "Date=%year%" -T "Genre=%genre%" %source%


TOC of the extracted CD

Track | Start | Length | Start sector | End sector
––––––––––––––––––––––––––––-
1 | 0:00.00 | 3:01.00 | 0 | 13574
2 | 3:01.00 | 4:39.20 | 13575 | 34519
3 | 7:40.20 | 5:17.20 | 34520 | 58314
4 | 12:57.40 | 5:57.40 | 58315 | 85129
5 | 18:55.05 | 5:00.17 | 85130 | 107646
6 | 23:55.22 | 4:11.15 | 107647 | 126486
7 | 28:06.37 | 3:27.65 | 126487 | 142076
8 | 31:34.27 | 3:16.18 | 142077 | 156794
9 | 34:50.45 | 3:32.70 | 156795 | 172764
10 | 38:23.40 | 6:48.17 | 172765 | 203381
11 | 45:11.57 | 4:53.15 | 203382 | 225371
12 | 50:04.72 | 3:23.10 | 225372 | 240606
13 | 53:28.07 | 3:00.05 | 240607 | 254111
14 | 56:28.12 | 3:35.10 | 254112 | 270246
15 | 60:03.22 | 2:46.03 | 270247 | 282699


Range status and errors

Selected range

Filename D:\My Music\FM - 1993 Live Acoustical Intercourse\FM - Live Acoustical Intercourse.wav

Peak level 100.0 %
Extraction speed 4.9 X
Range quality 100.0 %
Test CRC AA24D411
Copy CRC AA24D411
Copy OK

No errors occurred


AccurateRip summary

Track 1 accurately ripped (confidence 2) [50F80E47] (AR v1)
Track 2 accurately ripped (confidence 2) [DF9EF891] (AR v1)
Track 3 accurately ripped (confidence 2) [7984FD30] (AR v1)
Track 4 accurately ripped (confidence 2) [928216E2] (AR v1)
Track 5 accurately ripped (confidence 2) [C8BAF2FE] (AR v1)
Track 6 accurately ripped (confidence 2) [DE627742] (AR v1)
Track 7 accurately ripped (confidence 2) [BFAFBE4E] (AR v1)
Track 8 accurately ripped (confidence 2) [3275BABC] (AR v1)
Track 9 accurately ripped (confidence 2) [52DCA950] (AR v1)
Track 10 accurately ripped (confidence 2) [BDB1AC37] (AR v1)
Track 11 accurately ripped (confidence 2) [3EC0DE19] (AR v1)
Track 12 accurately ripped (confidence 2) [8010E232] (AR v1)
Track 13 accurately ripped (confidence 2) [C9CA6DC9] (AR v1)
Track 14 accurately ripped (confidence 2) [972CB70F] (AR v1)
Track 15 accurately ripped (confidence 2) [8E130EA0] (AR v1)

All tracks accurately ripped

End of status report

==== Log checksum A64B9CB923B6329A01194FA6E04798F257EEC7D27026400E717A9F5FB5006FEA ====


Many thanks to the original uploader: kolushew

FM - Live Acoustical Intercourse (1993) [Japanese Ed.] + No Electricity Required [Live] (1993) [Remastered 2008]


FM - No Electricity Required [Live] (1993) [Remastered 2008]
EAC Rip | FLAC: Image+Cue+Log | 418 Mb | MP3 CBR 320 kbps | 161 Mb | Scans | Time: 01:06:50
Genre: Hard Rock, AOR, Acoustic | Label: Krescendo Records | Cat.#: KRECD14

•····························································•


FM - Live Acoustical Intercourse (1993) [Japanese Ed.] + No Electricity Required [Live] (1993) [Remastered 2008]


Track Listing

01. Seagull [Bad Company cover] (3:01)
02. Need Your Love So Bad [Fleetwood Mac cover] (4:39)
03. Rocky Mountain Way [Joe Walsh cover] (featuring Black Velvet) (5:17)
04. Medley: (i) Burning My Heart Down (ii) Don't Stop (iii) Get Back [The Beatles cover] (5:57)
05. Blood And Gasoline (5:00)
06. Superstition [Stevie Wonder cover] (4:11)
07. Heard It Through The Grapevine [Marvin Gaye cover] (3:27)
08. Some Kind of Wonderful [Grand Funk Railroad cover] (3:16)
09. Medley: (i) Midnight Hour [Wilson Picket cover] (ii) Dancing In The Street [Martha Reeves cover] (3:32)
10. Medley: (i) Face To Face (ii) Enter Sandman [Metallica] (iii) American Girls (iv) Other Side Of Midnight (6:49)
11. Closer To Heaven (4:52)
12. Only The Strong Survive [Bad Company cover] (3:24)
13. Little Bit Of Love (3:01)
14. Rockin' Me [Steve Miller cover] (3:34)
15. Tush [ZZ Top cover] (2:47)
16. Long Way To Go [Dan Reed cover] (4:02)

Produced by FM, Merv Goldsworthy and Andy Reilly

The Band

• Steve Overland - Lead Vocals & Guitar
• Pete Jupp - Drums & Vocals
• Merv Goldsworthy - Bass & Vocals
• Andy Barnett - Lead Guitar & Vocals

• Charlie Olins - keyboards

Exact Audio Copy V0.99 prebeta 5 from 4. May 2009

Отчёт EAC об извлечении, выполненном 16. октября 2009, 16:10

FM / No Electricity Required

Дисковод: Optiarc DVD RW AD-7173A Adapter: 1 ID: 0

Режим чтения : Достоверность
Использование точного потока : Да
Отключение кэша аудио : Да
Использование указателей C2 : Нет

Коррекция смещения при чтении : 48
Способность читать области Lead-in и Lead-out : Нет
Заполнение пропущенных сэмплов тишиной : Да
Удаление блоков с тишиной в начале и конце : Нет
При вычислениях CRC использовались нулевые сэмплы : Нет
Интерфейс : Встроенный Win32-интерфейс для Win NT/2000

Выходной формат : Пользовательский кодировщик
Выбранный битрейт : 768 kBit/s
Качество : Высокий
Добавление ID3-тэга : Нет
Утилита сжатия : C:\Program Files\Exact Audio Copy\FLAC\FLAC.EXE
Дополнительные параметры : -6 -V -T "ARTIST=%a" -T "TITLE=%t" -T "ALBUM=%g" -T "DATE=%y" -T "TRACKNUMBER=%n" -T "GENRE=%m" -T "COMMENT=%e" %s -o %d


TOC извлечённого CD

Трек | Старт | Длительность | Начальный сектор | Конечный сектор
––––––––––––––––––––––––––––––––––-
1 | 0:00.00 | 3:01.00 | 0 | 13574
2 | 3:01.00 | 4:39.00 | 13575 | 34499
3 | 7:40.00 | 5:17.00 | 34500 | 58274
4 | 12:57.00 | 5:57.00 | 58275 | 85049
5 | 18:54.00 | 5:00.00 | 85050 | 107549
6 | 23:54.00 | 4:11.30 | 107550 | 126404
7 | 28:05.30 | 3:27.45 | 126405 | 141974
8 | 31:33.00 | 3:17.00 | 141975 | 156749
9 | 34:50.00 | 3:32.00 | 156750 | 172649
10 | 38:22.00 | 6:49.00 | 172650 | 203324
11 | 45:11.00 | 4:52.00 | 203325 | 225224
12 | 50:03.00 | 3:24.00 | 225225 | 240524
13 | 53:27.00 | 3:01.00 | 240525 | 254099
14 | 56:28.00 | 3:34.00 | 254100 | 270149
15 | 60:02.00 | 2:47.00 | 270150 | 282674
16 | 62:49.00 | 4:02.29 | 282675 | 300853


Характеристики диапазона извлечения и сообщения об ошибках

Выбранный диапазон

Имя файла C:\Users\Steeler\Desktop\FM - No Electricity Required (1993) Remastered 2008\FM - No Electricity Required.wav

Пиковый уровень 99.4 %
Качество диапазона 100.0 %
CRC копии 70868A22
Копирование… OK

Ошибок не произошло


AccurateRip: сводка

Трек 1 нет в базе данных
Трек 2 нет в базе данных
Трек 3 нет в базе данных
Трек 4 нет в базе данных
Трек 5 нет в базе данных
Трек 6 нет в базе данных
Трек 7 нет в базе данных
Трек 8 нет в базе данных
Трек 9 нет в базе данных
Трек 10 нет в базе данных
Трек 11 нет в базе данных
Трек 12 нет в базе данных
Трек 13 нет в базе данных
Трек 14 нет в базе данных
Трек 15 нет в базе данных
Трек 16 нет в базе данных

Ни одного трека нет в базе AccurateRip

Конец отчёта


Many thanks to the original uploader: Steeler666

Live Acoustical Intercourse

Uploaded | Nitroflare | Uploadable

No Electricity Required

Uploaded | Nitroflare | Uploadable