Subcategories

Fred - Live At The Bitter End (2004) {World In Sound}

Posted By: TestTickles
Fred - Live At The Bitter End (2004) {World In Sound}

Fred - Live At The Bitter End (2004) {World In Sound}
EAC Rip | FLAC with CUE | scans | 256 mb
MP3 CBR 320 kbps | RAR | 118 mb
Genre: progressive rock

Live At The Bitter End is a 2004 compilation of live recordings from the band Fred. It was recorded in New York City in 1974. This was released by the German label World In Sound.

Fred - Live At The Bitter End (2004) {World In Sound}

1. Variations (3:46)
2. Nocturnal (12:06)
3. Freefall (2:11)
4. Morose Code (4:39)
5. Pachanga (7:44)
6. Cathode Ray Fantasy (2:52)
7. Immersions (6:59)
8. Mucous Music (6:38)

PERFORMER "Fred"
TITLE "Live At The Bitter End"
FILE "01.Variations.flac" WAVE
TRACK 01 AUDIO
TITLE "Variations"
INDEX 01 00:00:00
TRACK 02 AUDIO
TITLE "Nocturnal"
INDEX 01 03:46:61
TRACK 03 AUDIO
TITLE "Freefall"
INDEX 01 15:53:39
TRACK 04 AUDIO
TITLE "Morose Code"
INDEX 01 18:04:54
TRACK 05 AUDIO
TITLE "Pachanga"
INDEX 01 22:43:72
TRACK 06 AUDIO
TITLE "Cathode Ray Fantasy"
INDEX 01 30:28:66
TRACK 07 AUDIO
TITLE "Immersions"
INDEX 01 33:20:63
TRACK 08 AUDIO
TITLE "Mucous Music"
INDEX 01 40:19:70


Fred - Live At The Bitter End (2004) {World In Sound}


Thank you to the original uploader.