Subcategories

Frank Zappa - Baby Snakes (1982) {1988 Barking Pumpkin}

Posted By: TestTickles
Frank Zappa - Baby Snakes (1982) {1988 Barking Pumpkin}

Frank Zappa - Baby Snakes (1982) {1988 Barking Pumpkin}
EAC Rip | FLAC with CUE and log | scans | 299 mb
MP3 CBR 320kbps | RAR | 129 mb
Genre: rock, classic rock, jazz rock

Baby Snakes is the 1982 album by Frank Zappa. This was the first digital version released in 1988 by Barking Pumpking Records.

Frank Zappa - Baby Snakes (1982) {1988 Barking Pumpkin}

1. Intro Rap
2. Baby Snakes
3. Titties 'n' Beer
4. The Black Page #2
5. Jones Crusher
6. Disco Boy
7. Dinah Moe Hum
8. Punky's Whips

Frank Zappa-director, keyboards, vocals, guitar
Adrian Belew-vocals, guitar
Tommy Mars-keyboards, vocals
Peter Wolf-keyboards
Patrick O'Hearn-bass guitar
Terry Bozzio-drums, vocals
Ed Mann-percussion

Produced & composed by Frank Zappa

Exact Audio Copy V1.1 from 23. June 2015

EAC extraction logfile from 5. March 2017, 19:11

Frank Zappa / Baby Snakes

Used drive : TEAC DVD-ROM DV-28SW Adapter: 1 ID: 0

Read mode : Secure
Utilize accurate stream : Yes
Defeat audio cache : Yes
Make use of C2 pointers : No

Read offset correction : 6
Overread into Lead-In and Lead-Out : No
Fill up missing offset samples with silence : Yes
Delete leading and trailing silent blocks : No
Null samples used in CRC calculations : Yes
Used interface : Native Win32 interface for Win NT & 2000
Gap handling : Appended to previous track

Used output format : Internal WAV Routines
Sample format : 44.100 Hz; 16 Bit; Stereo


TOC of the extracted CD

Track | Start | Length | Start sector | End sector
––––––––––––––––––––––––––––-
1 | 0:00.00 | 0:37.45 | 0 | 2819
2 | 0:37.45 | 1:45.40 | 2820 | 10734
3 | 2:23.10 | 6:13.07 | 10735 | 38716
4 | 8:36.17 | 2:50.65 | 38717 | 51531
5 | 11:27.07 | 2:53.48 | 51532 | 64554
6 | 14:20.55 | 3:51.37 | 64555 | 81916
7 | 18:12.17 | 6:37.28 | 81917 | 111719
8 | 24:49.45 | 11:29.70 | 111720 | 163464


Track 1

Filename C:\My Documents\My FLAC\Frank Zappa - Baby Snakes (1982) [FLAC] {1988 Barking Pumpkin}\01 - Intro Rap.wav

Pre-gap length 0:00:02.00

Peak level 58.4 %
Extraction speed 1.0 X
Track quality 100.0 %
Test CRC BD6E6B72
Copy CRC BD6E6B72
Accurately ripped (confidence 18) [E70E24AC] (AR v2)
Copy OK

Track 2

Filename C:\My Documents\My FLAC\Frank Zappa - Baby Snakes (1982) [FLAC] {1988 Barking Pumpkin}\02 - Baby Snakes.wav

Pre-gap length 0:00:00.03

Peak level 82.2 %
Extraction speed 1.6 X
Track quality 100.0 %
Test CRC BFB0B70E
Copy CRC BFB0B70E
Accurately ripped (confidence 18) [E1CA3F0D] (AR v2)
Copy OK

Track 3

Filename C:\My Documents\My FLAC\Frank Zappa - Baby Snakes (1982) [FLAC] {1988 Barking Pumpkin}\03 - Titties 'N' Beer.wav

Pre-gap length 0:00:00.03

Peak level 87.6 %
Extraction speed 2.2 X
Track quality 100.0 %
Test CRC 3225145C
Copy CRC 3225145C
Accurately ripped (confidence 18) [4E76A8D4] (AR v2)
Copy OK

Track 4

Filename C:\My Documents\My FLAC\Frank Zappa - Baby Snakes (1982) [FLAC] {1988 Barking Pumpkin}\04 - The Black Page #2.wav

Pre-gap length 0:00:00.02

Peak level 90.0 %
Extraction speed 2.1 X
Track quality 100.0 %
Test CRC 322C1F25
Copy CRC 322C1F25
Accurately ripped (confidence 18) [A72ED71C] (AR v2)
Copy OK

Track 5

Filename C:\My Documents\My FLAC\Frank Zappa - Baby Snakes (1982) [FLAC] {1988 Barking Pumpkin}\05 - Jones Crusher.wav

Pre-gap length 0:00:00.02

Peak level 84.7 %
Extraction speed 1.9 X
Track quality 99.9 %
Test CRC 1D6B7993
Copy CRC 1D6B7993
Accurately ripped (confidence 18) [4E5334C4] (AR v2)
Copy OK

Track 6

Filename C:\My Documents\My FLAC\Frank Zappa - Baby Snakes (1982) [FLAC] {1988 Barking Pumpkin}\06 - Disco Boy.wav

Pre-gap length 0:00:00.03

Peak level 100.0 %
Extraction speed 2.5 X
Track quality 100.0 %
Test CRC 80840DF1
Copy CRC 80840DF1
Accurately ripped (confidence 18) [770BF396] (AR v2)
Copy OK

Track 7

Filename C:\My Documents\My FLAC\Frank Zappa - Baby Snakes (1982) [FLAC] {1988 Barking Pumpkin}\07 - Dinah-Moe Humm.wav

Pre-gap length 0:00:00.02

Peak level 86.7 %
Extraction speed 2.7 X
Track quality 99.9 %
Test CRC 1A6ADB07
Copy CRC 1A6ADB07
Accurately ripped (confidence 18) [B0315D84] (AR v2)
Copy OK

Track 8

Filename C:\My Documents\My FLAC\Frank Zappa - Baby Snakes (1982) [FLAC] {1988 Barking Pumpkin}\08 - Punky's Whips.wav

Pre-gap length 0:00:00.03

Peak level 86.4 %
Extraction speed 1.0 X
Track quality 99.7 %
Test CRC 3DEBF2E9
Copy CRC 2066F322
Accurately ripped (confidence 18) [7760B180] (AR v2)
Copy OK


8 track(s) accurately ripped

End of status report

–– CUETools DB Plugin V2.1.6

[CTDB TOCID: _ZiD4k8_OEeFbcKye14zn7Cx3L0-] found
Submit result: _ZiD4k8_OEeFbcKye14zn7Cx3L0- has been confirmed
Track | CTDB Status
1 | (36/36) Accurately ripped
2 | (36/36) Accurately ripped
3 | (36/36) Accurately ripped
4 | (36/36) Accurately ripped
5 | (36/36) Accurately ripped
6 | (36/36) Accurately ripped
7 | (36/36) Accurately ripped
8 | (36/36) Accurately ripped


==== Log checksum EBF7924BFC5AEBD484FCD9CF189775ECF041C1743C80F755D086527FC2A69375 ====


Frank Zappa - Baby Snakes (1982) {1988 Barking Pumpkin}