Tags
Language
Tags

Fabrizio De André - Fabrizio De André (1981) [Reissue 2002]

Posted By: gribovar
Fabrizio De André - Fabrizio De André (1981) [Reissue 2002]

Fabrizio De Andre - Fabrizio De Andre (1981) [Reissue 2002]
EAC Rip | WavPack (image+.cue+log) - 237 MB | MP3 CBR 320 kbps (LAME 3.93) - 95 MB | Covers - 16 MB
Genre: Pop Rock, Singer-Songwriter | RAR 3% Rec. | Label: BMG Ricordi (74321 974232)

For his 1981 eponymous release Fabrizio De André picks off where his last album Rimini had left. Pursuing the fruitful collaboration with Massimo Bubola, with whom De André co-wrote the totality of the material, this album extends the country & western musical and thematic references introduced in Rimini into a full-blown analogy between two oppressed communities, the Native American Indians and the Sardinians. In fact, the record is usually referred to as "Indiano," since its cover features a Frederick Remington painting of a Sioux hunter on a horse. In addition, the key track " "Fiume Sand Creek" depicts the harrowing massacre of his tribe at the hands of the U.S. Cavalry through the eyes of an Indian child. Based on an actual historical event, this song became a De André concert staple. De André moved to Sardinia in the mid-'70s and was profoundly impressed by the history and landscape of the island. Appropriately, many of the songs in this album tell stories of people chased from their own lands and forced to seek shelter on the hills. Community disintegration left them with very few options: shepherding, banditism, a nomadic existence marked by deprivation and loneliness. However, De André often adds a noble, if not definitely romantic, quality to his characters in associating them with nature and independence. By virtue of being pretty much forgotten by country, society, and its institutions, left in the wilderness, these individuals are thus able to attain true freedom, albeit in isolation. A sort of pastoral-by-force album, Indiano contains a few of the most truly beautiful, delicate, and strangely uplifting songs in the De André canon, such as " "Canto del Servo Pastore" and "Se ti Tagliassero a Pezzetti." At any rate, its centerpiece is undoubtedly "Hotel Supramonte," inspired by the most traumatic event of De André's life. In 1979, De André and his companion, singer Dori Ghezzi, were kidnapped by Sardinian bandits and held captive for four months until a ransom was arranged. "Hotel Supramonte" is the euphemism used to refer to the hideouts in the mountains where victims of kidnapping (a sad and long-lasting business in Sardinia) are kept. Surprisingly, De André only gives away the subject matter of his song in its title. Indeed, rather than a chronicle, "Hotel Supramonte" reads as a love song to someone who is absent and whose return is uncertain. Set to the most sparse arrangement of the album, "Hotel Supramonte" refuses to cave in to the feelings of anger, bitterness, or fear that such a dramatic experience may evoke, and chooses instead understanding and compassion, a sense of desolate tenderness that becomes all the more touching with every listening. Another exceptional De André album, Indiano is also noteworthy for being the last "traditional"singer/songwriter album he would make. Starting with 1984's groundbreaking Creuza de Mä, De André would embark on an ethnic musicologist research voyage and record very sporadically for the remaining 15 years of his career.
Tracklist:
01. Quello Che Non Ho
02. Canto Del Servo Pastore
03. Fiume Sand Creek
04. Ave Maria
05. Hotel Supramonte
06. Franziska
07. Se Ti Tagliassero A Pezzetti
08. Verdi Pascoli

Total time: 40:34

Exact Audio Copy V1.0 beta 6 from 9. April 2015

EAC extraction logfile from 9. January 2016, 20:57

Fabrizio De André(L'indiano) / Fabrizio De André

Used drive : TSSTcorpCDDVDW SH-224DB Adapter: 1 ID: 0

Read mode : Secure
Utilize accurate stream : Yes
Defeat audio cache : Yes
Make use of C2 pointers : No

Read offset correction : 6
Overread into Lead-In and Lead-Out : No
Fill up missing offset samples with silence : Yes
Delete leading and trailing silent blocks : No
Null samples used in CRC calculations : Yes
Used interface : Native Win32 interface for Win NT & 2000

Used output format : User Defined Encoder
Selected bitrate : 1024 kBit/s
Quality : High
Add ID3 tag : No
Command line compressor : C:\Program Files (x86)\Exact Audio Copy\wavpack.exe
Additional command line options : -hm %source% %dest%


TOC of the extracted CD

Track | Start | Length | Start sector | End sector
––––––––––––––––––––––––––––-
1 | 0:00.00 | 5:51.51 | 0 | 26375
2 | 5:51.51 | 3:13.06 | 26376 | 40856
3 | 9:04.57 | 5:37.12 | 40857 | 66143
4 | 14:41.69 | 5:30.13 | 66144 | 90906
5 | 20:12.07 | 4:32.38 | 90907 | 111344
6 | 24:44.45 | 5:30.57 | 111345 | 136151
7 | 30:15.27 | 5:00.04 | 136152 | 158655
8 | 35:15.31 | 5:18.37 | 158656 | 182542


Range status and errors

Selected range

Filename G:\iso\Fabrizio De André(L'indiano) - Fabrizio De André\Fabrizio De André(L'indiano) - Fabrizio De André.wav

Peak level 99.9 %
Extraction speed 2.6 X
Range quality 99.9 %
Test CRC BFF61BED
Copy CRC BFF61BED
Copy OK

No errors occurred


AccurateRip summary

Track 1 accurately ripped (confidence 9) [7C29FC49] (AR v2)
Track 2 accurately ripped (confidence 9) [32102BF6] (AR v2)
Track 3 accurately ripped (confidence 9) [809E532F] (AR v2)
Track 4 accurately ripped (confidence 9) [3F146F70] (AR v2)
Track 5 accurately ripped (confidence 9) [0B7F6264] (AR v2)
Track 6 accurately ripped (confidence 9) [9760302C] (AR v2)
Track 7 accurately ripped (confidence 9) [4BD10A7B] (AR v2)
Track 8 accurately ripped (confidence 9) [BB5E945D] (AR v2)

All tracks accurately ripped

End of status report

–– CUETools DB Plugin V2.1.6

[CTDB TOCID: RJ1XBe44mjaGQn1JZCutneatU6A-] found
Submit result: RJ1XBe44mjaGQn1JZCutneatU6A- has been confirmed
Track | CTDB Status
1 | (42/42) Accurately ripped
2 | (42/42) Accurately ripped
3 | (42/42) Accurately ripped
4 | (42/42) Accurately ripped
5 | (42/42) Accurately ripped
6 | (42/42) Accurately ripped
7 | (42/42) Accurately ripped
8 | (42/42) Accurately ripped


==== Log checksum 841BF6B5ED231B7D75399C22DC7259A7EC386586BF7C2929B872B192C5DE0CE5 ====

[CUETools log; Date: 07.12.2021 18:36:53; Version: 2.1.4]
[CTDB TOCID: RJ1XBe44mjaGQn1JZCutneatU6A-] found.
Track | CTDB Status
1 | (200/203) Accurately ripped
2 | (199/203) Accurately ripped
3 | (199/203) Accurately ripped
4 | (199/203) Accurately ripped
5 | (200/203) Accurately ripped
6 | (200/203) Accurately ripped
7 | (199/203) Accurately ripped
8 | (199/203) Accurately ripped
[AccurateRip ID: 000c67b4-0052d1f8-66098108] found.
Track [ CRC | V2 ] Status
01 [29815716|7c29fc49] (04+18/91) Accurately ripped
02 [68adf3f2|32102bf6] (04+18/92) Accurately ripped
03 [065dd62b|809e532f] (04+18/92) Accurately ripped
04 [f8bd9c3e|3f146f70] (04+18/91) Accurately ripped
05 [aa765443|0b7f6264] (04+18/92) Accurately ripped
06 [e1c66b3d|9760302c] (04+18/91) Accurately ripped
07 [38085a67|4bd10a7b] (04+18/92) Accurately ripped
08 [a754d5a7|bb5e945d] (04+18/91) Accurately ripped
Offsetted by -664:
01 [852719bd] (12/91) Accurately ripped
02 [4d870f0c] (12/92) Accurately ripped
03 [c6badad0] (12/92) Accurately ripped
04 [0815c53c] (12/91) Accurately ripped
05 [e2d6b98f] (12/92) Accurately ripped
06 [54b1e326] (12/91) Accurately ripped
07 [bbefbb12] (12/92) Accurately ripped
08 [5931c157] (12/91) Accurately ripped
Offsetted by -635:
01 [b5fcde94] (02/91) Accurately ripped
02 [b0e2432f] (02/92) Accurately ripped
03 [1ac96640] (02/92) Accurately ripped
04 [dadf7d54] (02/91) Accurately ripped
05 [f65a9c32] (02/92) Accurately ripped
06 [fd83dfac] (02/91) Accurately ripped
07 [fa6adff4] (02/92) Accurately ripped
08 [64d6e7e5] (02/91) Accurately ripped
Offsetted by 29:
01 [590738e6] (04/91) Accurately ripped
02 [13741038] (04/92) Accurately ripped
03 [12bef9aa] (04/92) Accurately ripped
04 [1629b3df] (04/91) Accurately ripped
05 [13c324b0] (04/92) Accurately ripped
06 [8ba361ec] (04/91) Accurately ripped
07 [f771189a] (04/92) Accurately ripped
08 [c2e4e131] (04/91) Accurately ripped
Offsetted by 705:
01 [a86054f3] (02/91) Accurately ripped
02 [c7ed4c0c] (02/92) Accurately ripped
03 [cb1cc2a5] (02/92) Accurately ripped
04 [f5a3aee7] (02/91) Accurately ripped
05 [a6b3a5ad] (02/92) Accurately ripped
06 [1d98f162] (02/91) Accurately ripped
07 [1a2d5fb2] (02/92) Accurately ripped
08 [e2f7f3f6] (02/91) Accurately ripped
Offsetted by 1374:
01 [93c053a4] (02/91) Accurately ripped
02 [73671e6b] (02/92) Accurately ripped
03 [2c333f07] (02/92) Accurately ripped
04 [6dfa13e3] (02/91) Accurately ripped
05 [45c81387] (02/92) Accurately ripped
06 [9a29962f] (02/91) Accurately ripped
07 [f13b6a0c] (02/92) Accurately ripped
08 [94f3884a] (02/91) Accurately ripped
Offsetted by -647:
01 [92222e82] (00/91) No match (V2 was not tested)
02 [f64f476a] (00/92) No match (V2 was not tested)
03 [1297b2ac] (00/92) No match (V2 was not tested)
04 [4d1b4a87] (00/91) No match (V2 was not tested)
05 [b9e4177a] (00/92) No match (V2 was not tested)
06 [9af3ed0f] (00/91) No match (V2 was not tested)
07 [86e39599] (00/92) No match (V2 was not tested)
08 [2d53181d] (00/91) No match (V2 was not tested)
Offsetted by -6:
01 [a138caf0] (00/91) No match (V2 was not tested)
02 [c19f76ff] (00/92) No match (V2 was not tested)
03 [7148095d] (00/92) No match (V2 was not tested)
04 [a3f8f105] (00/91) No match (V2 was not tested)
05 [2a31b3be] (00/92) No match (V2 was not tested)
06 [1c3a6c40] (00/91) No match (V2 was not tested)
07 [dd6b93c2] (00/92) No match (V2 was not tested)
08 [815aa8b0] (00/91) No match (V2 was not tested)

Track Peak [ CRC32 ] [W/O NULL] [ LOG ]
– 99,9 [BFF61BED] [EBAE739B] CRC32
01 99,9 [D3C06F7C] [19B1CC69]
02 99,8 [221785D3] [45167E32]
03 99,8 [257DBB53] [7CA93DA7]
04 99,9 [2CE4986A] [516F7EBF]
05 84,0 [33BEF10F] [1632938C]
06 99,9 [8C6AC391] [56F70AB9]
07 99,8 [FB9AEFA4] [97F2F361]
08 99,9 [13E83957] [A9DB2751]

Thanks to shatterhand