Subcategories

Fabrizio De André - Opera Completa (2009) [Box 19 CD + 1 DVD]

Posted By: Andi_Deris
Fabrizio De André - Opera Completa (2009) [Box 19 CD + 1 DVD]

Fabrizio De André - Opera Completa (2009) [Box 19 CD + 1 DVD]
EAC Rip | FLAC: Tracks+Cue+Log | 4.4 Gb | Scans
DVD9 | Video: PAL 720x576 (4:3) | Audio: Dolby AC3, 6 ch, 2 ch | 7.8 Gb | Time: 02:56:27
Pop Rock, Italian Pop, Folk Rock, Acoustic | Sony Music | 88697644262

With the death of Fabrizio De André from cancer on January 11, 1999, Italy lost one of its most modern singer/songwriters. Inspired by the songwriting of Bob Dylan and Leonard Cohen, De Andre's songs encompassed Genoese folk songs, French protest/social commentary, beatnik "stream of consciousness" poetry, and the soundtracks of Italian film Westerns. In Italy and in the rest of world he is considered a poet because of the quality of his lyrics.

Fabrizio De André - Opera Completa (2009) [Box 19 CD + 1 DVD]




Fabrizio De André - Opera Completa (2009) [Box 19 CD + 1 DVD]


Disc 01:
Volume 1 (1967)


Track listing

[03:34] 01. Preghiera In Gennaio
[03:12] 02. Marcia Nuziale
[02:37] 03. Spiritual
[03:11] 04. Si Chiamava Gesu'
[02:19] 05. La Canzone Di Barbara
[02:32] 06. Via Del Campo
[03:01] 07. La Stagione Del Tuo Amore
[03:08] 08. Bocca Di Rosa
[02:24] 09. La Morte
[05:23] 10. Carlo Martello Ritorna Dalla Battaglia Di Poitiers

Exact Audio Copy V0.99 prebeta 5 from 4. May 2009

EAC extraction logfile from 27. December 2009, 23:14

Fabrizio De Andre' / Volume 1

Used drive : PLEXTOR CD-R PREMIUM2 Adapter: 1 ID: 1

Read mode : Secure
Utilize accurate stream : Yes
Defeat audio cache : Yes
Make use of C2 pointers : No

Read offset correction : 30
Overread into Lead-In and Lead-Out : No
Fill up missing offset samples with silence : Yes
Delete leading and trailing silent blocks : No
Null samples used in CRC calculations : Yes
Used interface : Installed external ASPI interface
Gap handling : Appended to previous track

Used output format : User Defined Encoder
Selected bitrate : 32 kBit/s
Quality : High
Add ID3 tag : No
Command line compressor : C:\Programmi\FLAC\flac.exe
Additional command line options : -8 -V -T "ARTIST=%a" -T "TITLE=%t" -T "ALBUM=%g" -T "DATE=%y" -T "TRACKNUMBER=%n" -T "GENRE=%m" -T "COMMENT=EAC FLAC -8" %s


TOC of the extracted CD

Track | Start | Length | Start sector | End sector
––––––––––––––––––––––––––––-
1 | 0:00.00 | 3:34.02 | 0 | 16051
2 | 3:34.02 | 3:12.58 | 16052 | 30509
3 | 6:46.60 | 2:37.20 | 30510 | 42304
4 | 9:24.05 | 3:11.43 | 42305 | 56672
5 | 12:35.48 | 2:19.24 | 56673 | 67121
6 | 14:54.72 | 2:32.28 | 67122 | 78549
7 | 17:27.25 | 3:01.08 | 78550 | 92132
8 | 20:28.33 | 3:08.11 | 92133 | 106243
9 | 23:36.44 | 2:24.68 | 106244 | 117111
10 | 26:01.37 | 5:23.60 | 117112 | 141396


Track 1

Filename D:\My Rip\01 - Preghiera In Gennaio.wav

Pre-gap length 0:00:02.00

Peak level 100.0 %
Track quality 100.0 %
Test CRC 6EF818B4
Copy CRC 6EF818B4
Track not present in AccurateRip database
Copy OK

Track 2

Filename D:\My Rip\02 - Marcia Nuziale.wav

Pre-gap length 0:00:02.76

Peak level 94.3 %
Track quality 100.0 %
Test CRC 095E34DD
Copy CRC 095E34DD
Track not present in AccurateRip database
Copy OK

Track 3

Filename D:\My Rip\03 - Spiritual.wav

Pre-gap length 0:00:02.76

Peak level 85.1 %
Track quality 100.0 %
Test CRC 73BF721E
Copy CRC 73BF721E
Track not present in AccurateRip database
Copy OK

Track 4

Filename D:\My Rip\04 - Si Chiamava Gesu'.wav

Pre-gap length 0:00:02.77

Peak level 99.9 %
Track quality 99.9 %
Test CRC C714100E
Copy CRC C714100E
Track not present in AccurateRip database
Copy OK

Track 5

Filename D:\My Rip\05 - La Canzone Di Barbara.wav

Pre-gap length 0:00:02.76

Peak level 100.0 %
Track quality 100.0 %
Test CRC 3A843D5E
Copy CRC 3A843D5E
Track not present in AccurateRip database
Copy OK

Track 6

Filename D:\My Rip\06 - Via Del Campo.wav

Pre-gap length 0:00:02.76

Peak level 89.0 %
Track quality 100.0 %
Test CRC 9F3E2ADC
Copy CRC 9F3E2ADC
Track not present in AccurateRip database
Copy OK

Track 7

Filename D:\My Rip\07 - La Stagione Del Tuo Amore.wav

Pre-gap length 0:00:02.76

Peak level 99.9 %
Track quality 100.0 %
Test CRC 9E854368
Copy CRC 9E854368
Track not present in AccurateRip database
Copy OK

Track 8

Filename D:\My Rip\08 - Bocca Di Rosa.wav

Pre-gap length 0:00:02.76

Peak level 99.8 %
Track quality 100.0 %
Test CRC E1E4B589
Copy CRC E1E4B589
Track not present in AccurateRip database
Copy OK

Track 9

Filename D:\My Rip\09 - La Morte.wav

Pre-gap length 0:00:02.76

Peak level 99.8 %
Track quality 100.0 %
Test CRC E9C97AED
Copy CRC E9C97AED
Track not present in AccurateRip database
Copy OK

Track 10

Filename D:\My Rip\10 - Carlo Martello Ritorna Dalla Battaglia Di Poitiers.wav

Pre-gap length 0:00:02.76

Peak level 93.4 %
Track quality 100.0 %
Test CRC EF4789E1
Copy CRC EF4789E1
Track not present in AccurateRip database
Copy OK


None of the tracks are present in the AccurateRip database

No errors occurred

End of status report


Fabrizio De André - Opera Completa (2009) [Box 19 CD + 1 DVD]


Disc 02:
Tutti Morimmo A Stento (1968)


Track listing

[07:08] 01. Cantico Dei Drogati
[01:57] 02. Primo Intermezzo
[03:13] 03. Leggenda Di Natale
[01:57] 04. Secondo Intermezzo
[04:23] 05. Ballata Degli Impiccati
[04:11] 06. Inverno
[03:06] 07. Girotondo
[00:23] 08. Terzo Intermezzo
[02:35] 09. Recitativo (Due Invocazioni E Un Atto D'accusa)
[05:02] 10. Corale (Leggenda Del Re Infelice)

Exact Audio Copy V0.99 prebeta 5 from 4. May 2009

EAC extraction logfile from 27. December 2009, 23:41

Fabrizio De Andre' / Tutti Morimmo A Stento

Used drive : PLEXTOR CD-R PREMIUM2 Adapter: 1 ID: 1

Read mode : Secure
Utilize accurate stream : Yes
Defeat audio cache : Yes
Make use of C2 pointers : No

Read offset correction : 30
Overread into Lead-In and Lead-Out : No
Fill up missing offset samples with silence : Yes
Delete leading and trailing silent blocks : No
Null samples used in CRC calculations : Yes
Used interface : Installed external ASPI interface
Gap handling : Appended to previous track

Used output format : User Defined Encoder
Selected bitrate : 32 kBit/s
Quality : High
Add ID3 tag : No
Command line compressor : C:\Programmi\FLAC\flac.exe
Additional command line options : -8 -V -T "ARTIST=%a" -T "TITLE=%t" -T "ALBUM=%g" -T "DATE=%y" -T "TRACKNUMBER=%n" -T "GENRE=%m" -T "COMMENT=EAC FLAC -8" %s


TOC of the extracted CD

Track | Start | Length | Start sector | End sector
––––––––––––––––––––––––––––-
1 | 0:00.00 | 7:08.05 | 0 | 32104
2 | 7:08.05 | 1:57.05 | 32105 | 40884
3 | 9:05.10 | 3:14.00 | 40885 | 55434
4 | 12:19.10 | 1:57.27 | 55435 | 64236
5 | 14:16.37 | 4:23.11 | 64237 | 83972
6 | 18:39.48 | 4:11.14 | 83973 | 102811
7 | 22:50.62 | 3:06.39 | 102812 | 116800
8 | 25:57.26 | 0:23.29 | 116801 | 118554
9 | 26:20.55 | 2:35.63 | 118555 | 130242
10 | 28:56.43 | 5:02.51 | 130243 | 152943


Track 1

Filename D:\My Rip\01 - Cantico Dei Drogati.wav

Pre-gap length 0:00:02.00

Peak level 99.7 %
Track quality 100.0 %
Test CRC 7C7A6AC3
Copy CRC 7C7A6AC3
Track not present in AccurateRip database
Copy OK

Track 2

Filename D:\My Rip\02 - Primo Intermezzo.wav

Peak level 93.5 %
Track quality 100.0 %
Test CRC 35DD750A
Copy CRC 35DD750A
Track not present in AccurateRip database
Copy OK

Track 3

Filename D:\My Rip\03 - Leggenda Di Natale.wav

Pre-gap length 0:00:00.01

Peak level 87.4 %
Track quality 100.0 %
Test CRC 8CA871B3
Copy CRC 8CA871B3
Track not present in AccurateRip database
Copy OK

Track 4

Filename D:\My Rip\04 - Secondo Intermezzo.wav

Pre-gap length 0:00:00.01

Peak level 98.5 %
Track quality 100.0 %
Test CRC 05C2318F
Copy CRC 05C2318F
Track not present in AccurateRip database
Copy OK

Track 5

Filename D:\My Rip\05 - Ballata Degli Impiccati.wav

Pre-gap length 0:00:00.01

Peak level 99.8 %
Track quality 100.0 %
Test CRC D0752A8B
Copy CRC D0752A8B
Track not present in AccurateRip database
Copy OK

Track 6

Filename D:\My Rip\06 - Inverno.wav

Pre-gap length 0:00:00.01

Peak level 99.7 %
Track quality 100.0 %
Test CRC 423D7C24
Copy CRC 423D7C24
Track not present in AccurateRip database
Copy OK

Track 7

Filename D:\My Rip\07 - Girotondo.wav

Pre-gap length 0:00:00.01

Peak level 99.7 %
Track quality 100.0 %
Test CRC 4DE59689
Copy CRC 4DE59689
Track not present in AccurateRip database
Copy OK

Track 8

Filename D:\My Rip\08 - Terzo Intermezzo.wav

Pre-gap length 0:00:00.01

Peak level 60.5 %
Track quality 100.0 %
Test CRC A462E0D8
Copy CRC A462E0D8
Track not present in AccurateRip database
Copy OK

Track 9

Filename D:\My Rip\09 - Recitativo (Due Invocazioni E Un Atto D'accusa).wav

Pre-gap length 0:00:00.01

Peak level 85.5 %
Track quality 100.0 %
Test CRC C597EDA6
Copy CRC C597EDA6
Track not present in AccurateRip database
Copy OK

Track 10

Filename D:\My Rip\10 - Corale (Leggenda Del Re Infelice).wav

Pre-gap length 0:00:00.01

Peak level 79.2 %
Track quality 100.0 %
Test CRC 30300EEB
Copy CRC 30300EEB
Track not present in AccurateRip database
Copy OK


None of the tracks are present in the AccurateRip database

No errors occurred

End of status report


Fabrizio De André - Opera Completa (2009) [Box 19 CD + 1 DVD]


Disc 03:
Volume 3 (1969)


Track listing

[03:20] 01. La Canzone Di Marinella
[02:59] 02. Il Gorilla
[02:36] 03. La Ballata Dell'eroe
[01:15] 04. S'i' Fosse Foco
[02:51] 05. Amore Che Vieni Amore Che Vai
[03:04] 06. La Guerra Di Piero
[03:47] 07. Il Testamento
[02:21] 08. Nell'acqua Della Chiara Fontana
[02:54] 09. La Ballata Del Miche'
[03:13] 10. Il Re Fa Rullare I Tamburi

Exact Audio Copy V0.99 prebeta 5 from 4. May 2009

EAC extraction logfile from 28. December 2009, 0:02

Fabrizio De Andre' / Volume 3

Used drive : PLEXTOR CD-R PREMIUM2 Adapter: 1 ID: 1

Read mode : Secure
Utilize accurate stream : Yes
Defeat audio cache : Yes
Make use of C2 pointers : No

Read offset correction : 30
Overread into Lead-In and Lead-Out : No
Fill up missing offset samples with silence : Yes
Delete leading and trailing silent blocks : No
Null samples used in CRC calculations : Yes
Used interface : Installed external ASPI interface
Gap handling : Appended to previous track

Used output format : User Defined Encoder
Selected bitrate : 32 kBit/s
Quality : High
Add ID3 tag : No
Command line compressor : C:\Programmi\FLAC\flac.exe
Additional command line options : -8 -V -T "ARTIST=%a" -T "TITLE=%t" -T "ALBUM=%g" -T "DATE=%y" -T "TRACKNUMBER=%n" -T "GENRE=%m" -T "COMMENT=EAC FLAC -8" %s


TOC of the extracted CD

Track | Start | Length | Start sector | End sector
––––––––––––––––––––––––––––-
1 | 0:00.00 | 3:20.34 | 0 | 15033
2 | 3:20.34 | 2:59.52 | 15034 | 28510
3 | 6:20.11 | 2:36.09 | 28511 | 40219
4 | 8:56.20 | 1:15.08 | 40220 | 45852
5 | 10:11.28 | 2:51.20 | 45853 | 58697
6 | 13:02.48 | 3:04.21 | 58698 | 72518
7 | 16:06.69 | 3:47.30 | 72519 | 89573
8 | 19:54.24 | 2:21.23 | 89574 | 100171
9 | 22:15.47 | 2:54.40 | 100172 | 113261
10 | 25:10.12 | 3:13.08 | 113262 | 127744


Track 1

Filename D:\My Rip\01 - La Canzone Di Marinella.wav

Pre-gap length 0:00:02.00

Peak level 90.2 %
Track quality 100.0 %
Test CRC C2E7965B
Copy CRC C2E7965B
Accurately ripped (confidence 5) [C7072F6C]
Copy OK

Track 2

Filename D:\My Rip\02 - Il Gorilla.wav

Pre-gap length 0:00:02.44

Peak level 94.5 %
Track quality 100.0 %
Test CRC D91ABDB9
Copy CRC D91ABDB9
Accurately ripped (confidence 5) [BCE94D11]
Copy OK

Track 3

Filename D:\My Rip\03 - La Ballata Dell'eroe.wav

Pre-gap length 0:00:01.69

Peak level 97.9 %
Track quality 100.0 %
Test CRC 0FC5D1CB
Copy CRC 0FC5D1CB
Accurately ripped (confidence 5) [5AA1809E]
Copy OK

Track 4

Filename D:\My Rip\04 - S'i' Fosse Foco.wav

Pre-gap length 0:00:01.92

Peak level 89.3 %
Track quality 100.0 %
Test CRC B63BD188
Copy CRC B63BD188
Accurately ripped (confidence 5) [D49F9061]
Copy OK

Track 5

Filename D:\My Rip\05 - Amore Che Vieni Amore Che Vai.wav

Pre-gap length 0:00:01.76

Peak level 89.0 %
Track quality 100.0 %
Test CRC 3134BF43
Copy CRC 3134BF43
Accurately ripped (confidence 5) [F5BA4873]
Copy OK

Track 6

Filename D:\My Rip\06 - La Guerra Di Piero.wav

Pre-gap length 0:00:03.09

Peak level 99.8 %
Track quality 99.9 %
Test CRC 523675BC
Copy CRC 523675BC
Accurately ripped (confidence 5) [69A4A357]
Copy OK

Track 7

Filename D:\My Rip\07 - Il Testamento.wav

Pre-gap length 0:00:02.38

Peak level 100.0 %
Track quality 100.0 %
Test CRC 294C84DC
Copy CRC 294C84DC
Accurately ripped (confidence 5) [C23B059B]
Copy OK

Track 8

Filename D:\My Rip\08 - Nell'acqua Della Chiara Fontana.wav

Pre-gap length 0:00:02.64

Peak level 94.3 %
Track quality 100.0 %
Test CRC 3A3F3E0E
Copy CRC 3A3F3E0E
Accurately ripped (confidence 5) [18337898]
Copy OK

Track 9

Filename D:\My Rip\09 - La Ballata Del Miche'.wav

Pre-gap length 0:00:02.32

Peak level 89.0 %
Track quality 100.0 %
Test CRC 4476B8B1
Copy CRC 4476B8B1
Accurately ripped (confidence 5) [03231EAB]
Copy OK

Track 10

Filename D:\My Rip\10 - Il Re Fa Rullare I Tamburi.wav

Pre-gap length 0:00:02.32

Peak level 74.9 %
Track quality 100.0 %
Test CRC E68D1285
Copy CRC E68D1285
Accurately ripped (confidence 5) [7B04237C]
Copy OK


All tracks accurately ripped

No errors occurred

End of status report


Fabrizio De André - Opera Completa (2009) [Box 19 CD + 1 DVD]


Disc 04:
La Buona Novella (1970)


Track listing

[00:21] 01. Laudate Dominum
[05:02] 02. L'infanzia Di Maria
[04:06] 03. Il Ritorno Di Giuseppe
[04:07] 04. Il Sogno Di Maria
[01:53] 05. Ave Maria
[03:14] 06. Maria Nella Bottega Del Falegname
[04:33] 07. Via Della Croce
[02:55] 08. Tre Madri
[05:51] 09. Il Testamento Di Tito
[03:27] 10. Laudate Hominem

Exact Audio Copy V0.99 prebeta 5 from 4. May 2009

EAC extraction logfile from 28. December 2009, 0:22

Fabrizio De Andre' / La Buona Novella

Used drive : PLEXTOR CD-R PREMIUM2 Adapter: 1 ID: 1

Read mode : Secure
Utilize accurate stream : Yes
Defeat audio cache : Yes
Make use of C2 pointers : No

Read offset correction : 30
Overread into Lead-In and Lead-Out : No
Fill up missing offset samples with silence : Yes
Delete leading and trailing silent blocks : No
Null samples used in CRC calculations : Yes
Used interface : Installed external ASPI interface
Gap handling : Appended to previous track

Used output format : User Defined Encoder
Selected bitrate : 32 kBit/s
Quality : High
Add ID3 tag : No
Command line compressor : C:\Programmi\FLAC\flac.exe
Additional command line options : -8 -V -T "ARTIST=%a" -T "TITLE=%t" -T "ALBUM=%g" -T "DATE=%y" -T "TRACKNUMBER=%n" -T "GENRE=%m" -T "COMMENT=EAC FLAC -8" %s


TOC of the extracted CD

Track | Start | Length | Start sector | End sector
––––––––––––––––––––––––––––-
1 | 0:00.00 | 0:21.60 | 0 | 1634
2 | 0:21.60 | 5:02.11 | 1635 | 24295
3 | 5:23.71 | 4:06.69 | 24296 | 42814
4 | 9:30.65 | 4:07.19 | 42815 | 61358
5 | 13:38.09 | 1:53.26 | 61359 | 69859
6 | 15:31.35 | 3:14.14 | 69860 | 84423
7 | 18:45.49 | 4:33.43 | 84424 | 104941
8 | 23:19.17 | 2:55.68 | 104942 | 118134
9 | 26:15.10 | 5:51.14 | 118135 | 144473
10 | 32:06.24 | 3:27.68 | 144474 | 160066


Track 1

Filename D:\My Rip\01 - Laudate Dominum.wav

Pre-gap length 0:00:02.00

Peak level 99.8 %
Track quality 100.0 %
Test CRC 58D8C6A7
Copy CRC 58D8C6A7
Accurately ripped (confidence 4) [040A1DFE]
Copy OK

Track 2

Filename D:\My Rip\02 - L'infanzia Di Maria.wav

Peak level 99.7 %
Track quality 99.9 %
Test CRC E7657381
Copy CRC E7657381
Accurately ripped (confidence 4) [19B7B094]
Copy OK

Track 3

Filename D:\My Rip\03 - Il Ritorno Di Giuseppe.wav

Pre-gap length 0:00:00.89

Peak level 89.7 %
Track quality 100.0 %
Test CRC BD815A40
Copy CRC BD815A40
Accurately ripped (confidence 4) [85A3B625]
Copy OK

Track 4

Filename D:\My Rip\04 - Il Sogno Di Maria.wav

Pre-gap length 0:00:02.16

Peak level 94.3 %
Track quality 100.0 %
Test CRC F233327E
Copy CRC F233327E
Accurately ripped (confidence 4) [7FF49DB6]
Copy OK

Track 5

Filename D:\My Rip\05 - Ave Maria.wav

Peak level 85.6 %
Track quality 100.0 %
Test CRC 89878183
Copy CRC 89878183
Accurately ripped (confidence 4) [4C10CA2A]
Copy OK

Track 6

Filename D:\My Rip\06 - Maria Nella Bottega Del Falegname.wav

Pre-gap length 0:00:01.89

Peak level 100.0 %
Track quality 100.0 %
Test CRC 97AB96E4
Copy CRC 97AB96E4
Accurately ripped (confidence 4) [138F3B00]
Copy OK

Track 7

Filename D:\My Rip\07 - Via Della Croce.wav

Pre-gap length 0:00:00.85

Peak level 99.7 %
Track quality 100.0 %
Test CRC BAA14425
Copy CRC BAA14425
Accurately ripped (confidence 4) [71EEE275]
Copy OK

Track 8

Filename D:\My Rip\08 - Tre Madri.wav

Pre-gap length 0:00:01.64

Peak level 93.3 %
Track quality 100.0 %
Test CRC 0408A920
Copy CRC 0408A920
Accurately ripped (confidence 4) [B4511235]
Copy OK

Track 9

Filename D:\My Rip\09 - Il Testamento Di Tito.wav

Pre-gap length 0:00:00.93

Peak level 99.1 %
Track quality 100.0 %
Test CRC 027C16EF
Copy CRC 027C16EF
Accurately ripped (confidence 4) [1469AF41]
Copy OK

Track 10

Filename D:\My Rip\10 - Laudate Hominem.wav

Peak level 99.9 %
Track quality 99.9 %
Test CRC 8EB6989F
Copy CRC 8EB6989F
Accurately ripped (confidence 4) [62EF8C59]
Copy OK


All tracks accurately ripped

No errors occurred

End of status report


Fabrizio De André - Opera Completa (2009) [Box 19 CD + 1 DVD]


Disc 05:
Non Al Denaro Non All'amore Ne' Al Cielo (1971)


Track listing

[04:04] 01. Dormono Sulla Collina
[02:35] 02. Un Matto (Dietro Ogni Scemo C'e' Un Villaggio)
[02:55] 03. Un Giudice
[02:59] 04. Un Blasfemo (Dietro Ogni Blasfemo C'e' Un Giardino Incantato)
[03:54] 05. Un Malato Di Cuore
[02:40] 06. Un Medico
[03:01] 07. Un Chimico
[04:35] 08. Un Ottico
[04:27] 09. Il Suonatore Jones

Exact Audio Copy V0.99 prebeta 5 from 4. May 2009

EAC extraction logfile from 28. December 2009, 0:42

Fabrizio De Andre' / Non Al Denaro Non All'amore Ne' Al Cielo

Used drive : PLEXTOR CD-R PREMIUM2 Adapter: 1 ID: 1

Read mode : Secure
Utilize accurate stream : Yes
Defeat audio cache : Yes
Make use of C2 pointers : No

Read offset correction : 30
Overread into Lead-In and Lead-Out : No
Fill up missing offset samples with silence : Yes
Delete leading and trailing silent blocks : No
Null samples used in CRC calculations : Yes
Used interface : Installed external ASPI interface
Gap handling : Appended to previous track

Used output format : User Defined Encoder
Selected bitrate : 32 kBit/s
Quality : High
Add ID3 tag : No
Command line compressor : C:\Programmi\FLAC\flac.exe
Additional command line options : -8 -V -T "ARTIST=%a" -T "TITLE=%t" -T "ALBUM=%g" -T "DATE=%y" -T "TRACKNUMBER=%n" -T "GENRE=%m" -T "COMMENT=EAC FLAC -8" %s


TOC of the extracted CD

Track | Start | Length | Start sector | End sector
––––––––––––––––––––––––––––-
1 | 0:00.00 | 4:04.36 | 0 | 18335
2 | 4:04.36 | 2:35.66 | 18336 | 30026
3 | 6:40.27 | 2:55.66 | 30027 | 43217
4 | 9:36.18 | 2:59.54 | 43218 | 56696
5 | 12:35.72 | 3:54.49 | 56697 | 74295
6 | 16:30.46 | 2:40.03 | 74296 | 86298
7 | 19:10.49 | 3:01.04 | 86299 | 99877
8 | 22:11.53 | 4:35.66 | 99878 | 120568
9 | 26:47.44 | 4:27.35 | 120569 | 140628


Track 1

Filename D:\My Rip\01 - Dormono Sulla Collina.wav

Pre-gap length 0:00:02.00

Peak level 88.8 %
Track quality 100.0 %
Test CRC B0A78783
Copy CRC B0A78783
Accurately ripped (confidence 3) [37B41EC6]
Copy OK

Track 2

Filename D:\My Rip\02 - Un Matto (Dietro Ogni Scemo C'e' Un Villaggio).wav

Pre-gap length 0:00:00.90

Peak level 99.6 %
Track quality 100.0 %
Test CRC 20019F9F
Copy CRC 20019F9F
Accurately ripped (confidence 3) [9170265C]
Copy OK

Track 3

Filename D:\My Rip\03 - Un Giudice.wav

Peak level 94.0 %
Track quality 100.0 %
Test CRC 0AEEED6A
Copy CRC 0AEEED6A
Accurately ripped (confidence 3) [950321A1]
Copy OK

Track 4

Filename D:\My Rip\04 - Un Blasfemo (Dietro Ogni Blasfemo C'e' Un Giardino Incantato).wav

Peak level 99.6 %
Track quality 100.0 %
Test CRC 18B3B204
Copy CRC 18B3B204
Accurately ripped (confidence 3) [2384551B]
Copy OK

Track 5

Filename D:\My Rip\05 - Un Malato Di Cuore.wav

Peak level 99.6 %
Track quality 100.0 %
Test CRC C304D4FF
Copy CRC C304D4FF
Accurately ripped (confidence 3) [89721E1B]
Copy OK

Track 6

Filename D:\My Rip\06 - Un Medico.wav

Pre-gap length 0:00:02.52

Peak level 94.0 %
Track quality 99.9 %
Test CRC 2D3FB52A
Copy CRC 2D3FB52A
Accurately ripped (confidence 3) [68B90F55]
Copy OK

Track 7

Filename D:\My Rip\07 - Un Chimico.wav

Peak level 99.6 %
Track quality 100.0 %
Test CRC 40AE0614
Copy CRC 40AE0614
Accurately ripped (confidence 3) [CC7C7C74]
Copy OK

Track 8

Filename D:\My Rip\08 - Un Ottico.wav

Peak level 99.7 %
Track quality 100.0 %
Test CRC F7E57391
Copy CRC F7E57391
Accurately ripped (confidence 3) [B606713A]
Copy OK

Track 9

Filename D:\My Rip\09 - Il Suonatore Jones.wav

Peak level 99.6 %
Track quality 100.0 %
Test CRC 6716B12A
Copy CRC 6716B12A
Accurately ripped (confidence 3) [35FAEF88]
Copy OK


All tracks accurately ripped

No errors occurred

End of status report


Fabrizio De André - Opera Completa (2009) [Box 19 CD + 1 DVD]


Disc 06:
Storia Di Un Impiegato (1973)


Track listing

[01:43] 01. Introduzione
[02:24] 02. Canzone Del Maggio
[04:01] 03. La Bomba In Testa
[05:13] 04. Al Ballo Mascherato
[03:15] 05. Sogno Numero Due
[05:15] 06. La Canzone Del Padre
[04:21] 07. Il Bombarolo
[04:20] 08. Verranno A Chiederti Del Nostro Amore
[05:12] 09. Nella Mia Ora Di Liberta'

Exact Audio Copy V0.99 prebeta 5 from 4. May 2009

EAC extraction logfile from 28. December 2009, 10:50

Fabrizio De Andre' / Storia Di Un Impiegato

Used drive : PLEXTOR CD-R PREMIUM2 Adapter: 1 ID: 1

Read mode : Secure
Utilize accurate stream : Yes
Defeat audio cache : Yes
Make use of C2 pointers : No

Read offset correction : 30
Overread into Lead-In and Lead-Out : No
Fill up missing offset samples with silence : Yes
Delete leading and trailing silent blocks : No
Null samples used in CRC calculations : Yes
Used interface : Installed external ASPI interface
Gap handling : Appended to previous track

Used output format : User Defined Encoder
Selected bitrate : 32 kBit/s
Quality : High
Add ID3 tag : No
Command line compressor : C:\Programmi\FLAC\flac.exe
Additional command line options : -8 -V -T "ARTIST=%a" -T "TITLE=%t" -T "ALBUM=%g" -T "DATE=%y" -T "TRACKNUMBER=%n" -T "GENRE=%m" -T "COMMENT=EAC FLAC -8" %s


TOC of the extracted CD

Track | Start | Length | Start sector | End sector
––––––––––––––––––––––––––––-
1 | 0:00.00 | 1:43.55 | 0 | 7779
2 | 1:43.55 | 2:24.52 | 7780 | 18631
3 | 4:08.32 | 4:01.71 | 18632 | 36777
4 | 8:10.28 | 5:13.38 | 36778 | 60290
5 | 13:23.66 | 3:15.74 | 60291 | 74989
6 | 16:39.65 | 5:15.55 | 74990 | 98669
7 | 21:55.45 | 4:21.55 | 98670 | 118299
8 | 26:17.25 | 4:20.33 | 118300 | 137832
9 | 30:37.58 | 5:12.24 | 137833 | 161256


Track 1

Filename D:\My Rip\01 - Introduzione.wav

Pre-gap length 0:00:02.00

Peak level 99.7 %
Track quality 100.0 %
Test CRC 413785D5
Copy CRC 413785D5
Accurately ripped (confidence 4) [6F066111]
Copy OK

Track 2

Filename D:\My Rip\02 - Canzone Del Maggio.wav

Peak level 99.6 %
Track quality 100.0 %
Test CRC 4AD00673
Copy CRC 4AD00673
Accurately ripped (confidence 4) [D261F6F1]
Copy OK

Track 3

Filename D:\My Rip\03 - La Bomba In Testa.wav

Peak level 83.3 %
Track quality 100.0 %
Test CRC 31813EC1
Copy CRC 31813EC1
Accurately ripped (confidence 4) [E200092C]
Copy OK

Track 4

Filename D:\My Rip\04 - Al Ballo Mascherato.wav

Peak level 88.8 %
Track quality 100.0 %
Test CRC 5E2C6563
Copy CRC 5E2C6563
Accurately ripped (confidence 4) [C0CD43A6]
Copy OK

Track 5

Filename D:\My Rip\05 - Sogno Numero Due.wav

Peak level 99.8 %
Track quality 100.0 %
Test CRC 7D788871
Copy CRC 7D788871
Accurately ripped (confidence 4) [AD3DFA27]
Copy OK

Track 6

Filename D:\My Rip\06 - La Canzone Del Padre.wav

Pre-gap length 0:00:01.30

Peak level 88.9 %
Track quality 100.0 %
Test CRC 78E4AE6B
Copy CRC 78E4AE6B
Accurately ripped (confidence 4) [3A9CDC26]
Copy OK

Track 7

Filename D:\My Rip\07 - Il Bombarolo.wav

Peak level 99.7 %
Track quality 100.0 %
Test CRC 63E6A125
Copy CRC 63E6A125
Accurately ripped (confidence 4) [9F2141C8]
Copy OK

Track 8

Filename D:\My Rip\08 - Verranno A Chiederti Del Nostro Amore.wav

Pre-gap length 0:00:02.05

Peak level 94.4 %
Track quality 100.0 %
Test CRC E189DDDA
Copy CRC E189DDDA
Accurately ripped (confidence 4) [FA4FE344]
Copy OK

Track 9

Filename D:\My Rip\09 - Nella Mia Ora Di Liberta'.wav

Peak level 99.7 %
Track quality 100.0 %
Test CRC 737CEA1A
Copy CRC 737CEA1A
Accurately ripped (confidence 4) [283F96D7]
Copy OK


All tracks accurately ripped

No errors occurred

End of status report


Fabrizio De André - Opera Completa (2009) [Box 19 CD + 1 DVD]


Disc 07:
Canzoni (1974)


Track listing

[09:36] 01. Via Della Poverta' (Desolation Row)
[03:51] 02. Le Passanti
[02:40] 03. Fila La Lana
[03:02] 04. Ballata Dell'amore Cieco
[03:28] 05. Suzanne
[04:25] 06. Morire Per Delle Idee
[03:21] 07. Canzone Dell'amore Perduto
[03:23] 08. La Citta' Vecchia
[04:50] 09. Giovanna D'Arco
[03:55] 10. Delitto Di Paese
[03:40] 11. Valzer Per Un Amore

Exact Audio Copy V0.99 prebeta 5 from 4. May 2009

EAC extraction logfile from 28. December 2009, 11:22

Fabrizio De Andre' / Canzoni

Used drive : PLEXTOR CD-R PREMIUM2 Adapter: 1 ID: 1

Read mode : Secure
Utilize accurate stream : Yes
Defeat audio cache : Yes
Make use of C2 pointers : No

Read offset correction : 30
Overread into Lead-In and Lead-Out : No
Fill up missing offset samples with silence : Yes
Delete leading and trailing silent blocks : No
Null samples used in CRC calculations : Yes
Used interface : Installed external ASPI interface
Gap handling : Appended to previous track

Used output format : User Defined Encoder
Selected bitrate : 32 kBit/s
Quality : High
Add ID3 tag : No
Command line compressor : C:\Programmi\FLAC\flac.exe
Additional command line options : -8 -V -T "ARTIST=%a" -T "TITLE=%t" -T "ALBUM=%g" -T "DATE=%y" -T "TRACKNUMBER=%n" -T "GENRE=%m" -T "COMMENT=EAC FLAC -8" %s


TOC of the extracted CD

Track | Start | Length | Start sector | End sector
––––––––––––––––––––––––––––-
1 | 0:00.00 | 9:36.26 | 0 | 43225
2 | 9:36.26 | 3:51.15 | 43226 | 60565
3 | 13:27.41 | 2:40.45 | 60566 | 72610
4 | 16:08.11 | 3:02.58 | 72611 | 86318
5 | 19:10.69 | 3:28.36 | 86319 | 101954
6 | 22:39.30 | 4:25.17 | 101955 | 121846
7 | 27:04.47 | 3:21.41 | 121847 | 136962
8 | 30:26.13 | 3:23.66 | 136963 | 152253
9 | 33:50.04 | 4:50.29 | 152254 | 174032
10 | 38:40.33 | 3:55.34 | 174033 | 191691
11 | 42:35.67 | 3:40.67 | 191692 | 208258


Track 1

Filename D:\My Rip\01 - Via Della Poverta' (Desolation Row).wav

Pre-gap length 0:00:02.00

Peak level 88.9 %
Track quality 100.0 %
Test CRC 41430E01
Copy CRC 41430E01
Accurately ripped (confidence 3) [CC5CB35C]
Copy OK

Track 2

Filename D:\My Rip\02 - Le Passanti.wav

Pre-gap length 0:00:01.76

Peak level 79.3 %
Track quality 100.0 %
Test CRC E1A6F46D
Copy CRC E1A6F46D
Accurately ripped (confidence 3) [4EBAD428]
Copy OK

Track 3

Filename D:\My Rip\03 - Fila La Lana.wav

Pre-gap length 0:00:02.64

Peak level 79.3 %
Track quality 100.0 %
Test CRC 9A782B5B
Copy CRC 9A782B5B
Accurately ripped (confidence 3) [0F8E01F6]
Copy OK

Track 4

Filename D:\My Rip\04 - Ballata Dell'amore Cieco.wav

Pre-gap length 0:00:02.77

Peak level 79.3 %
Track quality 100.0 %
Test CRC 78D98ACE
Copy CRC 78D98ACE
Accurately ripped (confidence 3) [95572723]
Copy OK

Track 5

Filename D:\My Rip\05 - Suzanne.wav

Pre-gap length 0:00:01.85

Peak level 79.5 %
Track quality 100.0 %
Test CRC 271AFFDA
Copy CRC 271AFFDA
Accurately ripped (confidence 3) [9ADBCFAF]
Copy OK

Track 6

Filename D:\My Rip\06 - Morire Per Delle Idee.wav

Pre-gap length 0:00:02.00

Peak level 79.4 %
Track quality 100.0 %
Test CRC 7246F34B
Copy CRC 7246F34B
Accurately ripped (confidence 3) [6E31833D]
Copy OK

Track 7

Filename D:\My Rip\07 - Canzone Dell'amore Perduto.wav

Pre-gap length 0:00:02.20

Peak level 79.3 %
Track quality 99.9 %
Test CRC 1473D3E2
Copy CRC 1473D3E2
Accurately ripped (confidence 3) [59DCD2C6]
Copy OK

Track 8

Filename D:\My Rip\08 - La Citta' Vecchia.wav

Pre-gap length 0:00:02.17

Peak level 79.4 %
Track quality 99.9 %
Test CRC 301BB103
Copy CRC 301BB103
Accurately ripped (confidence 3) [BEA55D4C]
Copy OK

Track 9

Filename D:\My Rip\09 - Giovanna D'Arco.wav

Pre-gap length 0:00:00.92

Peak level 89.0 %
Track quality 100.0 %
Test CRC 9125111B
Copy CRC 9125111B
Accurately ripped (confidence 3) [51CB7167]
Copy OK

Track 10

Filename D:\My Rip\10 - Delitto Di Paese.wav

Pre-gap length 0:00:02.24

Peak level 89.1 %
Track quality 99.9 %
Test CRC 1CBA7C29
Copy CRC 1CBA7C29
Accurately ripped (confidence 3) [78D69D8D]
Copy OK

Track 11

Filename D:\My Rip\11 - Valzer Per Un Amore.wav

Pre-gap length 0:00:01.72

Peak level 76.7 %
Track quality 100.0 %
Test CRC F96AC7D9
Copy CRC F96AC7D9
Accurately ripped (confidence 3) [EF3C2091]
Copy OK


All tracks accurately ripped

No errors occurred

End of status report


Fabrizio De André - Opera Completa (2009) [Box 19 CD + 1 DVD]


Disc 08:
Volume 8 (1975)


Track listing

[04:34] 01. La Cattiva Strada
[03:11] 02. Oceano
[03:57] 03. Nancy
[03:16] 04. Le Storie Di Ieri
[03:31] 05. Giugno '73
[03:25] 06. Dolce Luna
[05:21] 07. Canzone Per L'estate
[05:32] 08. Amico Fragile

Exact Audio Copy V0.99 prebeta 5 from 4. May 2009

EAC extraction logfile from 28. December 2009, 11:49

Fabrizio De Andre' / Volume 8

Used drive : PLEXTOR CD-R PREMIUM2 Adapter: 1 ID: 1

Read mode : Secure
Utilize accurate stream : Yes
Defeat audio cache : Yes
Make use of C2 pointers : No

Read offset correction : 30
Overread into Lead-In and Lead-Out : No
Fill up missing offset samples with silence : Yes
Delete leading and trailing silent blocks : No
Null samples used in CRC calculations : Yes
Used interface : Installed external ASPI interface
Gap handling : Appended to previous track

Used output format : User Defined Encoder
Selected bitrate : 32 kBit/s
Quality : High
Add ID3 tag : No
Command line compressor : C:\Programmi\FLAC\flac.exe
Additional command line options : -8 -V -T "ARTIST=%a" -T "TITLE=%t" -T "ALBUM=%g" -T "DATE=%y" -T "TRACKNUMBER=%n" -T "GENRE=%m" -T "COMMENT=EAC FLAC -8" %s


TOC of the extracted CD

Track | Start | Length | Start sector | End sector
––––––––––––––––––––––––––––-
1 | 0:00.00 | 4:34.69 | 0 | 20618
2 | 4:34.69 | 3:11.68 | 20619 | 35011
3 | 7:46.62 | 3:57.42 | 35012 | 52828
4 | 11:44.29 | 3:16.15 | 52829 | 67543
5 | 15:00.44 | 3:31.15 | 67544 | 83383
6 | 18:31.59 | 3:25.26 | 83384 | 98784
7 | 21:57.10 | 5:21.41 | 98785 | 122900
8 | 27:18.51 | 5:32.69 | 122901 | 147869


Track 1

Filename D:\My Rip\01 - La Cattiva Strada.wav

Pre-gap length 0:00:02.00

Peak level 96.6 %
Track quality 99.9 %
Test CRC D26063AE
Copy CRC D26063AE
Accurately ripped (confidence 3) [3CAC70AC]
Copy OK

Track 2

Filename D:\My Rip\02 - Oceano.wav

Pre-gap length 0:00:01.24

Peak level 96.5 %
Track quality 99.9 %
Test CRC 450D971A
Copy CRC 450D971A
Accurately ripped (confidence 3) [4ADFFA28]
Copy OK

Track 3

Filename D:\My Rip\03 - Nancy.wav

Pre-gap length 0:00:02.24

Peak level 96.5 %
Track quality 100.0 %
Test CRC BFE74E47
Copy CRC BFE74E47
Accurately ripped (confidence 3) [F4F0C7C6]
Copy OK

Track 4

Filename D:\My Rip\04 - Le Storie Di Ieri.wav

Pre-gap length 0:00:01.02

Peak level 96.6 %
Track quality 100.0 %
Test CRC 3C8A92C3
Copy CRC 3C8A92C3
Accurately ripped (confidence 3) [990836CF]
Copy OK

Track 5

Filename D:\My Rip\05 - Giugno '73.wav

Pre-gap length 0:00:02.58

Peak level 96.5 %
Track quality 99.9 %
Test CRC 6DFA31A7
Copy CRC 6DFA31A7
Accurately ripped (confidence 3) [CBCAA4BD]
Copy OK

Track 6

Filename D:\My Rip\06 - Dolce Luna.wav

Pre-gap length 0:00:02.05

Peak level 96.5 %
Track quality 100.0 %
Test CRC 866EEF19
Copy CRC 866EEF19
Accurately ripped (confidence 3) [A3EC1522]
Copy OK

Track 7

Filename D:\My Rip\07 - Canzone Per L'estate.wav

Pre-gap length 0:00:01.02

Peak level 96.5 %
Track quality 100.0 %
Test CRC 175C77C2
Copy CRC 175C77C2
Accurately ripped (confidence 3) [94936851]
Copy OK

Track 8

Filename D:\My Rip\08 - Amico Fragile.wav

Pre-gap length 0:00:01.58

Peak level 96.5 %
Track quality 100.0 %
Test CRC 54D08328
Copy CRC 54D08328
Accurately ripped (confidence 3) [9FFE7C52]
Copy OK


All tracks accurately ripped

No errors occurred

End of status report


Fabrizio De André - Opera Completa (2009) [Box 19 CD + 1 DVD]


Disc 09:
Fabrizio De Andre (1976)


Track listing

[02:21] 01. Il Pescatore
[03:07] 02. Bocca Di Rosa
[03:50] 03. Le Passanti
[03:21] 04. Canzone Dell'amore Perduto
[04:34] 05. La Cattiva Strada
[02:57] 06. Un Giudice
[03:46] 07. Il Testamento
[04:22] 08. Verranno A Chiederti Del Nostro Amore

Exact Audio Copy V0.99 prebeta 5 from 4. May 2009

EAC extraction logfile from 28. December 2009, 12:51

Fabrizio De Andre' / Fabrizio De Andre'

Used drive : PLEXTOR CD-R PREMIUM2 Adapter: 1 ID: 1

Read mode : Secure
Utilize accurate stream : Yes
Defeat audio cache : Yes
Make use of C2 pointers : No

Read offset correction : 30
Overread into Lead-In and Lead-Out : No
Fill up missing offset samples with silence : Yes
Delete leading and trailing silent blocks : No
Null samples used in CRC calculations : Yes
Used interface : Installed external ASPI interface
Gap handling : Appended to previous track

Used output format : User Defined Encoder
Selected bitrate : 32 kBit/s
Quality : High
Add ID3 tag : No
Command line compressor : C:\Programmi\FLAC\flac.exe
Additional command line options : -8 -V -T "ARTIST=%a" -T "TITLE=%t" -T "ALBUM=%g" -T "DATE=%y" -T "TRACKNUMBER=%n" -T "GENRE=%m" -T "COMMENT=EAC FLAC -8" %s


TOC of the extracted CD

Track | Start | Length | Start sector | End sector
––––––––––––––––––––––––––––-
1 | 0:00.00 | 2:21.70 | 0 | 10644
2 | 2:21.70 | 3:07.10 | 10645 | 24679
3 | 5:29.05 | 3:50.25 | 24680 | 41954
4 | 9:19.30 | 3:21.10 | 41955 | 57039
5 | 12:40.40 | 4:34.45 | 57040 | 77634
6 | 17:15.10 | 2:57.64 | 77635 | 90973
7 | 20:12.74 | 3:46.39 | 90974 | 107962
8 | 23:59.38 | 4:22.47 | 107963 | 127659


Track 1

Filename D:\My Rip\01 - Il Pescatore.wav

Pre-gap length 0:00:02.00

Peak level 93.0 %
Track quality 100.0 %
Test CRC 62D00782
Copy CRC 62D00782
Track not present in AccurateRip database
Copy OK

Track 2

Filename D:\My Rip\02 - Bocca Di Rosa.wav

Pre-gap length 0:00:01.76

Peak level 99.9 %
Track quality 100.0 %
Test CRC 6BD8CA0C
Copy CRC 6BD8CA0C
Track not present in AccurateRip database
Copy OK

Track 3

Filename D:\My Rip\03 - Le Passanti.wav

Pre-gap length 0:00:01.76

Peak level 89.0 %
Track quality 100.0 %
Test CRC 8B9E1B18
Copy CRC 8B9E1B18
Track not present in AccurateRip database
Copy OK

Track 4

Filename D:\My Rip\04 - Canzone Dell'amore Perduto.wav

Pre-gap length 0:00:01.76

Peak level 70.7 %
Track quality 100.0 %
Test CRC BE691B9C
Copy CRC BE691B9C
Track not present in AccurateRip database
Copy OK

Track 5

Filename D:\My Rip\05 - La Cattiva Strada.wav

Pre-gap length 0:00:01.76

Peak level 89.1 %
Track quality 99.9 %
Test CRC 67CF0644
Copy CRC 67CF0644
Track not present in AccurateRip database
Copy OK

Track 6

Filename D:\My Rip\06 - Un Giudice.wav

Pre-gap length 0:00:01.77

Peak level 94.0 %
Track quality 100.0 %
Test CRC 5BDFEDE0
Copy CRC 5BDFEDE0
Track not present in AccurateRip database
Copy OK

Track 7

Filename D:\My Rip\07 - Il Testamento.wav

Pre-gap length 0:00:01.76

Peak level 79.4 %
Track quality 100.0 %
Test CRC 67B84CC5
Copy CRC 67B84CC5
Track not present in AccurateRip database
Copy OK

Track 8

Filename D:\My Rip\08 - Verranno A Chiederti Del Nostro Amore.wav

Pre-gap length 0:00:01.76

Peak level 75.0 %
Track quality 100.0 %
Test CRC 6E7683BF
Copy CRC 6E7683BF
Track not present in AccurateRip database
Copy OK


None of the tracks are present in the AccurateRip database

No errors occurred

End of status report


Fabrizio De André - Opera Completa (2009) [Box 19 CD + 1 DVD]


Disc 10:
Rimini (1978)


Track listing

[04:09] 01. Rimini
[03:49] 02. Volta La Carta
[05:24] 03. Coda Di Lupo
[05:31] 04. Andrea
[01:52] 05. Tema Di Rimini
[04:52] 06. Avventura A Durango
[04:50] 07. Sally
[02:18] 08. Zirichiltaggia
[04:42] 09. Parlando Del Naufragio Della 'London Valour'
[03:02] 10. Folaghe

Exact Audio Copy V0.99 prebeta 5 from 4. May 2009

EAC extraction logfile from 28. December 2009, 13:24

Fabrizio De Andre' / Rimini

Used drive : PLEXTOR CD-R PREMIUM2 Adapter: 1 ID: 1

Read mode : Secure
Utilize accurate stream : Yes
Defeat audio cache : Yes
Make use of C2 pointers : No

Read offset correction : 30
Overread into Lead-In and Lead-Out : No
Fill up missing offset samples with silence : Yes
Delete leading and trailing silent blocks : No
Null samples used in CRC calculations : Yes
Used interface : Installed external ASPI interface
Gap handling : Appended to previous track

Used output format : User Defined Encoder
Selected bitrate : 32 kBit/s
Quality : High
Add ID3 tag : No
Command line compressor : C:\Programmi\FLAC\flac.exe
Additional command line options : -8 -V -T "ARTIST=%a" -T "TITLE=%t" -T "ALBUM=%g" -T "DATE=%y" -T "TRACKNUMBER=%n" -T "GENRE=%m" -T "COMMENT=EAC FLAC -8" %s


TOC of the extracted CD

Track | Start | Length | Start sector | End sector
––––––––––––––––––––––––––––-
1 | 0:00.00 | 4:09.08 | 0 | 18682
2 | 4:09.08 | 3:49.65 | 18683 | 35922
3 | 7:58.73 | 5:24.52 | 35923 | 60274
4 | 13:23.50 | 5:31.43 | 60275 | 85142
5 | 18:55.18 | 1:52.06 | 85143 | 93548
6 | 20:47.24 | 4:52.05 | 93549 | 115453
7 | 25:39.29 | 4:50.21 | 115454 | 137224
8 | 30:29.50 | 2:18.19 | 137225 | 147593
9 | 32:47.69 | 4:42.00 | 147594 | 168743
10 | 37:29.69 | 3:02.21 | 168744 | 182414


Track 1

Filename D:\My Rip\01 - Rimini.wav

Pre-gap length 0:00:02.00

Peak level 88.8 %
Track quality 100.0 %
Test CRC A181350D
Copy CRC A181350D
Accurately ripped (confidence 3) [635A7200]
Copy OK

Track 2

Filename D:\My Rip\02 - Volta La Carta.wav

Peak level 99.5 %
Track quality 100.0 %
Test CRC 29A34B29
Copy CRC 29A34B29
Accurately ripped (confidence 3) [E64BD7B6]
Copy OK

Track 3

Filename D:\My Rip\03 - Coda Di Lupo.wav

Peak level 88.7 %
Track quality 100.0 %
Test CRC C323B5A2
Copy CRC C323B5A2
Accurately ripped (confidence 3) [60786200]
Copy OK

Track 4

Filename D:\My Rip\04 - Andrea.wav

Peak level 99.6 %
Track quality 100.0 %
Test CRC 043A882B
Copy CRC 043A882B
Accurately ripped (confidence 3) [8E8237DF]
Copy OK

Track 5

Filename D:\My Rip\05 - Tema Di Rimini.wav

Peak level 93.0 %
Track quality 100.0 %
Test CRC 9A4E30E5
Copy CRC 9A4E30E5
Accurately ripped (confidence 3) [912AD085]
Copy OK

Track 6

Filename D:\My Rip\06 - Avventura A Durango.wav

Pre-gap length 0:00:00.85

Peak level 100.0 %
Track quality 100.0 %
Test CRC 12790EB3
Copy CRC 12790EB3
Accurately ripped (confidence 3) [D878B818]
Copy OK

Track 7

Filename D:\My Rip\07 - Sally.wav

Peak level 99.6 %
Track quality 100.0 %
Test CRC FEDFD699
Copy CRC FEDFD699
Accurately ripped (confidence 3) [B5D71714]
Copy OK

Track 8

Filename D:\My Rip\08 - Zirichiltaggia.wav

Pre-gap length 0:00:01.25

Peak level 99.6 %
Track quality 100.0 %
Test CRC 10ACE882
Copy CRC 10ACE882
Accurately ripped (confidence 3) [42E318C0]
Copy OK

Track 9

Filename D:\My Rip\09 - Parlando Del Naufragio Della 'London Valour'.wav

Peak level 92.4 %
Track quality 100.0 %
Test CRC DAA29091
Copy CRC DAA29091
Accurately ripped (confidence 3) [EBF6DB2F]
Copy OK

Track 10

Filename D:\My Rip\10 - Folaghe.wav

Peak level 99.6 %
Track quality 99.9 %
Test CRC E331C544
Copy CRC E331C544
Accurately ripped (confidence 3) [B6F1A48F]
Copy OK


All tracks accurately ripped

No errors occurred

End of status report


Fabrizio De André - Opera Completa (2009) [Box 19 CD + 1 DVD]


Disc 11:
In concerto (Arrangiamenti PFM) (1979)


Track listing

[04:40] 01. Bocca Di Rosa
[05:30] 02. Andrea
[04:32] 03. Giugno '73
[03:36] 04. Un Giudice
[03:26] 05. La Guerra Di Piero
[04:16] 06. Il Pescatore
[02:36] 07. Zirichiltaggia
[04:03] 08. La Canzone Di Marinella
[04:02] 09. Volta La Carta
[09:25] 10. Amico Fragile

Exact Audio Copy V0.99 prebeta 5 from 4. May 2009

EAC extraction logfile from 28. December 2009, 22:11

Fabrizio De Andre' / In concerto (Arrangiamenti PFM)

Used drive : PLEXTOR CD-R PREMIUM2 Adapter: 1 ID: 1

Read mode : Secure
Utilize accurate stream : Yes
Defeat audio cache : Yes
Make use of C2 pointers : No

Read offset correction : 30
Overread into Lead-In and Lead-Out : No
Fill up missing offset samples with silence : Yes
Delete leading and trailing silent blocks : No
Null samples used in CRC calculations : Yes
Used interface : Installed external ASPI interface
Gap handling : Appended to previous track

Used output format : User Defined Encoder
Selected bitrate : 32 kBit/s
Quality : High
Add ID3 tag : No
Command line compressor : C:\Programmi\FLAC\flac.exe
Additional command line options : -8 -V -T "ARTIST=%a" -T "TITLE=%t" -T "ALBUM=%g" -T "DATE=%y" -T "TRACKNUMBER=%n" -T "GENRE=%m" -T "COMMENT=EAC FLAC -8" %s


TOC of the extracted CD

Track | Start | Length | Start sector | End sector
––––––––––––––––––––––––––––-
1 | 0:00.00 | 4:40.34 | 0 | 21033
2 | 4:40.34 | 5:30.04 | 21034 | 45787
3 | 10:10.38 | 4:32.09 | 45788 | 66196
4 | 14:42.47 | 3:36.62 | 66197 | 82458
5 | 18:19.34 | 3:26.25 | 82459 | 97933
6 | 21:45.59 | 4:16.27 | 97934 | 117160
7 | 26:02.11 | 2:36.24 | 117161 | 128884
8 | 28:38.35 | 4:03.72 | 128885 | 147181
9 | 32:42.32 | 4:02.59 | 147182 | 165390
10 | 36:45.16 | 9:25.54 | 165391 | 207819


Track 1

Filename D:\My Rip\01 - Bocca Di Rosa.wav

Pre-gap length 0:00:02.00

Peak level 99.8 %
Track quality 100.0 %
Test CRC E3252E81
Copy CRC E3252E81
Cannot be verified as accurate (confidence 2) [028B0325], AccurateRip returned [DF2269B4]
Copy OK

Track 2

Filename D:\My Rip\02 - Andrea.wav

Peak level 99.8 %
Track quality 99.9 %
Test CRC 9F731502
Copy CRC 9F731502
Cannot be verified as accurate (confidence 2) [B421CACC], AccurateRip returned [2ED9D09C]
Copy OK

Track 3

Filename D:\My Rip\03 - Giugno '73.wav

Peak level 97.3 %
Track quality 100.0 %
Test CRC 2E2554E3
Copy CRC 2E2554E3
Cannot be verified as accurate (confidence 2) [B1284918], AccurateRip returned [EF573FA3]
Copy OK

Track 4

Filename D:\My Rip\04 - Un Giudice.wav

Peak level 99.9 %
Track quality 99.9 %
Test CRC 32FD8EAC
Copy CRC 32FD8EAC
Cannot be verified as accurate (confidence 2) [88A9F625], AccurateRip returned [F38BCB35]
Copy OK

Track 5

Filename D:\My Rip\05 - La Guerra Di Piero.wav

Peak level 99.8 %
Track quality 100.0 %
Test CRC 91EE740A
Copy CRC 91EE740A
Cannot be verified as accurate (confidence 2) [DCE6F358], AccurateRip returned [97DBF372]
Copy OK

Track 6

Filename D:\My Rip\06 - Il Pescatore.wav

Peak level 99.8 %
Track quality 99.9 %
Test CRC 74BCA75A
Copy CRC 74BCA75A
Cannot be verified as accurate (confidence 2) [914C48E1], AccurateRip returned [DE6A6CC7]
Copy OK

Track 7

Filename D:\My Rip\07 - Zirichiltaggia.wav

Peak level 99.8 %
Track quality 100.0 %
Test CRC 1281D32F
Copy CRC 1281D32F
Cannot be verified as accurate (confidence 2) [79B0D05C], AccurateRip returned [813DD7A1]
Copy OK

Track 8

Filename D:\My Rip\08 - La Canzone Di Marinella.wav

Peak level 87.0 %
Track quality 100.0 %
Test CRC 654984C8
Copy CRC 654984C8
Cannot be verified as accurate (confidence 2) [73A1AF6E], AccurateRip returned [6031BACB]
Copy OK

Track 9

Filename D:\My Rip\09 - Volta La Carta.wav

Peak level 96.8 %
Track quality 100.0 %
Test CRC 05ACCBDB
Copy CRC 05ACCBDB
Cannot be verified as accurate (confidence 2) [C15F3BCD], AccurateRip returned [0D1AF617]
Copy OK

Track 10

Filename D:\My Rip\10 - Amico Fragile.wav

Peak level 99.8 %
Track quality 100.0 %
Test CRC AB525B0F
Copy CRC AB525B0F
Cannot be verified as accurate (confidence 2) [5CE70724], AccurateRip returned [72762D66]
Copy OK


No tracks could be verified as accurate
You may have a different pressing from the one(s) in the database

No errors occurred

End of status report


Fabrizio De André - Opera Completa (2009) [Box 19 CD + 1 DVD]


Disc 12:
In concerto (Arrangiamenti PFM - Vol. 2) (1980)


Track listing

[05:31] 01. Avventura A Durango
[03:33] 02. Presentazione
[05:06] 03. Sally
[05:09] 04. Verranno A Chiederti Del Nostro Amore
[05:07] 05. Rimini
[02:45] 06. Via Del Campo
[04:08] 07. Maria Nella Bottega Del Falegname
[06:59] 08. Il Testamento Di Tito

Exact Audio Copy V0.99 prebeta 5 from 4. May 2009

EAC extraction logfile from 28. December 2009, 14:52

Fabrizio De Andre' / In concerto (Arrangiamenti PFM Vol 2)

Used drive : PLEXTOR CD-R PREMIUM2 Adapter: 1 ID: 1

Read mode : Secure
Utilize accurate stream : Yes
Defeat audio cache : Yes
Make use of C2 pointers : No

Read offset correction : 30
Overread into Lead-In and Lead-Out : No
Fill up missing offset samples with silence : Yes
Delete leading and trailing silent blocks : No
Null samples used in CRC calculations : Yes
Used interface : Installed external ASPI interface
Gap handling : Appended to previous track

Used output format : User Defined Encoder
Selected bitrate : 32 kBit/s
Quality : High
Add ID3 tag : No
Command line compressor : C:\Programmi\FLAC\flac.exe
Additional command line options : -8 -V -T "ARTIST=%a" -T "TITLE=%t" -T "ALBUM=%g" -T "DATE=%y" -T "TRACKNUMBER=%n" -T "GENRE=%m" -T "COMMENT=EAC FLAC -8" %s


TOC of the extracted CD

Track | Start | Length | Start sector | End sector
––––––––––––––––––––––––––––-
1 | 0:00.00 | 5:31.59 | 0 | 24883
2 | 5:31.59 | 3:33.50 | 24884 | 40908
3 | 9:05.34 | 5:06.66 | 40909 | 63924
4 | 14:12.25 | 5:09.16 | 63925 | 87115
5 | 19:21.41 | 5:07.18 | 87116 | 110158
6 | 24:28.59 | 2:45.58 | 110159 | 122591
7 | 27:14.42 | 4:08.33 | 122592 | 141224
8 | 31:23.00 | 6:59.54 | 141225 | 172703


Track 1

Filename D:\My Rip\01 - Avventura A Durango.wav

Pre-gap length 0:00:02.00

Peak level 99.5 %
Track quality 100.0 %
Test CRC ECE7AC8B
Copy CRC ECE7AC8B
Cannot be verified as accurate (confidence 2) [1270F2A9], AccurateRip returned [0EA93F49]
Copy OK

Track 2

Filename D:\My Rip\02 - Presentazione.wav

Peak level 81.1 %
Track quality 100.0 %
Test CRC 59739348
Copy CRC 59739348
Cannot be verified as accurate (confidence 2) [809895C0], AccurateRip returned [4A1AD839]
Copy OK

Track 3

Filename D:\My Rip\03 - Sally.wav

Peak level 99.5 %
Track quality 100.0 %
Test CRC F55437AA
Copy CRC F55437AA
Cannot be verified as accurate (confidence 2) [D5516592], AccurateRip returned [DC6D865B]
Copy OK

Track 4

Filename D:\My Rip\04 - Verranno A Chiederti Del Nostro Amore.wav

Peak level 99.8 %
Track quality 100.0 %
Test CRC D284A7BC
Copy CRC D284A7BC
Cannot be verified as accurate (confidence 2) [C5EDA87D], AccurateRip returned [938C079B]
Copy OK

Track 5

Filename D:\My Rip\05 - Rimini.wav

Peak level 99.5 %
Track quality 100.0 %
Test CRC 84B46101
Copy CRC 84B46101
Cannot be verified as accurate (confidence 2) [97CF3B5F], AccurateRip returned [5C988343]
Copy OK

Track 6

Filename D:\My Rip\06 - Via Del Campo.wav

Peak level 96.1 %
Track quality 100.0 %
Test CRC 290CE62B
Copy CRC 290CE62B
Cannot be verified as accurate (confidence 2) [3295F3E8], AccurateRip returned [69ED689E]
Copy OK

Track 7

Filename D:\My Rip\07 - Maria Nella Bottega Del Falegname.wav

Peak level 99.5 %
Track quality 100.0 %
Test CRC D58254C8
Copy CRC D58254C8
Cannot be verified as accurate (confidence 2) [AB5B629E], AccurateRip returned [72BB09BA]
Copy OK

Track 8

Filename D:\My Rip\08 - Il Testamento Di Tito.wav

Peak level 88.7 %
Track quality 99.9 %
Test CRC C4F0E832
Copy CRC C4F0E832
Cannot be verified as accurate (confidence 2) [5A3BBB27], AccurateRip returned [7CBFEE05]
Copy OK


No tracks could be verified as accurate
You may have a different pressing from the one(s) in the database

No errors occurred

End of status report


Fabrizio De André - Opera Completa (2009) [Box 19 CD + 1 DVD]


Disc 13:
Indiano (1981)


Track listing

[05:51] 01. Quello Che Non Ho
[03:13] 02. Canto Del Servo Pastore
[05:37] 03. Fiume Sand Creek
[05:30] 04. Ave Maria
[04:32] 05. Hotel Supramonte
[05:30] 06. Franziska
[05:00] 07. Se Ti Tagliassero A Pezzetti
[05:18] 08. Verdi Pascoli

Exact Audio Copy V0.99 prebeta 5 from 4. May 2009

EAC extraction logfile from 28. December 2009, 23:00

Fabrizio De Andre' / Indiano

Used drive : PLEXTOR CD-R PREMIUM2 Adapter: 1 ID: 1

Read mode : Secure
Utilize accurate stream : Yes
Defeat audio cache : Yes
Make use of C2 pointers : No

Read offset correction : 30
Overread into Lead-In and Lead-Out : No
Fill up missing offset samples with silence : Yes
Delete leading and trailing silent blocks : No
Null samples used in CRC calculations : Yes
Used interface : Installed external ASPI interface
Gap handling : Appended to previous track

Used output format : User Defined Encoder
Selected bitrate : 32 kBit/s
Quality : High
Add ID3 tag : No
Command line compressor : C:\Programmi\FLAC\flac.exe
Additional command line options : -8 -V -T "ARTIST=%a" -T "TITLE=%t" -T "ALBUM=%g" -T "DATE=%y" -T "TRACKNUMBER=%n" -T "GENRE=%m" -T "COMMENT=EAC FLAC -8" %s


TOC of the extracted CD

Track | Start | Length | Start sector | End sector
––––––––––––––––––––––––––––-
1 | 0:00.00 | 5:51.51 | 0 | 26375
2 | 5:51.51 | 3:13.06 | 26376 | 40856
3 | 9:04.57 | 5:37.12 | 40857 | 66143
4 | 14:41.69 | 5:30.13 | 66144 | 90906
5 | 20:12.07 | 4:32.38 | 90907 | 111344
6 | 24:44.45 | 5:30.57 | 111345 | 136151
7 | 30:15.27 | 5:00.04 | 136152 | 158655
8 | 35:15.31 | 5:18.37 | 158656 | 182542


Track 1

Filename D:\My Rip\01 - Quello Che Non Ho.wav

Pre-gap length 0:00:02.00

Peak level 99.9 %
Track quality 100.0 %
Test CRC 406DD754
Copy CRC 406DD754
Accurately ripped (confidence 3) [852719BD]
Copy OK

Track 2

Filename D:\My Rip\02 - Canto Del Servo Pastore.wav

Peak level 99.8 %
Track quality 100.0 %
Test CRC 898C1874
Copy CRC 898C1874
Accurately ripped (confidence 3) [4D870F0C]
Copy OK

Track 3

Filename D:\My Rip\03 - Fiume Sand Creek.wav

Peak level 99.8 %
Track quality 100.0 %
Test CRC 8A782796
Copy CRC 8A782796
Accurately ripped (confidence 3) [C6BADAD0]
Copy OK

Track 4

Filename D:\My Rip\04 - Ave Maria.wav

Peak level 99.9 %
Track quality 100.0 %
Test CRC 22678EE8
Copy CRC 22678EE8
Accurately ripped (confidence 3) [0815C53C]
Copy OK

Track 5

Filename D:\My Rip\05 - Hotel Supramonte.wav

Pre-gap length 0:00:02.76

Peak level 84.0 %
Track quality 100.0 %
Test CRC F7F06AE0
Copy CRC F7F06AE0
Accurately ripped (confidence 3) [E2D6B98F]
Copy OK

Track 6

Filename D:\My Rip\06 - Franziska.wav

Peak level 99.9 %
Track quality 100.0 %
Test CRC 165EAD7A
Copy CRC 165EAD7A
Accurately ripped (confidence 3) [54B1E326]
Copy OK

Track 7

Filename D:\My Rip\07 - Se Ti Tagliassero A Pezzetti.wav

Peak level 99.8 %
Track quality 100.0 %
Test CRC AFCAC696
Copy CRC AFCAC696
Accurately ripped (confidence 3) [BBEFBB12]
Copy OK

Track 8

Filename D:\My Rip\08 - Verdi Pascoli.wav

Peak level 99.9 %
Track quality 100.0 %
Test CRC 4A2F9F31
Copy CRC 4A2F9F31
Accurately ripped (confidence 3) [5931C157]
Copy OK


All tracks accurately ripped

No errors occurred

End of status report


Fabrizio De André - Opera Completa (2009) [Box 19 CD + 1 DVD]


Disc 14:
Creuza De Ma (1984)


Track listing

[06:16] 01. Creuza De Ma
[04:52] 02. Jamin-A
[06:25] 03. Sidun
[05:32] 04. Sinan Capudan Pascia
[03:43] 05. A Pittima
[03:40] 06. A Dumenega
[03:04] 07. D'a Me Riva

Exact Audio Copy V0.99 prebeta 5 from 4. May 2009

EAC extraction logfile from 28. December 2009, 23:35

Fabrizio De Andre' / Creuza De Ma

Used drive : PLEXTOR CD-R PREMIUM2 Adapter: 1 ID: 1

Read mode : Secure
Utilize accurate stream : Yes
Defeat audio cache : Yes
Make use of C2 pointers : No

Read offset correction : 30
Overread into Lead-In and Lead-Out : No
Fill up missing offset samples with silence : Yes
Delete leading and trailing silent blocks : No
Null samples used in CRC calculations : Yes
Used interface : Installed external ASPI interface
Gap handling : Appended to previous track

Used output format : User Defined Encoder
Selected bitrate : 32 kBit/s
Quality : High
Add ID3 tag : No
Command line compressor : C:\Programmi\FLAC\flac.exe
Additional command line options : -8 -V -T "ARTIST=%a" -T "TITLE=%t" -T "ALBUM=%g" -T "DATE=%y" -T "TRACKNUMBER=%n" -T "GENRE=%m" -T "COMMENT=EAC FLAC -8" %s


TOC of the extracted CD

Track | Start | Length | Start sector | End sector
––––––––––––––––––––––––––––-
1 | 0:00.00 | 6:16.50 | 0 | 28249
2 | 6:16.50 | 4:52.19 | 28250 | 50168
3 | 11:08.69 | 6:25.17 | 50169 | 79060
4 | 17:34.11 | 5:32.65 | 79061 | 104025
5 | 23:07.01 | 3:43.70 | 104026 | 120820
6 | 26:50.71 | 3:40.57 | 120821 | 137377
7 | 30:31.53 | 3:04.61 | 137378 | 151238


Track 1

Filename D:\My Rip\01 - Creuza De Ma.wav

Pre-gap length 0:00:02.00

Peak level 98.8 %
Track quality 100.0 %
Test CRC CD29D6BD
Copy CRC CD29D6BD
Accurately ripped (confidence 4) [8A06431E]
Copy OK

Track 2

Filename D:\My Rip\02 - Jamin-A.wav

Peak level 99.8 %
Track quality 100.0 %
Test CRC CE255B00
Copy CRC CE255B00
Accurately ripped (confidence 4) [C781AABA]
Copy OK

Track 3

Filename D:\My Rip\03 - Sidun.wav

Peak level 99.9 %
Track quality 100.0 %
Test CRC 76098E4F
Copy CRC 76098E4F
Accurately ripped (confidence 4) [384011CD]
Copy OK

Track 4

Filename D:\My Rip\04 - Sinan Capudan Pascia.wav

Pre-gap length 0:00:03.57

Peak level 99.9 %
Track quality 100.0 %
Test CRC F3A1BB21
Copy CRC F3A1BB21
Accurately ripped (confidence 4) [3DA485C7]
Copy OK

Track 5

Filename D:\My Rip\05 - A Pittima.wav

Peak level 99.9 %
Track quality 100.0 %
Test CRC D6DD7D42
Copy CRC D6DD7D42
Accurately ripped (confidence 4) [9048376C]
Copy OK

Track 6

Filename D:\My Rip\06 - A Dumenega.wav

Pre-gap length 0:00:01.32

Peak level 99.9 %
Track quality 100.0 %
Test CRC F18033E8
Copy CRC F18033E8
Accurately ripped (confidence 4) [FC62043C]
Copy OK

Track 7

Filename D:\My Rip\07 - D'a Me Riva.wav

Peak level 75.1 %
Track quality 100.0 %
Test CRC C135B86D
Copy CRC C135B86D
Accurately ripped (confidence 4) [0B833036]
Copy OK


All tracks accurately ripped

No errors occurred

End of status report


Fabrizio De André - Opera Completa (2009) [Box 19 CD + 1 DVD]


Disc 15:
Le Nuvole (1990)


Track listing

[02:16] 01. Le Nuvole
[04:56] 02. Ottocento
[04:08] 03. Don Raffae'
[07:35] 04. La Domenica Delle Salme
[05:21] 05. Megu Megun
[03:04] 06. La Nova Gelosia
[06:18] 07. 'A Cimma
[07:45] 08. Monti Di Mola

Exact Audio Copy V0.99 prebeta 5 from 4. May 2009

EAC extraction logfile from 29. December 2009, 1:03

Fabrizio De Andre' / Le Nuvole

Used drive : PLEXTOR CD-R PREMIUM2 Adapter: 1 ID: 1

Read mode : Secure
Utilize accurate stream : Yes
Defeat audio cache : Yes
Make use of C2 pointers : No

Read offset correction : 30
Overread into Lead-In and Lead-Out : No
Fill up missing offset samples with silence : Yes
Delete leading and trailing silent blocks : No
Null samples used in CRC calculations : Yes
Used interface : Installed external ASPI interface
Gap handling : Appended to previous track

Used output format : User Defined Encoder
Selected bitrate : 32 kBit/s
Quality : High
Add ID3 tag : No
Command line compressor : C:\Programmi\FLAC\flac.exe
Additional command line options : -8 -V -T "ARTIST=%a" -T "TITLE=%t" -T "ALBUM=%g" -T "DATE=%y" -T "TRACKNUMBER=%n" -T "GENRE=%m" -T "COMMENT=EAC FLAC -8" %s


TOC of the extracted CD

Track | Start | Length | Start sector | End sector
––––––––––––––––––––––––––––-
1 | 0:00.00 | 2:16.72 | 0 | 10271
2 | 2:16.72 | 4:56.12 | 10272 | 32483
3 | 7:13.09 | 4:08.49 | 32484 | 51132
4 | 11:21.58 | 7:35.72 | 51133 | 85329
5 | 18:57.55 | 5:21.64 | 85330 | 109468
6 | 24:19.44 | 3:04.56 | 109469 | 123324
7 | 27:24.25 | 6:18.09 | 123325 | 151683
8 | 33:42.34 | 7:45.72 | 151684 | 186630


Track 1

Filename D:\My Rip\01 - Le Nuvole.wav

Pre-gap length 0:00:02.00

Peak level 94.1 %
Track quality 100.0 %
Test CRC 59546575
Copy CRC 59546575
Accurately ripped (confidence 5) [49890A6A]
Copy OK

Track 2

Filename D:\My Rip\02 - Ottocento.wav

Peak level 99.6 %
Track quality 100.0 %
Test CRC 91AC6371
Copy CRC 91AC6371
Accurately ripped (confidence 5) [98D38CA7]
Copy OK

Track 3

Filename D:\My Rip\03 - Don Raffae'.wav

Peak level 82.9 %
Track quality 100.0 %
Test CRC BE05EB56
Copy CRC BE05EB56
Accurately ripped (confidence 5) [090BE271]
Copy OK

Track 4

Filename D:\My Rip\04 - La Domenica Delle Salme.wav

Peak level 99.6 %
Track quality 100.0 %
Test CRC C31248F0
Copy CRC C31248F0
Accurately ripped (confidence 5) [D888DE3D]
Copy OK

Track 5

Filename D:\My Rip\05 - Megu Megun.wav

Peak level 99.6 %
Track quality 100.0 %
Test CRC 7F29E271
Copy CRC 7F29E271
Accurately ripped (confidence 5) [A2D61436]
Copy OK

Track 6

Filename D:\My Rip\06 - La Nova Gelosia.wav

Peak level 72.1 %
Track quality 100.0 %
Test CRC D267420F
Copy CRC D267420F
Accurately ripped (confidence 5) [D40AAAE9]
Copy OK

Track 7

Filename D:\My Rip\07 - 'A Cimma.wav

Peak level 99.6 %
Track quality 99.7 %
Test CRC DBA03E1D
Copy CRC DBA03E1D
Accurately ripped (confidence 5) [F41B67AA]
Copy OK

Track 8

Filename D:\My Rip\08 - Monti Di Mola.wav

Peak level 99.6 %
Track quality 99.8 %
Test CRC 5CF829A2
Copy CRC 5CF829A2
Accurately ripped (confidence 5) [02A74EE1]
Copy OK


All tracks accurately ripped

No errors occurred

End of status report


Fabrizio De André - Opera Completa (2009) [Box 19 CD + 1 DVD]


Disc 16:
1991 Concerti [CD1] (1991)


Track listing

[05:11] 01. Don Raffae'
[06:02] 02. La Domenica Delle Salme
[05:08] 03. Fiume Sand Creek
[04:31] 04. Hotel Supramonte
[04:08] 05. Se Ti Tagliassero A Pezzetti
[04:23] 06. Il Gorilla
[03:44] 07. La Canzone Dell'amore Perduto
[06:50] 08. Il Testamento Di Tito
[03:40] 09. La Canzone Di Marinella

Exact Audio Copy V0.99 prebeta 5 from 4. May 2009

EAC extraction logfile from 29. December 2009, 1:26

Fabrizio De Andre' / Concerti Cd1

Used drive : PLEXTOR CD-R PREMIUM2 Adapter: 1 ID: 1

Read mode : Secure
Utilize accurate stream : Yes
Defeat audio cache : Yes
Make use of C2 pointers : No

Read offset correction : 30
Overread into Lead-In and Lead-Out : No
Fill up missing offset samples with silence : Yes
Delete leading and trailing silent blocks : No
Null samples used in CRC calculations : Yes
Used interface : Installed external ASPI interface
Gap handling : Appended to previous track

Used output format : User Defined Encoder
Selected bitrate : 32 kBit/s
Quality : High
Add ID3 tag : No
Command line compressor : C:\Programmi\FLAC\flac.exe
Additional command line options : -8 -V -T "ARTIST=%a" -T "TITLE=%t" -T "ALBUM=%g" -T "DATE=%y" -T "TRACKNUMBER=%n" -T "GENRE=%m" -T "COMMENT=EAC FLAC -8" %s


TOC of the extracted CD

Track | Start | Length | Start sector | End sector
––––––––––––––––––––––––––––-
1 | 0:00.00 | 5:11.72 | 0 | 23396
2 | 5:11.72 | 6:02.08 | 23397 | 50554
3 | 11:14.05 | 5:08.01 | 50555 | 73655
4 | 16:22.06 | 4:31.12 | 73656 | 93992
5 | 20:53.18 | 4:08.61 | 93993 | 112653
6 | 25:02.04 | 4:23.49 | 112654 | 132427
7 | 29:25.53 | 3:44.21 | 132428 | 149248
8 | 33:09.74 | 6:50.53 | 149249 | 180051
9 | 40:00.52 | 3:40.71 | 180052 | 196622


Track 1

Filename D:\My Rip\01 - Don Raffae'.wav

Pre-gap length 0:00:02.00

Peak level 99.7 %
Track quality 100.0 %
Test CRC 9F1F9105
Copy CRC 9F1F9105
Track not present in AccurateRip database
Copy OK

Track 2

Filename D:\My Rip\02 - La Domenica Delle Salme.wav

Peak level 90.3 %
Track quality 100.0 %
Test CRC 0A13F62A
Copy CRC 0A13F62A
Track not present in AccurateRip database
Copy OK

Track 3

Filename D:\My Rip\03 - Fiume Sand Creek.wav

Peak level 99.7 %
Track quality 100.0 %
Test CRC 3D0D9E62
Copy CRC 3D0D9E62
Track not present in AccurateRip database
Copy OK

Track 4

Filename D:\My Rip\04 - Hotel Supramonte.wav

Peak level 91.4 %
Track quality 100.0 %
Test CRC 9D5815D2
Copy CRC 9D5815D2
Track not present in AccurateRip database
Copy OK

Track 5

Filename D:\My Rip\05 - Se Ti Tagliassero A Pezzetti.wav

Peak level 99.7 %
Track quality 100.0 %
Test CRC 59606478
Copy CRC 59606478
Track not present in AccurateRip database
Copy OK

Track 6

Filename D:\My Rip\06 - Il Gorilla.wav

Peak level 99.7 %
Track quality 99.9 %
Test CRC E325D5FC
Copy CRC E325D5FC
Track not present in AccurateRip database
Copy OK

Track 7

Filename D:\My Rip\07 - La Canzone Dell'amore Perduto.wav

Peak level 94.2 %
Track quality 100.0 %
Test CRC 0F12EF5D
Copy CRC 0F12EF5D
Track not present in AccurateRip database
Copy OK

Track 8

Filename D:\My Rip\08 - Il Testamento Di Tito.wav

Peak level 99.7 %
Track quality 100.0 %
Test CRC 9BFC1CD3
Copy CRC 9BFC1CD3
Track not present in AccurateRip database
Copy OK

Track 9

Filename D:\My Rip\09 - La Canzone Di Marinella.wav

Peak level 99.7 %
Track quality 100.0 %
Test CRC 1631DEA3
Copy CRC 1631DEA3
Track not present in AccurateRip database
Copy OK


None of the tracks are present in the AccurateRip database

No errors occurred

End of status report


Fabrizio De André - Opera Completa (2009) [Box 19 CD + 1 DVD]


Disc 17:
1991 Concerti [CD2] (1991)


Track listing

[06:43] 01. Creuza De Ma
[04:19] 02. Jamin-A
[05:57] 03. Sidun
[05:29] 04. Megu Megun
[03:02] 05. A Pittima
[04:15] 06. A Dumenega
[05:51] 07. A Cimma
[05:24] 08. Sinan Capudan Pascia
[02:24] 09. Le Nuvole

Exact Audio Copy V0.99 prebeta 5 from 4. May 2009

EAC extraction logfile from 29. December 2009, 1:45

Fabrizio De Andre' / Concerti Cd2

Used drive : PLEXTOR CD-R PREMIUM2 Adapter: 1 ID: 1

Read mode : Secure
Utilize accurate stream : Yes
Defeat audio cache : Yes
Make use of C2 pointers : No

Read offset correction : 30
Overread into Lead-In and Lead-Out : No
Fill up missing offset samples with silence : Yes
Delete leading and trailing silent blocks : No
Null samples used in CRC calculations : Yes
Used interface : Installed external ASPI interface
Gap handling : Appended to previous track

Used output format : User Defined Encoder
Selected bitrate : 32 kBit/s
Quality : High
Add ID3 tag : No
Command line compressor : C:\Programmi\FLAC\flac.exe
Additional command line options : -8 -V -T "ARTIST=%a" -T "TITLE=%t" -T "ALBUM=%g" -T "DATE=%y" -T "TRACKNUMBER=%n" -T "GENRE=%m" -T "COMMENT=EAC FLAC -8" %s


TOC of the extracted CD

Track | Start | Length | Start sector | End sector
––––––––––––––––––––––––––––-
1 | 0:00.00 | 6:43.15 | 0 | 30239
2 | 6:43.15 | 4:19.19 | 30240 | 49683
3 | 11:02.34 | 5:57.56 | 49684 | 76514
4 | 17:00.15 | 5:29.54 | 76515 | 101243
5 | 22:29.69 | 3:02.17 | 101244 | 114910
6 | 25:32.11 | 4:15.14 | 114911 | 134049
7 | 29:47.25 | 5:51.43 | 134050 | 160417
8 | 35:38.68 | 5:24.35 | 160418 | 184752
9 | 41:03.28 | 2:24.59 | 184753 | 195611


Track 1

Filename D:\My Rip\01 - Creuza De Ma.wav

Pre-gap length 0:00:02.00

Peak level 99.7 %
Track quality 100.0 %
Test CRC 44F742B7
Copy CRC 44F742B7
Cannot be verified as accurate (confidence 2) [3916F69B], AccurateRip returned [C6DD787C]
Copy OK

Track 2

Filename D:\My Rip\02 - Jamin-A.wav

Peak level 99.7 %
Track quality 100.0 %
Test CRC 771DC567
Copy CRC 771DC567
Track not present in AccurateRip database
Copy OK

Track 3

Filename D:\My Rip\03 - Sidun.wav

Peak level 99.7 %
Track quality 100.0 %
Test CRC 2FD7F3C0
Copy CRC 2FD7F3C0
Track not present in AccurateRip database
Copy OK

Track 4

Filename D:\My Rip\04 - Megu Megun.wav

Peak level 99.7 %
Track quality 99.9 %
Test CRC 906E04CA
Copy CRC 906E04CA
Track not present in AccurateRip database
Copy OK

Track 5

Filename D:\My Rip\05 - A Pittima.wav

Peak level 99.7 %
Track quality 100.0 %
Test CRC 88F5B4E0
Copy CRC 88F5B4E0
Track not present in AccurateRip database
Copy OK

Track 6

Filename D:\My Rip\06 - A Dumenega.wav

Peak level 99.7 %
Track quality 100.0 %
Test CRC AA0B11FD
Copy CRC AA0B11FD
Track not present in AccurateRip database
Copy OK

Track 7

Filename D:\My Rip\07 - A Cimma.wav

Peak level 99.7 %
Track quality 100.0 %
Test CRC 73CF4152
Copy CRC 73CF4152
Track not present in AccurateRip database
Copy OK

Track 8

Filename D:\My Rip\08 - Sinan Capudan Pascia.wav

Peak level 99.7 %
Track quality 100.0 %
Test CRC 49DC4C70
Copy CRC 49DC4C70
Track not present in AccurateRip database
Copy OK

Track 9

Filename D:\My Rip\09 - Le Nuvole.wav

Peak level 99.7 %
Track quality 99.9 %
Test CRC DAEC3089
Copy CRC DAEC3089
Track not present in AccurateRip database
Copy OK


1 track(s) could not be verified as accurate
8 track(s) not present in the AccurateRip database

No tracks could be verified as accurate
You may have a different pressing from the one(s) in the database

No errors occurred

End of status report


Fabrizio De André - Opera Completa (2009) [Box 19 CD + 1 DVD]


Disc 18:
Anime Salve (1996)


Track listing

[04:52] 01. Princesa
[05:32] 02. Khorakhane (A Forza Di Essere Vento)
[05:52] 03. Anime Salve
[04:59] 04. Dolcenera
[04:47] 05. Le Acciughe Fanno Il Pallone
[05:13] 06. Disamistade
[04:03] 07. A Cumba
[03:58] 08. Ho Visto Nina Volare
[07:06] 09. Smisurata Preghiera

Exact Audio Copy V0.99 prebeta 5 from 4. May 2009

EAC extraction logfile from 29. December 2009, 14:43

Fabrizio De Andre' / Anime Salve

Used drive : PLEXTOR CD-R PREMIUM2 Adapter: 1 ID: 1

Read mode : Secure
Utilize accurate stream : Yes
Defeat audio cache : Yes
Make use of C2 pointers : No

Read offset correction : 30
Overread into Lead-In and Lead-Out : No
Fill up missing offset samples with silence : Yes
Delete leading and trailing silent blocks : No
Null samples used in CRC calculations : Yes
Used interface : Installed external ASPI interface
Gap handling : Appended to previous track

Used output format : User Defined Encoder
Selected bitrate : 32 kBit/s
Quality : High
Add ID3 tag : No
Command line compressor : C:\Programmi\FLAC\flac.exe
Additional command line options : -8 -V -T "ARTIST=%a" -T "TITLE=%t" -T "ALBUM=%g" -T "DATE=%y" -T "TRACKNUMBER=%n" -T "GENRE=%m" -T "COMMENT=EAC FLAC -8" %s


TOC of the extracted CD

Track | Start | Length | Start sector | End sector
––––––––––––––––––––––––––––-
1 | 0:00.00 | 4:52.29 | 0 | 21928
2 | 4:52.29 | 5:32.47 | 21929 | 46875
3 | 10:25.01 | 5:52.12 | 46876 | 73287
4 | 16:17.13 | 4:59.73 | 73288 | 95785
5 | 21:17.11 | 4:47.05 | 95786 | 117315
6 | 26:04.16 | 5:13.11 | 117316 | 140801
7 | 31:17.27 | 4:03.53 | 140802 | 159079
8 | 35:21.05 | 3:58.16 | 159080 | 176945
9 | 39:19.21 | 7:06.00 | 176946 | 208895


Track 1

Filename D:\My Rip\01 - Princesa.wav

Pre-gap length 0:00:02.00

Peak level 96.1 %
Track quality 100.0 %
Test CRC 36639901
Copy CRC 36639901
Accurately ripped (confidence 5) [BC8C859E]
Copy OK

Track 2

Filename D:\My Rip\02 - Khorakhane (A Forza Di Essere Vento).wav

Pre-gap length 0:00:01.93

Peak level 96.1 %
Track quality 100.0 %
Test CRC 9D3C119A
Copy CRC 9D3C119A
Accurately ripped (confidence 5) [BEE2FF2E]
Copy OK

Track 3

Filename D:\My Rip\03 - Anime Salve.wav

Pre-gap length 0:00:04.06

Peak level 96.1 %
Track quality 100.0 %
Test CRC E652AB2B
Copy CRC E652AB2B
Accurately ripped (confidence 5) [49272E4C]
Copy OK

Track 4

Filename D:\My Rip\04 - Dolcenera.wav

Pre-gap length 0:00:02.96

Peak level 96.1 %
Track quality 100.0 %
Test CRC 81B4C259
Copy CRC 81B4C259
Accurately ripped (confidence 5) [0CBBD8FA]
Copy OK

Track 5

Filename D:\My Rip\05 - Le Acciughe Fanno Il Pallone.wav

Pre-gap length 0:00:02.18

Peak level 96.1 %
Track quality 100.0 %
Test CRC 00FB8EC7
Copy CRC 00FB8EC7
Accurately ripped (confidence 5) [D23B740F]
Copy OK

Track 6

Filename D:\My Rip\06 - Disamistade.wav

Pre-gap length 0:00:03.14

Peak level 96.1 %
Track quality 99.9 %
Test CRC 3F2BD5DA
Copy CRC 3F2BD5DA
Accurately ripped (confidence 5) [A9D1294D]
Copy OK

Track 7

Filename D:\My Rip\07 - A Cumba.wav

Pre-gap length 0:00:02.30

Peak level 96.1 %
Track quality 100.0 %
Test CRC 0B4255D1
Copy CRC 0B4255D1
Accurately ripped (confidence 5) [4F912F4F]
Copy OK

Track 8

Filename D:\My Rip\08 - Ho Visto Nina Volare.wav

Peak level 96.1 %
Track quality 100.0 %
Test CRC 6C85ED01
Copy CRC 6C85ED01
Accurately ripped (confidence 5) [3F32C8BC]
Copy OK

Track 9

Filename D:\My Rip\09 - Smisurata Preghiera.wav

Pre-gap length 0:00:02.86

Peak level 96.1 %
Track quality 100.0 %
Test CRC 540296E1
Copy CRC 540296E1
Accurately ripped (confidence 5) [FBEF72E8]
Copy OK


All tracks accurately ripped

No errors occurred

End of status report


Fabrizio De André - Opera Completa (2009) [Box 19 CD + 1 DVD]


Disc 19:
Fabrizio De Andre…Da Genova (2000)


Track listing

[04:25] 01. Il Suonatore Jones
[04:12] 02. Ottocento
[06:02] 03. Andrea
[04:19] 04. Verranno A Chiederti Del Nostro Amore
[05:20] 05. Canzone Per L'estate
[04:33] 06. Hotel Supramonte
[04:09] 07. Don Raffae'
[02:48] 08. Amore Che Vieni Amore Che Vai
[03:26] 09. Suzanne
[02:51] 10. La Ballata Del Miche'
[04:08] 11. Canzone Del Maggio
[03:02] 12. La Guerra Di Piero
[03:06] 13. Girotondo
[05:51] 14. Anime Salve

Exact Audio Copy V0.99 prebeta 5 from 4. May 2009

EAC extraction logfile from 29. December 2009, 15:18

Fabrizio De Andre' / Da Genova

Used drive : PLEXTOR CD-R PREMIUM2 Adapter: 1 ID: 1

Read mode : Secure
Utilize accurate stream : Yes
Defeat audio cache : Yes
Make use of C2 pointers : No

Read offset correction : 30
Overread into Lead-In and Lead-Out : No
Fill up missing offset samples with silence : Yes
Delete leading and trailing silent blocks : No
Null samples used in CRC calculations : Yes
Used interface : Installed external ASPI interface
Gap handling : Appended to previous track

Used output format : User Defined Encoder
Selected bitrate : 32 kBit/s
Quality : High
Add ID3 tag : No
Command line compressor : C:\Programmi\FLAC\flac.exe
Additional command line options : -8 -V -T "ARTIST=%a" -T "TITLE=%t" -T "ALBUM=%g" -T "DATE=%y" -T "TRACKNUMBER=%n" -T "GENRE=%m" -T "COMMENT=EAC FLAC -8" %s


TOC of the extracted CD

Track | Start | Length | Start sector | End sector
––––––––––––––––––––––––––––-
1 | 0:00.00 | 4:25.25 | 0 | 19899
2 | 4:25.25 | 4:12.14 | 19900 | 38813
3 | 8:37.39 | 6:02.01 | 38814 | 65964
4 | 14:39.40 | 4:19.71 | 65965 | 85460
5 | 18:59.36 | 5:20.18 | 85461 | 109478
6 | 24:19.54 | 4:33.34 | 109479 | 129987
7 | 28:53.13 | 4:09.11 | 129988 | 148673
8 | 33:02.24 | 2:48.70 | 148674 | 161343
9 | 35:51.19 | 3:26.19 | 161344 | 176812
10 | 39:17.38 | 2:51.66 | 176813 | 189703
11 | 42:09.29 | 4:08.07 | 189704 | 208310
12 | 46:17.36 | 3:02.09 | 208311 | 221969
13 | 49:19.45 | 3:06.00 | 221970 | 235919
14 | 52:25.45 | 5:51.29 | 235920 | 262273


Track 1

Filename D:\My Rip\01 - Il Suonatore Jones.wav

Pre-gap length 0:00:02.00

Peak level 99.6 %
Track quality 99.9 %
Test CRC C3EA6269
Copy CRC C3EA6269
Cannot be verified as accurate (confidence 2) [B949A23A], AccurateRip returned [7A04B17C]
Copy OK

Track 2

Filename D:\My Rip\02 - Ottocento.wav

Peak level 99.6 %
Track quality 100.0 %
Test CRC 4AC78967
Copy CRC 4AC78967
Cannot be verified as accurate (confidence 2) [A3A5C80D], AccurateRip returned [5E1B79D3]
Copy OK

Track 3

Filename D:\My Rip\03 - Andrea.wav

Pre-gap length 0:00:01.28

Peak level 99.6 %
Track quality 100.0 %
Test CRC B89CD000
Copy CRC B89CD000
Cannot be verified as accurate (confidence 2) [ED0B2306], AccurateRip returned [8E3AF485]
Copy OK

Track 4

Filename D:\My Rip\04 - Verranno A Chiederti Del Nostro Amore.wav

Pre-gap length 0:00:00.30

Peak level 94.4 %
Track quality 100.0 %
Test CRC 4CBFFAA1
Copy CRC 4CBFFAA1
Cannot be verified as accurate (confidence 2) [8CACF48D], AccurateRip returned [D18316AA]
Copy OK

Track 5

Filename D:\My Rip\05 - Canzone Per L'estate.wav

Peak level 99.8 %
Track quality 100.0 %
Test CRC 0751AE55
Copy CRC 0751AE55
Cannot be verified as accurate (confidence 2) [259ADE12], AccurateRip returned [154C7A7A]
Copy OK

Track 6

Filename D:\My Rip\06 - Hotel Supramonte.wav

Pre-gap length 0:00:00.29

Peak level 84.0 %
Track quality 100.0 %
Test CRC 23853083
Copy CRC 23853083
Cannot be verified as accurate (confidence 2) [864A4D4E], AccurateRip returned [B8E2DAA3]
Copy OK

Track 7

Filename D:\My Rip\07 - Don Raffae'.wav

Pre-gap length 0:00:00.53

Peak level 82.8 %
Track quality 100.0 %
Test CRC E382C4B2
Copy CRC E382C4B2
Cannot be verified as accurate (confidence 2) [DCA7976A], AccurateRip returned [0A5F3D8E]
Copy OK

Track 8

Filename D:\My Rip\08 - Amore Che Vieni Amore Che Vai.wav

Pre-gap length 0:00:00.25

Peak level 89.0 %
Track quality 100.0 %
Test CRC 5D72ABFB
Copy CRC 5D72ABFB
Cannot be verified as accurate (confidence 2) [5E70EE74], AccurateRip returned [E9E62A26]
Copy OK

Track 9

Filename D:\My Rip\09 - Suzanne.wav

Pre-gap length 0:00:00.76

Peak level 89.2 %
Track quality 100.0 %
Test CRC C07CE376
Copy CRC C07CE376
Cannot be verified as accurate (confidence 2) [6BA3F496], AccurateRip returned [3354D006]
Copy OK

Track 10

Filename D:\My Rip\10 - La Ballata Del Miche'.wav

Peak level 89.0 %
Track quality 100.0 %
Test CRC 16F68A41
Copy CRC 16F68A41
Cannot be verified as accurate (confidence 2) [E8EF434A], AccurateRip returned [0D525F81]
Copy OK

Track 11

Filename D:\My Rip\11 - Canzone Del Maggio.wav

Pre-gap length 0:00:00.25

Peak level 99.7 %
Track quality 100.0 %
Test CRC 5C67FBAA
Copy CRC 5C67FBAA
Cannot be verified as accurate (confidence 2) [4DA266D4], AccurateRip returned [553E11C3]
Copy OK

Track 12

Filename D:\My Rip\12 - La Guerra Di Piero.wav

Pre-gap length 0:00:00.26

Peak level 99.8 %
Track quality 100.0 %
Test CRC CC08BF5A
Copy CRC CC08BF5A
Cannot be verified as accurate (confidence 2) [CFE771DB], AccurateRip returned [AE868C6B]
Copy OK

Track 13

Filename D:\My Rip\13 - Girotondo.wav

Pre-gap length 0:00:00.25

Peak level 99.7 %
Track quality 100.0 %
Test CRC 321C521E
Copy CRC 321C521E
Cannot be verified as accurate (confidence 2) [D3E700AB], AccurateRip returned [308C81F0]
Copy OK

Track 14

Filename D:\My Rip\14 - Anime Salve.wav

Pre-gap length 0:00:01.22

Peak level 99.6 %
Track quality 100.0 %
Test CRC EE2DD04E
Copy CRC EE2DD04E
Cannot be verified as accurate (confidence 2) [86E7A11B], AccurateRip returned [A264C96A]
Copy OK


No tracks could be verified as accurate
You may have a different pressing from the one(s) in the database

No errors occurred

End of status report


Fabrizio De André - Opera Completa (2009) [Box 19 CD + 1 DVD]
Fabrizio De André - Opera Completa (2009) [Box 19 CD + 1 DVD]


DVD:
Fabrizio De Andre In Concerto


Track listing

Primo tempo

01. Creuza de ma
02. Jamin-a
03. Sidun
04. Princesa
05. Khorakhane
06. Anime Salve
07. Dolcenera
08. Le acciughe fanno il pallone
09. Disamistade
10. A cumba
11. Ho visto Nina Volare
12. Smisurata Preghiera

Secondo tempo

01. Nel bene e nel male (Cristiano De Andre)
02. Invincibili (Cristiano De Andre)
03. L'infanzia di Maria
04. Il ritorno di Giuseppe
05. Il sogno di Maria
06. Tre Madri
07. Il testamento di Tito
08. La citta vecchia
09. Bocca di rosa
10. Amico fragile
11. Fiume Sand Creek
12. Il pescatore
13. Via del campo
14. Geordie
15. Volta la carta

Concerto integrale registrato presso il Teatro Brancaccio il 13 e 14 febbraio 1998

CONTRIBUTI SPECIALI

Fabrizio: parlando di Creuza de ma e Anime Salve
Backstage: Fabrizio, Cristiano, Luvi
La band
Discografia

; Generated by wxChecksums v1.2.0 on 2009-12-28 at 01:14:59
;
; 8421605376 01:01.14 2009-12-28 Dvd De Andre.ISO
; 8425 01:01.15 2009-12-28 Dvd De Andre.MDS
e1f9e708ba2ca71cbdfe43312166a7ea *Dvd De Andre.ISO
ea9b3a79453c785cc8ef7e1aa19c0fd9 *Dvd De Andre.MDS

Enabled regions: 1, 2, 3, 4, 5, 6, 7, 8

VTS_01 :
Play Length: 00:00:00+01:22:49+00:02:39+00:04:36+00:09:10+00:02:56+00:04:34+01:06:19+00:03:24
Video: PAL 4:3 (720x576) VBR
Audio:
Not specified, AC3, 3/2 (L,C,R,SL,SR)+LFE ch, 448 kbps, Delay 11 mSec
Not specified, AC3, 2/0 (L,R) ch, 192 kbps, Delay 11 mSec


* Menus Information *

VIDEO_TS Menu
Video:
PAL 4:3 (720x576) VBR
Audio:
Not specified (Dolby AC3, 2 ch)
English Language Unit :
Title Menu

VTS_01 Menu
Video:
PAL 4:3 (720x576) VBR
Audio:
Not specified (Dolby AC3, 2 ch)
English Language Unit :
Root Menu


Many thanks to uploader: bonzi

SEE also:
Francesco De Gregori 1972-2008 Discography [22 CD]
Lucio Battisti 2003 Discography 1969-1994
–––-
19 CD + Scans
Nitroflare
–––-
DVD
Nitroflare