Subcategories

Faces - Snakes And Ladders. The Best Of Faces (1976) [Warner-Pioneer WPCP-4040, Japan]

Posted By: v3122
Faces - Snakes And Ladders. The Best Of Faces (1976) [Warner-Pioneer WPCP-4040, Japan]

Faces - Snakes And Ladders. The Best Of Faces (1976)
EAC | Flac(Image) + Cue + Log & MP3 CBR 320Kbps
1990 | Warner-Pioneer, WPCP-4040 | ~ 297 or 117 Mb | Scans(600dpi, jpg) -> 63 Mb
Classic Rock

Snakes & Ladders is a fine 12-song overview of the Faces, containing some of the group's best songs ("Had Me a Real Good Time," "Stay With Me," "Miss Judy's Farm," "Sweet Lady Mary," "Ooh La La," "Cindy Incidentally"), along with a couple of mediocre cuts ("Pineapple and the Monkey," "Flying") and the unremarkable, single-only "Pool Hall Richard." Though it gives a sense of what made the Faces a great rock & roll band, it falls far short of being a definitive retrospective or introduction.

by Stephen Thomas Erlewine, AMG
Faces - Snakes And Ladders. The Best Of Faces (1976) [Warner-Pioneer WPCP-4040, Japan]


Faces - Snakes And Ladders. The Best Of Faces (1976):

Faces - Snakes And Ladders. The Best Of Faces (1976) [Warner-Pioneer WPCP-4040, Japan]

Tracklist:

01. Pool Hall Richard - 4:26
02. Cindy Incidentally - 2:38
03. Ooh La La - 3:32
04. Sweet Lady Mary - 5:48
05. Flying - 4:14
06. Pineapple And The Monkey - 4:22
07. You Can Make Me Dance, Sing Or Anything - 4:24
08. Had Me A Real Good Time - 2:54
09. Stay With Me - 4:38
10. Miss Judy's Farm - 3:39
11. Silicon Grown - 3:06
12. Around The Plynth - 5:51

Exact Audio Copy V1.0 beta 4 from 7. December 2014

EAC extraction logfile from 6. January 2015, 6:29

Faces / Snakes And Ladders (1990, WPCP-4040)

Used drive : ATAPI iHAS124 B Adapter: 1 ID: 0

Read mode : Secure
Utilize accurate stream : Yes
Defeat audio cache : Yes
Make use of C2 pointers : No

Read offset correction : 6
Overread into Lead-In and Lead-Out : No
Fill up missing offset samples with silence : Yes
Delete leading and trailing silent blocks : No
Null samples used in CRC calculations : Yes
Used interface : Installed external ASPI interface

Used output format : User Defined Encoder
Selected bitrate : 128 kBit/s
Quality : High
Add ID3 tag : Yes
Command line compressor : C:\Program Files (x86)\Exact Audio Copy\Flac\flac.exe
Additional command line options : -V -8 -T "Date=%year%" -T "Genre=%genre%" %source%


TOC of the extracted CD

Track | Start | Length | Start sector | End sector
––––––––––––––––––––––––––––-
1 | 0:00.00 | 4:26.15 | 0 | 19964
2 | 4:26.15 | 2:37.40 | 19965 | 31779
3 | 7:03.55 | 3:32.20 | 31780 | 47699
4 | 10:36.00 | 5:47.62 | 47700 | 73786
5 | 16:23.62 | 4:13.65 | 73787 | 92826
6 | 20:37.52 | 4:22.18 | 92827 | 112494
7 | 24:59.70 | 4:23.55 | 112495 | 132274
8 | 29:23.50 | 2:54.25 | 132275 | 145349
9 | 32:18.00 | 4:38.35 | 145350 | 166234
10 | 36:56.35 | 3:39.32 | 166235 | 182691
11 | 40:35.67 | 3:05.65 | 182692 | 196631
12 | 43:41.57 | 5:50.68 | 196632 | 222949


Range status and errors

Selected range

Filename G:\CD\Faces - Snakes And Ladders.wav

Peak level 98.8 %
Extraction speed 5.4 X
Range quality 100.0 %
Test CRC 2F4FE0EA
Copy CRC 2F4FE0EA
Copy OK

No errors occurred


AccurateRip summary

Track 1 cannot be verified as accurate (confidence 5) [5415F421], AccurateRip returned [9A8C445D] (AR v2)
Track 2 cannot be verified as accurate (confidence 5) [3A41CE7D], AccurateRip returned [FFB7FE15] (AR v2)
Track 3 cannot be verified as accurate (confidence 5) [BD410F6D], AccurateRip returned [E76BC9BE] (AR v2)
Track 4 cannot be verified as accurate (confidence 5) [22795585], AccurateRip returned [215554FF] (AR v2)
Track 5 cannot be verified as accurate (confidence 5) [0F861AAE], AccurateRip returned [D538B259] (AR v2)
Track 6 cannot be verified as accurate (confidence 5) [0D307D0A], AccurateRip returned [177CA8EF] (AR v2)
Track 7 cannot be verified as accurate (confidence 5) [C1D4AFF4], AccurateRip returned [F07B845E] (AR v2)
Track 8 cannot be verified as accurate (confidence 5) [55437A10], AccurateRip returned [0263A2EC] (AR v2)
Track 9 cannot be verified as accurate (confidence 5) [07EBE26B], AccurateRip returned [77F6CE4B] (AR v2)
Track 10 cannot be verified as accurate (confidence 5) [C35DFAD6], AccurateRip returned [C09AA6AA] (AR v2)
Track 11 cannot be verified as accurate (confidence 5) [2F7EEA54], AccurateRip returned [32665E17] (AR v2)
Track 12 cannot be verified as accurate (confidence 5) [4C88DBD6], AccurateRip returned [691DBC95] (AR v2)

No tracks could be verified as accurate
You may have a different pressing from the one(s) in the database

End of status report

–– CUETools DB Plugin V2.1.4

[CTDB TOCID: oVuLFw_LfQ2zkVkoBYNM1OBKyQ8-] found
Submit result: oVuLFw_LfQ2zkVkoBYNM1OBKyQ8- has been confirmed
Track | CTDB Status
1 | (3/3) Accurately ripped
2 | (3/3) Accurately ripped
3 | (3/3) Accurately ripped
4 | (3/3) Accurately ripped
5 | (3/3) Accurately ripped
6 | (3/3) Accurately ripped
7 | (3/3) Accurately ripped
8 | (3/3) Accurately ripped
9 | (3/3) Accurately ripped
10 | (3/3) Accurately ripped
11 | (3/3) Accurately ripped
12 | (3/3) Accurately ripped


==== Log checksum 3A3BEA893B38E393C33684B3920A8C3EE6040B4117DDB989E0B7240BE730DEE9 ====

foobar2000 1.2.9 / Dynamic Range Meter 1.1.1
log date: 2015-05-13 20:44:24

––––––––––––––––––––––––––––––––––––––––
Analyzed: Faces / Snakes And Ladders. The Best Of Faces (1990, WPCP-4040)
––––––––––––––––––––––––––––––––––––––––

DR Peak RMS Duration Track
––––––––––––––––––––––––––––––––––––––––
DR11 -0.29 dB -13.16 dB 4:26 01-Pool Hall Richard
DR12 -0.78 dB -16.58 dB 2:38 02-Cindy Incidentally
DR12 -2.73 dB -17.36 dB 3:32 03-Ooh La La
DR12 -4.53 dB -19.73 dB 5:48 04-Sweet Lady Mary
DR13 -0.10 dB -17.91 dB 4:14 05-Flying
DR13 -1.85 dB -19.85 dB 4:22 06-Pineapple And The Monkey
DR12 -1.73 dB -16.28 dB 4:24 07-You Can Make Me Dance, Sing Or Anything
DR13 -1.10 dB -16.46 dB 2:54 08-Had Me A Real Good Time
DR12 -1.90 dB -16.03 dB 4:38 09-Stay With Me
DR12 -1.04 dB -16.51 dB 3:39 10-Miss Judy's Farm
DR13 -0.91 dB -16.39 dB 3:06 11-Silicon Grown
DR13 -1.94 dB -19.28 dB 5:51 12-Around The Plynth
––––––––––––––––––––––––––––––––––––––––

Number of tracks: 12
Official DR value: DR12

Samplerate: 44100 Hz
Channels: 2
Bits per sample: 16
Bitrate: 815 kbps
Codec: FLAC

[CUETools log; Date: 13.05.2015 20:44:49; Version: 2.1.4]
[CTDB TOCID: oVuLFw_LfQ2zkVkoBYNM1OBKyQ8-] found.
Track | CTDB Status
1 | (5/5) Accurately ripped
2 | (5/5) Accurately ripped
3 | (5/5) Accurately ripped
4 | (5/5) Accurately ripped
5 | (5/5) Accurately ripped
6 | (5/5) Accurately ripped
7 | (5/5) Accurately ripped
8 | (5/5) Accurately ripped
9 | (5/5) Accurately ripped
10 | (5/5) Accurately ripped
11 | (5/5) Accurately ripped
12 | (5/5) Accurately ripped
[AccurateRip ID: 0015bd30-00cb7c7f-a50b9c0c] found.
Track [ CRC | V2 ] Status
01 [5d04c008|5415f421] (00+02/11) Accurately ripped
02 [28b54e62|3a41ce7d] (00+02/11) Accurately ripped
03 [c23bbd15|bd410f6d] (00+02/11) Accurately ripped
04 [838a6187|22795585] (00+02/11) Accurately ripped
05 [79d7bd88|0f861aae] (00+02/11) Accurately ripped
06 [1451f293|0d307d0a] (00+02/11) Accurately ripped
07 [2d469a42|c1d4aff4] (00+02/11) Accurately ripped
08 [c5db45be|55437a10] (00+02/11) Accurately ripped
09 [e051b15a|07ebe26b] (00+02/11) Accurately ripped
10 [036d8e9c|c35dfad6] (00+02/11) Accurately ripped
11 [9405b9ed|2f7eea54] (00+02/11) Accurately ripped
12 [c0e99366|4c88dbd6] (00+02/11) Accurately ripped
Offsetted by -1743:
01 [3bda012a] (04/11) Accurately ripped
02 [819517de] (04/11) Accurately ripped
03 [fc8f5610] (04/11) Accurately ripped
04 [584d0742] (04/11) Accurately ripped
05 [ebbf65c6] (04/11) Accurately ripped
06 [b8ba67da] (04/11) Accurately ripped
07 [fe69d99f] (04/11) Accurately ripped
08 [df326658] (04/11) Accurately ripped
09 [ce90d0a2] (04/11) Accurately ripped
10 [093a1321] (04/11) Accurately ripped
11 [e8cdafed] (04/11) Accurately ripped
12 [9cd88352] (04/11) Accurately ripped

Track Peak [ CRC32 ] [W/O NULL] [ LOG ]
– 98,8 [2F4FE0EA] [16A215E0] CRC32
01 96,7 [A85329A2] [45698588]
02 91,4 [BA275D9D] [027C767C]
03 73,0 [6B93A0CC] [52BA18C2]
04 59,3 [0461BC86] [4ED7DD82]
05 98,8 [8419298C] [89C700DD]
06 80,8 [13AB84A3] [A660DE22]
07 81,9 [174B8166] [553F4844]
08 88,1 [659A644A] [E7EB6F53]
09 80,3 [66B0D088] [2355C4C8]
10 88,7 [22D987C9] [52EFF6F9]
11 90,0 [80C8DEC8] [C3089F0D]
12 79,9 [A5E21FB5] [1356BA08]

Faces - Snakes And Ladders. The Best Of Faces (1976) [Warner-Pioneer WPCP-4040, Japan]

All thanks go to gerrV

More Faces in my Blog

Download Faces - Snakes And Ladders. The Best Of Faces (1976):