Tags
Language
Tags
December 2022
Su Mo Tu We Th Fr Sa
27 28 29 30 1 2 3
4 5 6 7 8 9 10
11 12 13 14 15 16 17
18 19 20 21 22 23 24
25 26 27 28 29 30 31

Faithful Breath - 2 Studio Albums (1974-1980) [Reissue 2005-2007]

Posted By: gribovar
Faithful Breath - 2 Studio Albums (1974-1980) [Reissue 2005-2007]

Faithful Breath - 2 Studio Albums (1974-1980) [Reissue 2005-2007]
EAC Rip | FLAC (image+.cue+log) - 493 MB | MP3 CBR 320 kbps (LAME 3.93) - 200 MB | Covers - 174 MB
Genre: Progressive Rock | RAR 3% Rec. | Label: Garden of Delights

Those connecting Faithful Breath from Bochum with hard rock are right as regards their later works. In the beginning, however, they played psychedelia, then, initiated by their keyboarder Manfred von Buttlar, symphonic rock dominated by Mellotron. Their first LP is considered to be their best work: "Fading Beauty", recorded at the end of 1973 and released as a private pressing in early 1974. Especially the long track "Tharsis", occupying an entire side of the LP, is a real masterpiece. Already in 1991, the LP was released as a CD in the U.S. As it was no longer available, however, a re-release was overdue, which has been made from the master tape. In the 32-page booklet, there is the usual detailed band history and discography as well as plenty of cover and label reproductions and photographs of the artists.
In 1977/1978 they recorded their second Album ”Back on my hill” - again including the mellotron - which was released, however, on legal grounds, only in 1980, on the Sky label. The long track on the flip side has been played in keeping with the first LP’s style. The first side consists of four shorter tracks already with some hard rock sounds - some few years later Faithful Breath should develop into a real hard rock and metal band. As a bonus track the CD includes ”Die Mörderbiene” (The killer bee) from their 12” EP which had also been released on Sky in 1980. The whole material, including the bonus track, has been drawn from the master tapes.

Faithful Breath - 2 Studio Albums (1974-1980) [Reissue 2005-2007]

Faithful Breath - Fading Beauty (1974) [Reissue 2005]
EAC Rip | FLAC (image+.cue+log) - 237 MB | MP3 CBR 320 kbps (LAME 3.93) - 104 MB | Covers - 77 MB
Genre: Progressive Rock | RAR 3% Rec. | Label: Garden of Delights (CD 112)

Tracklist:
01. Autumn Fantasia
02. Tharsis

Total time: 44:18

Exact Audio Copy V1.0 beta 1 from 15. November 2010

EAC extraction logfile from 1. March 2011, 12:51

Faithful Breath / Fading Beauty

Used drive : TSSTcorpCDRWDVD TS-H492C Adapter: 0 ID: 0

Read mode : Secure
Utilize accurate stream : Yes
Defeat audio cache : Yes
Make use of C2 pointers : No

Read offset correction : 6
Overread into Lead-In and Lead-Out : No
Fill up missing offset samples with silence : Yes
Delete leading and trailing silent blocks : No
Null samples used in CRC calculations : Yes
Used interface : Native Win32 interface for Win NT & 2000

Used output format : User Defined Encoder
Selected bitrate : 768 kBit/s
Quality : High
Add ID3 tag : No
Command line compressor : C:\Program Files\Exact Audio Copy\FLAC\FLAC.EXE
Additional command line options : –best -V -T "ARTIST=%a" -T "TITLE=%t" -T "ALBUM=%g" -T "DATE=%y" -T "TRACKNUMBER=%n" -T "GENRE=%m" -T "COMMENT=%e" %j–picture="%i"%j %s -o %d


TOC of the extracted CD

Track | Start | Length | Start sector | End sector
––––––––––––––––––––––––––––-
1 | 0:00.00 | 22:39.70 | 0 | 101994
2 | 22:39.70 | 21:38.18 | 101995 | 199362


Range status and errors

Selected range

Filename C:\TEMP\Faithful Breath - Fading Beauty Reissue\Fading Beauty.wav

Peak level 51.6 %
Extraction speed 4.0 X
Range quality 99.9 %
Test CRC 321D92E2
Copy CRC 321D92E2
Copy OK

No errors occurred


AccurateRip summary

Track 1 accurately ripped (confidence 1) [3DB7B1F9]
Track 2 accurately ripped (confidence 1) [6679C51F]

All tracks accurately ripped

End of status report

[CUETools log; Date: 27.05.2020 14:43:24; Version: 2.1.4]
[CTDB TOCID: n3AUHzlcJTM63aVTczyjM_voH5E-] found.
Track | CTDB Status
1 | (6/6) Accurately ripped
2 | (6/6) Accurately ripped
[AccurateRip ID: 0004992e-000c3d20-0d0a6202] found.
Track [ CRC | V2 ] Status
01 [3db7b1f9|6636c860] (2+4/6) Accurately ripped
02 [6679c51f|1bf6ecc0] (2+4/6) Accurately ripped

Track Peak [ CRC32 ] [W/O NULL] [ LOG ]
– 51,6 [321D92E2] [71043497] CRC32
01 51,1 [43291DCF] [5097A0B7]
02 51,6 [EEEB5041] [F5262CA0]

Faithful Breath - 2 Studio Albums (1974-1980) [Reissue 2005-2007]

Faithful Breath - Back On My Hill (1980) [Reissue 2007]
EAC Rip | FLAC (image+.cue+log) - 256 MB | MP3 CBR 320 kbps (LAME 3.93) - 96 MB | Covers - 97 MB
Genre: Progressive Rock | RAR 3% Rec. | Label: Garden of Delights (CD 134)

Tracklist:
01. Back On My Hill
02. Keep Me Away
03. This Is My Love Song
04. Stick In Your Eyes
05. Judgement Day
06. Die Mörderbiene (Bonus track)

Total time: 40:48

Exact Audio Copy V0.99 prebeta 5 from 4. May 2009

EAC extraction logfile from 1. December 2010, 23:21

Faithful Breath / Back on my Hill

Used drive : LITE-ON DVDRW LH-20A1L Adapter: 4 ID: 0

Read mode : Secure
Utilize accurate stream : Yes
Defeat audio cache : Yes
Make use of C2 pointers : No

Read offset correction : 6
Overread into Lead-In and Lead-Out : No
Fill up missing offset samples with silence : Yes
Delete leading and trailing silent blocks : No
Null samples used in CRC calculations : Yes
Used interface : Installed external ASPI interface

Used output format : Internal WAV Routines
Sample format : 44.100 Hz; 16 Bit; Stereo


TOC of the extracted CD

Track | Start | Length | Start sector | End sector
––––––––––––––––––––––––––––-
1 | 0:00.30 | 5:40.10 | 30 | 25539
2 | 5:40.40 | 4:02.65 | 25540 | 43754
3 | 9:43.30 | 3:00.57 | 43755 | 57311
4 | 12:44.12 | 4:54.19 | 57312 | 79380
5 | 17:38.31 | 16:59.34 | 79381 | 155839
6 | 34:37.65 | 6:10.38 | 155840 | 183627


Range status and errors

Selected range

Filename Z:\data\mp3\Seeding\Faithful Breath\1980-Back On My Hill\Back on my Hill.wav

Peak level 100.0 %
Range quality 100.0 %
Test CRC C840C5B9
Copy CRC C840C5B9
Copy OK

No errors occurred


AccurateRip summary

Track 1 accurately ripped (confidence 2) [3280B378]
Track 2 accurately ripped (confidence 2) [0E9E4A05]
Track 3 accurately ripped (confidence 2) [660EF075]
Track 4 accurately ripped (confidence 2) [74DC8B76]
Track 5 accurately ripped (confidence 2) [B0E25424]
Track 6 accurately ripped (confidence 2) [CE100369]

All tracks accurately ripped

End of status report

[CUETools log; Date: 27.05.2020 14:44:16; Version: 2.1.4]
Pregap length 00:00:30.
[CTDB TOCID: cgzDV3fafUutStu6w4opwBspL5M-] found.
Track | CTDB Status
1 | (11/11) Accurately ripped
2 | (11/11) Accurately ripped
3 | (11/11) Accurately ripped
4 | (11/11) Accurately ripped
5 | (11/11) Accurately ripped
6 | (11/11) Accurately ripped
[AccurateRip ID: 000852ce-002e37e4-49099006] found.
Track [ CRC | V2 ] Status
01 [3280b378|c6ed080f] (3+2/5) Accurately ripped
02 [0e9e4a05|ac3af996] (3+2/5) Accurately ripped
03 [660ef075|28fc3f4a] (3+2/5) Accurately ripped
04 [74dc8b76|84956e59] (3+2/5) Accurately ripped
05 [b0e25424|c6095ed9] (3+2/5) Accurately ripped
06 [ce100369|c1b74020] (3+2/5) Accurately ripped

Track Peak [ CRC32 ] [W/O NULL] [ LOG ]
– 100,0 [C840C5B9] [6277210E] CRC32
01 92,1 [1B05BF94] [1ED98B44]
02 100,0 [ABF4820E] [9941C79D]
03 97,7 [9F24E366] [A3B89077]
04 93,0 [88F48EA9] [A749C689]
05 100,0 [E5E06A4E] [9FF4BCA5]
06 92,4 [20B60ACA] [0330A511]

Thanks to hexonut