Subcategories

Family - Once Upon A Time (2013) [14CD Box Set, Snapper Music, SMABX999/1097] Re-up

Posted By: v3122
Family - Once Upon A Time (2013) [14CD Box Set, Snapper Music, SMABX999/1097] Re-up

Family - Once Upon A Time (2013)
EAC Rip | Flac(Image) + Cue + Log & MP3 CBR 320Kbps
14CD | ~ 3442 or 1458 Mb | Scans(png) -> 1267 Mb
2013 | Snapper Music, SMABX999 / 1097
Psychedelic Rock / Progressive Rock

Once Upon A Time is the definitive last word on Family. A long-awaited 14 disc box set that collects the band's entire back catalogue for the first time.

This strictly limited edition set was compiled with the full cooperation of Roger Chapman and each copy includes a numbered certificate of authenticity signed individually by Roger himself

The set includes all the band's officially released work plus 2 discs of previously unreleased material featuring out-takes and alternative versions.

~ burningshed
Family - Once Upon A Time (2013) [14CD Box Set, Snapper Music, SMABX999/1097] Re-up

A blues-based band with art rock inclinations, Family were one of the more interesting groups of hippie-era Britain. Fronted by the deft and frequently excellent guitar playing of John "Charlie" Whitney and the raspy, whiskey-and-cigarette voice of Roger Chapman, Family were much loved in England and Europe but barely achieved cult status in America. While bands like Jethro Tull, Ten Years After, and the Keith Emerson-led Nice (and later Emerson, Lake & Palmer) sold lots of records, Family, who frequently toured with these bands, were left in the shadows, an odd band loved by a small but rabid group of fans.

Although the band's first official release was Music in a Doll's House in 1968, the roots of the band went back as far as the early '60s, when Whitney started a rhythm & blues/soul band called the Farinas while at college. In 1966, Whitney met Roger Chapman, a prematurely balding singer who had a voice so powerful that, to quote Robert Christgau, "It could kill small game at a hundred yards," and the two began a creative partnership that would last through two bands and into the early '80s. With Whitney and Chapman leading the way, Family became whole with the addition of bassist Ric Grech, saxophonist Jim King, and drummer Rob Townsend. Within a year they were hyped as the next big thing, and under that pressure and intense British pop press scrutiny delivered their debut record in 1968, Music in a Doll's House. Doll's House is pop music redolent of the Zeitgeist: Chapman's voice is rooted in the blues and R&B, but the record is loaded with strings, Mellotrons, acoustic guitars, and horns – essentially all the trappings of post-psychedelia and early art rock. Almost completely ignored in the States, Doll's House was a hit in Britain and Family began a string of "less art rock/more hard rock" albums that ended, as did the band, with the release of It's Only a Movie in 1973.

Family - Once Upon A Time (2013) [14CD Box Set, Snapper Music, SMABX999/1097] Re-up

After Family's demise, Whitney and Chapman formed the blues-rock Streetwalkers; other Family members (of which there were quite a few in the band's tempestuous eight years) such as John Wetton (King Crimson, Asia) and Jim Cregan (Rod Stewart) went off to find fame and fortune elsewhere. Trivia buffs note: it was Ric Grech who was the first to leave Family in 1969 to become the least well-known member of supergroup Blind Faith. Sadly, that proved to be Grech's biggest mistake, as Blind Faith imploded in a year, and Grech (whose last notable band membership was in Traffic), long plagued by drinking problems, died of liver failure in 1990. Charlie Whitney went on to play in an extremely low-key country/blues/bluegrass band called Los Rackateeros, and Roger Chapman moved to Germany, where his solo career flourished. A fine, occasionally great band, Family deserved more recognition (at least in America) than they received – something that a thoughtfully compiled career-spanning CD retrospective might rectify.

by John Dougan, AMG
Family - Once Upon A Time (2013):

Family - Once Upon A Time (2013) [14CD Box Set, Snapper Music, SMABX999/1097] Re-up

CD1: Family - Music In A Doll's House (1968)
EAC Rip | Flac(Image) + Cue + Log & MP3 CBR 320Kbps
PUC 801 | ~ 306 or 117 Mb | Scans(png) -> 133 Mb
Psychedelic Rock / Progressive Rock

The non-LP single "Scene Through the Eye of a Lens" b/w "Gypsy Woman" not withstanding, Music in a Doll's House (1968) is the debut full-length release from the earliest incarnation of Family, featuring Roger Chapman (harmonica/tenor sax/vocals), Rick Grech (violin/ cello/bass guitar/vocals), Rob Townsend (percussion/drums), John "Charlie" Whitney (guitar/pedal steel guitar/keyboards), and Jim King (harmonica/keyboards/soprano sax/tenor sax/vocals). Their highly original sound has often been compared to Traffic, which may be in part due to the production skills of Jimmy Miller and Dave Mason, the latter also contributing the organic and rootsy rocker "Never Like This." Additionally, neither band was overtly psychedelic or progressive, contrasting them from the other burgeoning combos such as Soft Machine, Pink Floyd, and Caravan. Family's deceptively involved arrangements are coupled with an equally unique blend of Chapman's commanding vocals driving through the jazz and folk-rooted tunes. "The Chase" is a spirited opener that immediately establishes their unmistakable vibe, which is furthered on the sides "Old Songs for New Songs" and the aggressive rocker "Peace of Mind." The antithesis can be heard on the rural-flavored "Mellowing Grey" and "Winter," or perhaps the almost blatantly trippy "See Through Windows."

by Lindsay Planer
Tracklist:

01. The Chase 02:13
02. Mellowing Grey 02:49
03. Never Like This 02:18
04. Me My Friend 02:00
05. Variation On A Theme Of Hey Mr. Policeman 00:24
06. Winter 02:26
07. Old Songs For New Songs 04:17
08. Variation On A Theme Of The Breeze 00:40
09. Hey Mr. Policeman 03:13
10. See Through Windows 03:43
11. Variation On A Theme Of Me My Friend 00:22
12. Peace Of Mind 02:20
13. Voyage 03:34
14. The Breeze 02:52
15. 3 X Time 03:50

Bonus Tracks:
16. Scene Through The Eye Of A Lens 02:52
17. Gypsy Woman 03:25

Bonus Tracks: Originally released as B-side Liberty LBF 15031 October 1967

Exact Audio Copy V1.0 beta 3 from 29. August 2011

EAC extraction logfile from 20. February 2013, 21:23

Family / Music In A Doll's House

Used drive : PLEXTOR BD-R PX-B950SA Adapter: 6 ID: 0

Read mode : Secure
Utilize accurate stream : Yes
Defeat audio cache : Yes
Make use of C2 pointers : No

Read offset correction : 6
Overread into Lead-In and Lead-Out : No
Fill up missing offset samples with silence : Yes
Delete leading and trailing silent blocks : No
Null samples used in CRC calculations : Yes
Used interface : Native Win32 interface for Win NT & 2000

Used output format : Internal WAV Routines
Sample format : 44.100 Hz; 16 Bit; Stereo


TOC of the extracted CD

Track | Start | Length | Start sector | End sector
––––––––––––––––––––––––––––-
1 | 0:00.00 | 2:13.42 | 0 | 10016
2 | 2:13.42 | 2:49.15 | 10017 | 22706
3 | 5:02.57 | 2:18.04 | 22707 | 33060
4 | 7:20.61 | 2:00.34 | 33061 | 42094
5 | 9:21.20 | 0:24.19 | 42095 | 43913
6 | 9:45.39 | 2:26.08 | 43914 | 54871
7 | 12:11.47 | 4:17.37 | 54872 | 74183
8 | 16:29.09 | 0:40.33 | 74184 | 77216
9 | 17:09.42 | 3:13.15 | 77217 | 91706
10 | 20:22.57 | 3:43.40 | 91707 | 108471
11 | 24:06.22 | 0:22.70 | 108472 | 110191
12 | 24:29.17 | 2:20.24 | 110192 | 120715
13 | 26:49.41 | 3:34.54 | 120716 | 136819
14 | 30:24.20 | 2:52.44 | 136820 | 149763
15 | 33:16.64 | 3:50.31 | 149764 | 167044
16 | 37:07.20 | 2:52.01 | 167045 | 179945
17 | 39:59.21 | 3:25.65 | 179946 | 195385


Range status and errors

Selected range

Filename C:\Users\Meijin\Desktop\Lossless Rip by ALLexxess\Family\2013 Once Open A Time (14CD Collector Box Set Snapper Music)\CD01 1968 Music In A Doll's House\Family - Music In A Doll's House.wav

Peak level 97.7 %
Extraction speed 6.9 X
Range quality 100.0 %
Test CRC E14344D7
Copy CRC E14344D7
Copy OK

No errors occurred


AccurateRip summary

Track 1 not present in database
Track 2 not present in database
Track 3 not present in database
Track 4 not present in database
Track 5 not present in database
Track 6 not present in database
Track 7 not present in database
Track 8 not present in database
Track 9 not present in database
Track 10 not present in database
Track 11 not present in database
Track 12 not present in database
Track 13 not present in database
Track 14 not present in database
Track 15 not present in database
Track 16 not present in database
Track 17 not present in database

None of the tracks are present in the AccurateRip database

End of status report

foobar2000 1.1.18 / Dynamic Range Meter 1.1.1
log date: 2013-02-25 00:32:49

––––––––––––––––––––––––––––––––––––––––
Analyzed: Family / Music In A Doll's House
––––––––––––––––––––––––––––––––––––––––

DR Peak RMS Duration Track
––––––––––––––––––––––––––––––––––––––––
DR9 -0.20 dB -10.72 dB 2:14 01-The Chase
DR7 -1.19 dB -10.92 dB 2:49 02-Mellowing Grey
DR9 -0.20 dB -11.72 dB 2:18 03-Never Like This
DR9 -0.20 dB -11.22 dB 2:00 04-Me My Friend
DR9 -2.74 dB -15.24 dB 0:24 05-Variation On A Theme Of Hey Mr. Policeman
DR8 -0.20 dB -10.04 dB 2:26 06-Winter
DR10 -0.20 dB -12.13 dB 4:17 07-Old Songs For New Songs
DR11 -0.20 dB -16.88 dB 0:40 08-Variation On A Theme Of The Breeze
DR9 -0.20 dB -11.51 dB 3:13 09-Hey Mr. Policeman
DR11 -0.20 dB -13.37 dB 3:44 10-See Through Windows
DR11 -4.90 dB -22.41 dB 0:23 11-Variation On A Theme Of Me My Friend
DR9 -0.20 dB -10.75 dB 2:20 12-Peace Of Mind
DR9 -0.20 dB -12.74 dB 3:35 13-Voyage
DR9 -1.16 dB -14.40 dB 2:53 14-The Breeze
DR8 -0.20 dB -10.29 dB 3:50 15-3 X Time
DR9 -0.20 dB -12.69 dB 2:52 16-Scene Through The Eye Of A Lens / Bonus Track
DR11 -0.20 dB -12.21 dB 3:26 17-Gypsy Woman / Bonus Track
––––––––––––––––––––––––––––––––––––––––

Number of tracks: 17
Official DR value: DR9

Samplerate: 44100 Hz
Channels: 2
Bits per sample: 16
Bitrate: 896 kbps
Codec: FLAC

===========================

Family - Once Upon A Time (2013) [14CD Box Set, Snapper Music, SMABX999/1097] Re-up

CD2: Family - Family Entertainment (1969)
EAC Rip | Flac(Image) + Cue + Log & MP3 CBR 320Kbps
PUC 802 | ~ 281 or 110 Mb | Scans(png) -> 183 Mb
Psychedelic Rock / Progressive Rock

Family Entertainment followed on the heels of Family's Music in a Doll's House with the band's first incarnation: Roger Chapman (harmonica/tenor sax/vocals), Rick Grech (violin/cello/bass guitar/vocals), Rob Townsend (percussion/drums), John "Charlie" Whitney (guitar/pedal steel guitar/keyboards), and Jim King (harmonica/keyboards/soprano sax/tenor sax/vocals). While not totally dismissing their psychedelic leanings, much of the material bears a stronger acoustic influence, in much the same manner as Fairport Convention and Traffic were also exploring. The jazzy sitar lead of "Face in the Cloud" and the even more prominent Eastern-flavored "Summer '67" somewhat date the affair, and are contrasted by the beautifully noir and trippy "How-Hi-the-Li" (which may have been the impetus for Chicago's "Wishing You Were Here") and the upbeat "Hung Up Down," sporting Grech's unmistakable violin as it wafts over the rural and slightly surreal lyrics. These sides are set against the edgy "Weaver's Answer," which immediately establishes a broader spectrum of styles, most notably given Chapman's commanding if not slightly intimidating vocals. Whitney's blistering fretwork yields bite to the Grech-penned "Second Generation Woman," while "Emotions," another full-tilt rocker, is infused with an apparent R&B homage. Interested parties should note that Family Entertainment and Music in a Doll's House were issued in a double-disc package featuring a commendable 24-bit digital remastering rendering all other versions useless – especially the early-'90s pressing on the German Line label. Not only are both LPs included, but the 45s "Scene Through the Eye of a Lens" and "Gypsy Woman" are finally brought into the digital domain. The accompanying 40-page liner booklet is likewise a feast for the eyes.

by Lindsay Planer
Tracklist:

01. The Weaver's Answer 04:56
02. Observations From A Hill 03:11
03. Hung Up Down 03:12
04. Summer '67 03:19
05. How-Hi-The-Li 04:56
06. Second Generation Woman 03:13
07. From Past Archives 03:21
08. Dim 02:31
09. Processions 02:48
10. Face In The Cloud 02:53
11. Emotions 05:09

Exact Audio Copy V1.0 beta 3 from 29. August 2011

EAC extraction logfile from 20. February 2013, 20:40

Family / Family Entertainment

Used drive : PLEXTOR BD-R PX-B950SA Adapter: 6 ID: 0

Read mode : Secure
Utilize accurate stream : Yes
Defeat audio cache : Yes
Make use of C2 pointers : No

Read offset correction : 6
Overread into Lead-In and Lead-Out : No
Fill up missing offset samples with silence : Yes
Delete leading and trailing silent blocks : No
Null samples used in CRC calculations : Yes
Used interface : Native Win32 interface for Win NT & 2000

Used output format : Internal WAV Routines
Sample format : 44.100 Hz; 16 Bit; Stereo


TOC of the extracted CD

Track | Start | Length | Start sector | End sector
––––––––––––––––––––––––––––-
1 | 0:00.00 | 4:56.37 | 0 | 22236
2 | 4:56.37 | 3:11.47 | 22237 | 36608
3 | 8:08.09 | 3:12.19 | 36609 | 51027
4 | 11:20.28 | 3:19.46 | 51028 | 65998
5 | 14:39.74 | 4:56.53 | 65999 | 88251
6 | 19:36.52 | 3:13.26 | 88252 | 102752
7 | 22:50.03 | 3:21.12 | 102753 | 117839
8 | 26:11.15 | 2:31.59 | 117840 | 129223
9 | 28:42.74 | 2:48.64 | 129224 | 141887
10 | 31:31.63 | 2:53.10 | 141888 | 154872
11 | 34:24.73 | 5:09.74 | 154873 | 178121


Range status and errors

Selected range

Filename C:\Users\Meijin\Desktop\Lossless Rip by ALLexxess\Family\2013 Once Open A Time (14CD Collector Box Set Snapper Music)\CD02 1969 Family Entertainment\Family - Family Entertainment.wav

Peak level 98.8 %
Extraction speed 6.8 X
Range quality 100.0 %
Test CRC EABEE05D
Copy CRC EABEE05D
Copy OK

No errors occurred


AccurateRip summary

Track 1 not present in database
Track 2 not present in database
Track 3 not present in database
Track 4 not present in database
Track 5 not present in database
Track 6 not present in database
Track 7 not present in database
Track 8 not present in database
Track 9 not present in database
Track 10 not present in database
Track 11 not present in database

None of the tracks are present in the AccurateRip database

End of status report

foobar2000 1.1.18 / Dynamic Range Meter 1.1.1
log date: 2013-02-25 00:33:12

––––––––––––––––––––––––––––––––––––––––
Analyzed: Family / Family Entertainment
––––––––––––––––––––––––––––––––––––––––

DR Peak RMS Duration Track
––––––––––––––––––––––––––––––––––––––––
DR11 -0.10 dB -13.67 dB 4:56 01-The Weaver's Answer
DR11 -0.10 dB -12.18 dB 3:12 02-Observations From A Hill
DR9 -0.10 dB -10.85 dB 3:12 03-Hung Up Down
DR11 -0.10 dB -13.54 dB 3:20 04-Summer 67
DR11 -0.61 dB -14.12 dB 4:57 05-How-Hi-The-Li
DR9 -0.60 dB -11.25 dB 3:13 06-Second Generation Woman
DR10 -0.10 dB -12.43 dB 3:21 07-From Past Archives
DR10 -0.10 dB -12.40 dB 2:32 08-Dim
DR9 -0.10 dB -12.13 dB 2:49 09-Processions
DR10 -0.10 dB -13.24 dB 2:53 10-Face In The Cloud
DR9 -0.27 dB -11.68 dB 5:10 11-Emotions
––––––––––––––––––––––––––––––––––––––––

Number of tracks: 11
Official DR value: DR10

Samplerate: 44100 Hz
Channels: 2
Bits per sample: 16
Bitrate: 892 kbps
Codec: FLAC

===========================

Victoria (2016) [Season 1]

CD3: Family - A Song For Me (1970)
EAC Rip | Flac(Image) + Cue + Log & MP3 CBR 320Kbps
SMABX999/1 | ~ 276 or 112 Mb | Scans(png) -> 121 Mb
Psychedelic Rock / Progressive Rock

Twenty seven years after the fact, this might well be the best of the early Family recordings. A combination of hard rock (bordering on metal) and wistful folk-rock (it sounds as if Chapman and Whitney were listening to a lot of Incredible String Band), A Song for Me veers toward early progressive rock, but isn't as nakedly indulgent as some early prog-rock recordings (e.g., they didn't try to sound like a jazz band, they wanted to sound like a rock band screwing around with jazz). Perhaps their most experimental record, it seems as though the credo in making this disc was that anything went. And on tracks like "Drowned in Wine," it works quite well. Again, Chapman offers more proof of his vocal greatness, and again the record sells large quantities in England and nearly nothing in America.

by John Dougan
Tracklist:

01. Drowned In Wine 04:10
02. Some Poor Soul 02:45
03. Love Is A Sleeper 04:01
04. Stop For The Traffic / Through The Heart Of Me 02:10
05. Wheels 04:44
06. Song For Sinking Lovers 04:04
07. Hey - Let It Rock 00:59
08. The Cat And The Rat 02:33
09. 93's OK J 03:58
10. A Song For Me 09:18
Bonus Track:
11. A Song For Lots 03:41

Bonus Track: Originally issued as B-side of Reprise RS 27005 Today in 1970

Exact Audio Copy V1.0 beta 3 from 29. August 2011

EAC extraction logfile from 20. February 2013, 20:10

Family / A Song For Me

Used drive : PLEXTOR BD-R PX-B950SA Adapter: 6 ID: 0

Read mode : Secure
Utilize accurate stream : Yes
Defeat audio cache : Yes
Make use of C2 pointers : No

Read offset correction : 6
Overread into Lead-In and Lead-Out : No
Fill up missing offset samples with silence : Yes
Delete leading and trailing silent blocks : No
Null samples used in CRC calculations : Yes
Used interface : Native Win32 interface for Win NT & 2000

Used output format : Internal WAV Routines
Sample format : 44.100 Hz; 16 Bit; Stereo


TOC of the extracted CD

Track | Start | Length | Start sector | End sector
––––––––––––––––––––––––––––-
1 | 0:00.00 | 4:10.28 | 0 | 18777
2 | 4:10.28 | 2:45.65 | 18778 | 31217
3 | 6:56.18 | 4:01.38 | 31218 | 49330
4 | 10:57.56 | 2:10.66 | 49331 | 59146
5 | 13:08.47 | 4:44.70 | 59147 | 80516
6 | 17:53.42 | 4:04.56 | 80517 | 98872
7 | 21:58.23 | 0:59.56 | 98873 | 103353
8 | 22:58.04 | 2:33.09 | 103354 | 114837
9 | 25:31.13 | 3:58.54 | 114838 | 132741
10 | 29:29.67 | 9:18.18 | 132742 | 174609
11 | 38:48.10 | 3:41.58 | 174610 | 191242


Range status and errors

Selected range

Filename C:\Users\Meijin\Desktop\Lossless Rip by ALLexxess\Family\2013 Once Open A Time (14CD Collector Box Set Snapper Music)\CD03 1970 A Song For Me\Family - A Song For Me.wav

Peak level 93.2 %
Extraction speed 7.1 X
Range quality 100.0 %
Test CRC C5B4E9E2
Copy CRC C5B4E9E2
Copy OK

No errors occurred


AccurateRip summary

Track 1 not present in database
Track 2 not present in database
Track 3 not present in database
Track 4 not present in database
Track 5 not present in database
Track 6 not present in database
Track 7 not present in database
Track 8 not present in database
Track 9 not present in database
Track 10 not present in database
Track 11 not present in database

None of the tracks are present in the AccurateRip database

End of status report

foobar2000 1.1.18 / Dynamic Range Meter 1.1.1
log date: 2013-02-25 00:33:36

––––––––––––––––––––––––––––––––––––––––
Analyzed: Family / A Song For Me
––––––––––––––––––––––––––––––––––––––––

DR Peak RMS Duration Track
––––––––––––––––––––––––––––––––––––––––
DR8 -0.61 dB -11.04 dB 4:10 01-Drowned In Wine
DR10 -5.29 dB -18.71 dB 2:46 02-Some Poor Soul
DR9 -0.61 dB -11.56 dB 4:02 03-Love Is A Sleeper
DR8 -0.61 dB -9.72 dB 2:11 04-Stop For The Traffic / Through The Heart Of Me
DR7 -0.61 dB -9.72 dB 4:45 05-Wheels
DR8 -0.61 dB -11.94 dB 4:05 06-Song For Sinking Lovers
DR10 -0.61 dB -13.25 dB 1:00 07-Hey - Let It Rock
DR8 -0.61 dB -11.02 dB 2:33 08-The Cat And The Rat
DR8 -0.61 dB -12.13 dB 3:59 09-93's OK J
DR8 -0.61 dB -10.50 dB 9:18 10-A Song For Me
DR10 -0.61 dB -12.13 dB 3:42 11-A Song For Lots / Bonus Track
––––––––––––––––––––––––––––––––––––––––

Number of tracks: 11
Official DR value: DR9

Samplerate: 44100 Hz
Channels: 2
Bits per sample: 16
Bitrate: 829 kbps
Codec: FLAC

===========================

Victoria (2016) [Season 1]

CD4: Family - Anyway (1970)
EAC Rip | Flac(Image) + Cue + Log & MP3 CBR 320Kbps
SMABX999/2 | ~ 275 or 114 Mb | Scans(png) -> 115 Mb
Psychedelic Rock / Progressive Rock

The first four tracks of Family's Anyway were recorded at Croydon's Fairfield Hall, and while their sound throughout these songs is messy, overly loud, and remarkably bottom-heavy, their is an emitted energy that would change Family's persona from this point on. Aside from the piano, violin, and drum barrages, Roger Chapman's vocals are simply electrifying, even with a voice that sounds slightly stretched and flattened. It was these four cuts that transformed Family's sound into something that audiences other than their cult following could adhere to. The eight minutes of "Good News – Bad News" and the sharply written "Holding the Compass" are testimony to what the band was transforming into. And, while the studio tracks weren't as boisterous, they were indeed rough, especially the title track and the modernized feel of "Part of the Load," sounding slightly ahead of its time. Poli Palmer's percussion work is both resounding and highly inventive, as is his flute playing, taking drumming duties away from Jim King. While many critics dismiss this album, it was the first real release that merged Chapman comfortably with the band's bizarre instrumental outcrops that actually stuck. Sure, the music is off-center and follows no precise direction at times, but this is what Chapman needed in order to find a home for his quavering voice. While albums like Bandstand, It's Only a Movie, and the earlier Family Entertainment have received greater praise, Anyway's abrasiveness is just as relevant.

by Mike DeGagne
Tracklist:

01. Good News - Bad News 08:05
02. Willow Tree 04:41
03. Holding The Compass 04:26
04. Strange Band 03:53
05. Part Of The Load 04:46
06. Anyway 03:28
07. Normans 04:21
08. Lives And Ladies 06:40
Bonus Track:
09. Strange Band (Studio Version) 03:15

Tracks 1-4: Recorded live at The Fairfield Halls, Croydon
Tracks 5-8: Recorded at Olympic Sound Studio


Exact Audio Copy V1.0 beta 3 from 29. August 2011

EAC extraction logfile from 20. February 2013, 19:33

Family / Anyway

Used drive : PLEXTOR BD-R PX-B950SA Adapter: 6 ID: 0

Read mode : Secure
Utilize accurate stream : Yes
Defeat audio cache : Yes
Make use of C2 pointers : No

Read offset correction : 6
Overread into Lead-In and Lead-Out : No
Fill up missing offset samples with silence : Yes
Delete leading and trailing silent blocks : No
Null samples used in CRC calculations : Yes
Used interface : Native Win32 interface for Win NT & 2000

Used output format : Internal WAV Routines
Sample format : 44.100 Hz; 16 Bit; Stereo


TOC of the extracted CD

Track | Start | Length | Start sector | End sector
––––––––––––––––––––––––––––-
1 | 0:00.00 | 8:05.54 | 0 | 36428
2 | 8:05.54 | 4:41.50 | 36429 | 57553
3 | 12:47.29 | 4:26.20 | 57554 | 77523
4 | 17:13.49 | 3:53.52 | 77524 | 95050
5 | 21:07.26 | 4:46.31 | 95051 | 116531
6 | 25:53.57 | 3:28.72 | 116532 | 132203
7 | 29:22.54 | 4:21.74 | 132204 | 151852
8 | 33:44.53 | 6:40.25 | 151853 | 181877
9 | 40:25.03 | 3:15.13 | 181878 | 196515


Range status and errors

Selected range

Filename C:\Users\Meijin\Desktop\Lossless Rip by ALLexxess\Family\2013 Once Open A Time (14CD Collector Box Set Snapper Music)\CD04 1970 Anyway\Family - Anyway.wav

Peak level 93.2 %
Extraction speed 7.2 X
Range quality 100.0 %
Test CRC A18AF015
Copy CRC A18AF015
Copy OK

No errors occurred


AccurateRip summary

Track 1 not present in database
Track 2 not present in database
Track 3 not present in database
Track 4 not present in database
Track 5 not present in database
Track 6 not present in database
Track 7 not present in database
Track 8 not present in database
Track 9 not present in database

None of the tracks are present in the AccurateRip database

End of status report

foobar2000 1.1.18 / Dynamic Range Meter 1.1.1
log date: 2013-02-25 00:33:59

––––––––––––––––––––––––––––––––––––––––
Analyzed: Family / Anyway
––––––––––––––––––––––––––––––––––––––––

DR Peak RMS Duration Track
––––––––––––––––––––––––––––––––––––––––
DR9 -0.61 dB -11.78 dB 8:06 01-Good News - Bad News
DR8 -0.61 dB -12.99 dB 4:42 02-Willow Tree
DR13 -0.61 dB -15.22 dB 4:26 03-Holding The Compass
DR9 -0.61 dB -12.09 dB 3:54 04-Strange Band
DR11 -0.61 dB -13.36 dB 4:46 05-Part Of The Load
DR12 -0.61 dB -13.57 dB 3:29 06-Anyway
DR10 -0.61 dB -14.08 dB 4:22 07-Normans
DR11 -0.61 dB -14.09 dB 6:40 08-Lives And Ladies
DR9 -0.61 dB -12.87 dB 3:15 09-Strange Band (Studio Version) / Bonus Track
––––––––––––––––––––––––––––––––––––––––

Number of tracks: 9
Official DR value: DR10

Samplerate: 44100 Hz
Channels: 2
Bits per sample: 16
Bitrate: 805 kbps
Codec: FLAC

===========================

Victoria (2016) [Season 1]

CD5: Family - Old Songs New Songs (1971)
EAC Rip | Flac(Image) + Cue + Log & MP3 CBR 320Kbps
SMABX999/3 | ~ 241 or 106 Mb | Scans(png) -> 87 Mb
Psychedelic Rock / Progressive Rock

This album, a hybrid best-of/singles/remix record, was put together by Family to promote a planned U.S. tour. When the tour was cancelled, the album was released in the U.K. in March, 1971. Songs from the first three albums are included, along with four non-album singles. Special treatment was given to "Hung up Down," "Observations from a Hill," "Weaver's Answer" and "Hometown; " instrumental tracks were re-recorded for these numbers, due to the band's dissatisfaction with the original mixes. The album was an unusual mid-career release, and it filled the gap between the stylistically opposed Anyway and Fearless.

by Patrick Little
Tracklist:

01. Hung Up Down 03:38
02. Today 05:00
03. Observations From A Hill 03:09
04. Good Friend Of Mine 03:34
05. Drowned In Wine 04:09
06. Peace Of Mind 02:20
07. Hometown 03:10
08. The Cat And The Rat 02:31
09. No Mule's Fool 03:20
10. See Through Windows 03:48
11. The Weaver's Answer 04:54

Exact Audio Copy V1.0 beta 3 from 29. August 2011

EAC extraction logfile from 20. February 2013, 16:39

Family / Old Songs New Songs

Used drive : PLEXTOR BD-R PX-B950SA Adapter: 6 ID: 0

Read mode : Secure
Utilize accurate stream : Yes
Defeat audio cache : Yes
Make use of C2 pointers : No

Read offset correction : 6
Overread into Lead-In and Lead-Out : No
Fill up missing offset samples with silence : Yes
Delete leading and trailing silent blocks : No
Null samples used in CRC calculations : Yes
Used interface : Native Win32 interface for Win NT & 2000

Used output format : Internal WAV Routines
Sample format : 44.100 Hz; 16 Bit; Stereo


TOC of the extracted CD

Track | Start | Length | Start sector | End sector
––––––––––––––––––––––––––––-
1 | 0:00.00 | 3:38.03 | 0 | 16352
2 | 3:38.03 | 5:00.70 | 16353 | 38922
3 | 8:38.73 | 3:09.16 | 38923 | 53113
4 | 11:48.14 | 3:34.55 | 53114 | 69218
5 | 15:22.69 | 4:09.67 | 69219 | 87960
6 | 19:32.61 | 2:20.43 | 87961 | 98503
7 | 21:53.29 | 3:10.46 | 98504 | 112799
8 | 25:04.00 | 2:31.59 | 112800 | 124183
9 | 27:35.59 | 3:20.39 | 124184 | 139222
10 | 30:56.23 | 3:48.67 | 139223 | 156389
11 | 34:45.15 | 4:54.15 | 156390 | 178454


Range status and errors

Selected range

Filename C:\Users\Meijin\Desktop\Lossless Rip by ALLexxess\Family\2013 Once Open A Time (14CD Collector Box Set Snapper Music)\CD05 1971 Old Songs New Songs\Family - Old Songs New Songs.wav

Peak level 93.2 %
Extraction speed 7.0 X
Range quality 100.0 %
Test CRC D2B6E230
Copy CRC D2B6E230
Copy OK

No errors occurred


AccurateRip summary

Track 1 not present in database
Track 2 not present in database
Track 3 not present in database
Track 4 not present in database
Track 5 not present in database
Track 6 not present in database
Track 7 not present in database
Track 8 not present in database
Track 9 not present in database
Track 10 not present in database
Track 11 not present in database

None of the tracks are present in the AccurateRip database

End of status report

foobar2000 1.1.18 / Dynamic Range Meter 1.1.1
log date: 2013-02-25 00:34:26

––––––––––––––––––––––––––––––––––––––––
Analyzed: Family / Old Songs New Songs
––––––––––––––––––––––––––––––––––––––––

DR Peak RMS Duration Track
––––––––––––––––––––––––––––––––––––––––
DR8 -0.61 dB -11.49 dB 3:38 01-Hung Up Down
DR12 -0.61 dB -17.21 dB 5:01 02-Today
DR8 -0.61 dB -10.58 dB 3:09 03-Observations From A Hill
DR8 -0.61 dB -11.51 dB 3:35 04-Good Friend Of Mine
DR9 -0.61 dB -11.70 dB 4:10 05-Drowned In Wine
DR9 -0.61 dB -11.02 dB 2:21 06-Peace Of Mind
DR11 -1.62 dB -17.34 dB 3:11 07-Hometown
DR9 -0.61 dB -11.34 dB 2:32 08-The Cat And The Rat
DR10 -0.61 dB -12.44 dB 3:21 09-No Mule's Fool
DR9 -0.61 dB -11.76 dB 3:49 10-See Through Windows
DR8 -0.61 dB -11.42 dB 4:54 11-The Weaver's Answer
––––––––––––––––––––––––––––––––––––––––

Number of tracks: 11
Official DR value: DR9

Samplerate: 44100 Hz
Channels: 2
Bits per sample: 16
Bitrate: 779 kbps
Codec: FLAC

===========================

Victoria (2016) [Season 1]

CD6: Family - Fearless (1971)
EAC Rip | Flac(Image) + Cue + Log & MP3 CBR 320Kbps
SMABX999/4 | ~ 256 or 109 Mb | Scans(png) -> 106 Mb
Psychedelic Rock / Progressive Rock

After Family concluded their second stateside tour in mid-1971 they were to again face personnel changes as John Weider (bass) was replaced by John Wetton (bass/guitar/vocals) just in time to chip in for Fearless, their sixth long-player in four years. Listeners who had enjoyed their most recent platters might have been a bit nonplussed when confronted with this disc, as the combo's direction was notably altered. Wetton brought along his trademark propulsive performance style, which is immediately evident on the heavy midtempo opener, "Between Blue and Me." Charlie Whitney (guitar/mandolin/percussion) presents some expressive strings weaving through Wetton's full bottom-end bombs. The decidedly English "Sat'd'y Barfly" recalls the inebriated vibe of lighter-weight numbers à la the Faces, and the Ladbroke Horns do little to help as a prominent tuba rhythmically poots along. Poli Palmer's (keyboards/vibes/flute/percussion) roly-poly piano further conjures up a barroom setting while pulling the tune together. As if the juxtaposition of those tracks wasn't incongruous enough, the slightly off-kilter and trippy "Larf and Sing" features a breezy four-on-the-floor backbeat that predates disco in chronology only. It drops out for a jazzy a cappella chorus that could easily be executed by the Hi-Lo's or Four Freshmen. Whitney's wah-wah is also a focal point as it slithers in between the verses. Another of the album's best offerings is the "Spanish Tide"/"Save Some for Thee'" medley. Highlighted is the combination of Roger Chapman's powerful warbling and Wetton's sturdy vocal timbre. The pair shine against the intricate melody, brought to life by a well-balanced blend of Whitney's acoustic fretwork. On the funky rocker "Take Your Partners," the bandmembers maneuver their interaction with an aptitude and skill that would arguably best any jam-based aggregate of the day. Concluding Fearless is the sinuous "Burning Bridges," sporting a Chapman lead that is almost uncomfortable in its palpable sense of foreboding. Whitney's muted mandolin likewise has a haunting ruminative quality as it dances and seemingly mocks the simmering tempo. Although admittedly uneven, Fearless was the first of two Family titles to make an impact in the States, where it peaked at a modest number 177 in February of 1972.

by Lindsay Planer
Tracklist:

01. Between Blue And Me 05:03
02. Sat'd'y Barfly 04:00
03. Larf And Sing 02:46
04. Spanish Tide 04:03
05. Save Some For Thee 03:43
06. Take Your Partners 06:28
07. Children 02:19
08. Crinkly Grin 01:07
09. Blind 04:05
10. Burning Bridges 04:44

Exact Audio Copy V1.0 beta 3 from 29. August 2011

EAC extraction logfile from 19. February 2013, 20:40

Family / Fearless

Used drive : PLEXTOR BD-R PX-B950SA Adapter: 6 ID: 0

Read mode : Secure
Utilize accurate stream : Yes
Defeat audio cache : Yes
Make use of C2 pointers : No

Read offset correction : 6
Overread into Lead-In and Lead-Out : No
Fill up missing offset samples with silence : Yes
Delete leading and trailing silent blocks : No
Null samples used in CRC calculations : Yes
Used interface : Native Win32 interface for Win NT & 2000

Used output format : Internal WAV Routines
Sample format : 44.100 Hz; 16 Bit; Stereo


TOC of the extracted CD

Track | Start | Length | Start sector | End sector
––––––––––––––––––––––––––––-
1 | 0:00.00 | 5:03.19 | 0 | 22743
2 | 5:03.19 | 4:00.52 | 22744 | 40795
3 | 9:03.71 | 2:46.44 | 40796 | 53289
4 | 11:50.40 | 4:03.59 | 53290 | 71573
5 | 15:54.24 | 3:43.51 | 71574 | 88349
6 | 19:38.00 | 6:28.01 | 88350 | 117450
7 | 26:06.01 | 2:19.65 | 117451 | 127940
8 | 28:25.66 | 1:07.30 | 127941 | 132995
9 | 29:33.21 | 4:05.16 | 132996 | 151386
10 | 33:38.37 | 4:44.48 | 151387 | 172734


Range status and errors

Selected range

Filename C:\Users\Meijin\Desktop\Lossless Rip by ALLexxess\Family\2013 Once Open A Time (14CD Collector Box Set Snapper Music)\CD06 1971 Fearless\Family - Fearless.wav

Peak level 94.3 %
Extraction speed 6.9 X
Range quality 100.0 %
Test CRC 1E9AF77E
Copy CRC 1E9AF77E
Copy OK

No errors occurred


AccurateRip summary

Track 1 not present in database
Track 2 not present in database
Track 3 not present in database
Track 4 not present in database
Track 5 not present in database
Track 6 not present in database
Track 7 not present in database
Track 8 not present in database
Track 9 not present in database
Track 10 not present in database

None of the tracks are present in the AccurateRip database

End of status report

foobar2000 1.1.18 / Dynamic Range Meter 1.1.1
log date: 2013-02-25 00:34:47

––––––––––––––––––––––––––––––––––––––––
Analyzed: Family / Fearless
––––––––––––––––––––––––––––––––––––––––

DR Peak RMS Duration Track
––––––––––––––––––––––––––––––––––––––––
DR7 -0.51 dB -10.37 dB 5:03 01-Between Blue And Me
DR9 -0.51 dB -11.57 dB 4:01 02-Sat'd'y Barfly
DR8 -0.51 dB -10.73 dB 2:47 03-Larf And Sing
DR7 -0.51 dB -10.51 dB 4:04 04-Spanish Tide
DR7 -0.51 dB -9.25 dB 3:44 05-Save Some For Thee
DR9 -0.51 dB -12.04 dB 6:28 06-Take Your Partners
DR12 -0.51 dB -15.66 dB 2:20 07-Children
DR8 -0.51 dB -10.93 dB 1:07 08-Crinkly Grin
DR9 -0.51 dB -10.96 dB 4:05 09-Blind
DR7 -0.51 dB -10.34 dB 4:45 10-Burning Bridges
––––––––––––––––––––––––––––––––––––––––

Number of tracks: 10
Official DR value: DR8

Samplerate: 44100 Hz
Channels: 2
Bits per sample: 16
Bitrate: 825 kbps
Codec: FLAC

===========================

Victoria (2016) [Season 1]

CD7: Family - Bandstand (1972)
EAC Rip | Flac(Image) + Cue + Log & MP3 CBR 320Kbps
SMABX999/5 | ~ 271 or 114 Mb | Scans(png) -> 150 Mb
Psychedelic Rock / Progressive Rock

Now this was more like it. Kicking off with the wickedly salacious "Burlesque," Bandstand was the best of the late Family recordings. For a band that for the most part eschewed riffs and hooks, both are in plentiful supply here. More important, by the time of Bandstand's release, Family had reconciled the war between their art-rock and hard rock tendencies; that is to say, there is more of the latter and less of the former. So, the record doesn't have the internal stress of their earlier releases, but what it does have is Chapman shouting like he could take on the world and Whitney playing like he must have when he formed the Farinas in 1962. A corker from the word go.

by John Dougan
Tracklist:

01. Burlesque 04:06
02. Bolero Babe 04:40
03. Coronation 03:51
04. Dark Eyes 01:48
05. Broken Nose 04:12
06. My Friend The Sun 04:22
07. Glove 04:52
08. Ready To Go 04:38
09. Top Of The Hill 05:43
Bonus Track:
10. The Rocking R's 03:31

Bonus Track: B-Side to K14196 Burlesque released September 1972

Exact Audio Copy V1.0 beta 3 from 29. August 2011

EAC extraction logfile from 19. February 2013, 20:13

Family / Bandstand

Used drive : PLEXTOR BD-R PX-B950SA Adapter: 6 ID: 0

Read mode : Secure
Utilize accurate stream : Yes
Defeat audio cache : Yes
Make use of C2 pointers : No

Read offset correction : 6
Overread into Lead-In and Lead-Out : No
Fill up missing offset samples with silence : Yes
Delete leading and trailing silent blocks : No
Null samples used in CRC calculations : Yes
Used interface : Native Win32 interface for Win NT & 2000

Used output format : Internal WAV Routines
Sample format : 44.100 Hz; 16 Bit; Stereo


TOC of the extracted CD

Track | Start | Length | Start sector | End sector
––––––––––––––––––––––––––––-
1 | 0:00.00 | 4:06.21 | 0 | 18470
2 | 4:06.21 | 4:40.41 | 18471 | 39511
3 | 8:46.62 | 3:51.07 | 39512 | 56843
4 | 12:37.69 | 1:48.47 | 56844 | 64990
5 | 14:26.41 | 4:12.43 | 64991 | 83933
6 | 18:39.09 | 4:22.10 | 83934 | 103593
7 | 23:01.19 | 4:52.20 | 103594 | 125513
8 | 27:53.39 | 4:38.15 | 125514 | 146378
9 | 32:31.54 | 5:43.00 | 146379 | 172103
10 | 38:14.54 | 3:31.66 | 172104 | 187994


Range status and errors

Selected range

Filename C:\Users\Meijin\Desktop\Lossless Rip by ALLexxess\Family\2013 Once Open A Time (14CD Collector Box Set Snapper Music)\CD07 1972 Bandstand\Family - Bandstand.wav

Peak level 95.3 %
Extraction speed 7.0 X
Range quality 99.9 %
Test CRC FA1BAB05
Copy CRC FA1BAB05
Copy OK

No errors occurred


AccurateRip summary

Track 1 not present in database
Track 2 not present in database
Track 3 not present in database
Track 4 not present in database
Track 5 not present in database
Track 6 not present in database
Track 7 not present in database
Track 8 not present in database
Track 9 not present in database
Track 10 not present in database

None of the tracks are present in the AccurateRip database

End of status report

foobar2000 1.1.18 / Dynamic Range Meter 1.1.1
log date: 2013-02-25 00:35:12

––––––––––––––––––––––––––––––––––––––––
Analyzed: Family / Bandstand
––––––––––––––––––––––––––––––––––––––––

DR Peak RMS Duration Track
––––––––––––––––––––––––––––––––––––––––
DR7 -0.76 dB -10.76 dB 4:06 01-Burlesque
DR8 -1.09 dB -12.19 dB 4:41 02-Bolero Babe
DR7 -0.84 dB -11.39 dB 3:51 03-Coronation
DR9 -1.97 dB -15.23 dB 1:49 04-Dark Eyes
DR7 -0.94 dB -9.42 dB 4:13 05-Broken Nose
DR13 -1.07 dB -17.84 dB 4:22 06-My Friend The Sun
DR7 -0.97 dB -10.88 dB 4:52 07-Glove
DR7 -0.41 dB -10.28 dB 4:38 08-Ready To Go
DR9 -0.46 dB -12.92 dB 5:43 09-Top Of The Hill
DR8 -0.71 dB -10.68 dB 3:32 10-The Rocking R's / Bonus Track
––––––––––––––––––––––––––––––––––––––––

Number of tracks: 10
Official DR value: DR8

Samplerate: 44100 Hz
Channels: 2
Bits per sample: 16
Bitrate: 816 kbps
Codec: FLAC

===========================

Victoria (2016) [Season 1]

CD8: Family - It's Only A Movie (1973)
EAC Rip | Flac(Image) + Cue + Log & MP3 CBR 320Kbps
SMABX999/6 | ~ 252 or 113 Mb | Scans(png) -> 147 Mb
Psychedelic Rock / Progressive Rock

For a swan song, this is pretty a good one. Generally, at this point in a band's career, when personnel changes become more frequent, live shows become more unpredictable, and substance use seems to become more central to the band than singing and songwriting, you would think that Family (a band that partied as hard as any) would simply cough up a final piece of dreck and say so long. But Movie is a relaxed, funny and funky record, almost sunny in disposition. The songs take a while to worm their way in, but once they do, tracks like "Boots N Roots" and "Boom Bang," with their swagger and sway, end up sounding as good as any of the band's previous work. Totally ignored upon release, Movie was one of those records that seemed to go directly into the cutout bins, a fitting end to Family's career in America.

by John Dougan
Tracklist:

01. It's Only A Movie 05:10
02. Leroy 05:43
03. Buffet Tea For Two 05:18
04. Boom Bang 03:04
05. Boots 'N' Roots 05:02
06. Banger (Instrumental) 03:09
07. Sweet Desiree 03:44
08. Suspicion 03:25
09. Check Out 04:29

Exact Audio Copy V1.0 beta 3 from 29. August 2011

EAC extraction logfile from 19. February 2013, 19:44

Family / It's Only A Movie

Used drive : PLEXTOR BD-R PX-B950SA Adapter: 6 ID: 0

Read mode : Secure
Utilize accurate stream : Yes
Defeat audio cache : Yes
Make use of C2 pointers : No

Read offset correction : 6
Overread into Lead-In and Lead-Out : No
Fill up missing offset samples with silence : Yes
Delete leading and trailing silent blocks : No
Null samples used in CRC calculations : Yes
Used interface : Native Win32 interface for Win NT & 2000

Used output format : Internal WAV Routines
Sample format : 44.100 Hz; 16 Bit; Stereo


TOC of the extracted CD

Track | Start | Length | Start sector | End sector
––––––––––––––––––––––––––––-
1 | 0:00.00 | 5:10.22 | 0 | 23271
2 | 5:10.22 | 5:43.04 | 23272 | 49000
3 | 10:53.26 | 5:18.65 | 49001 | 72915
4 | 16:12.16 | 3:04.70 | 72916 | 86785
5 | 19:17.11 | 5:02.37 | 86786 | 109472
6 | 24:19.48 | 3:09.47 | 109473 | 123694
7 | 27:29.20 | 3:44.05 | 123695 | 140499
8 | 31:13.25 | 3:25.07 | 140500 | 155881
9 | 34:38.32 | 4:29.04 | 155882 | 176060


Range status and errors

Selected range

Filename C:\Users\Meijin\Desktop\Lossless Rip by ALLexxess\Family\2013 Once Open A Time (14CD Collector Box Set Snapper Music)\CD08 1973 It's Only A Movie\Family - It's Only A Movie.wav

Peak level 93.2 %
Extraction speed 7.0 X
Range quality 100.0 %
Test CRC 56FEE53B
Copy CRC 56FEE53B
Copy OK

No errors occurred


AccurateRip summary

Track 1 not present in database
Track 2 not present in database
Track 3 not present in database
Track 4 not present in database
Track 5 not present in database
Track 6 not present in database
Track 7 not present in database
Track 8 not present in database
Track 9 not present in database

None of the tracks are present in the AccurateRip database

End of status report

foobar2000 1.1.18 / Dynamic Range Meter 1.1.1
log date: 2013-02-25 00:35:36

––––––––––––––––––––––––––––––––––––––––
Analyzed: Family / It's Only A Movie
––––––––––––––––––––––––––––––––––––––––

DR Peak RMS Duration Track
––––––––––––––––––––––––––––––––––––––––
DR8 -0.61 dB -10.63 dB 5:10 01-It's Only A Movie
DR8 -0.61 dB -10.90 dB 5:43 02-Leroy
DR8 -0.61 dB -11.81 dB 5:19 03-Buffet Tea For Two
DR7 -0.61 dB -9.26 dB 3:05 04-Boom Bang
DR12 -0.61 dB -15.44 dB 5:02 05-Boots 'N' Roots
DR10 -0.61 dB -12.17 dB 3:10 06-Banger (Instrumental)
DR9 -0.61 dB -10.97 dB 3:44 07-Sweet Desiree
DR8 -0.61 dB -10.63 dB 3:25 08-Suspicion
DR7 -0.61 dB -9.80 dB 4:29 09-Check Out
––––––––––––––––––––––––––––––––––––––––

Number of tracks: 9
Official DR value: DR9

Samplerate: 44100 Hz
Channels: 2
Bits per sample: 16
Bitrate: 789 kbps
Codec: FLAC

===========================

Victoria (2016) [Season 1]

CD9: Family - Family Live (2003) Recorded 1971
EAC Rip | Flac(Image) + Cue + Log & MP3 CBR 320Kbps
SMABX999/7 | ~ 366 or 145 Mb | Scans(png) -> 103 Mb
Psychedelic Rock / Progressive Rock

Tracklist:

01. Good News - Bad News 08:23
02. Spanish Tide 04:13
03. Part Of The Load 09:28
04. Drowned In Wine 04:12
05. Holding The Compass 04:05
06. Between Blue And Me 05:28
07. Children 02:40
08. In My Own Time 03:26
09. Take Your Partners 06:21
10. The Weaver's Answer 08:23

Exact Audio Copy V1.0 beta 3 from 29. August 2011

EAC extraction logfile from 19. February 2013, 19:15

Family / Family Live: Recorded 1971

Used drive : PLEXTOR BD-R PX-B950SA Adapter: 6 ID: 0

Read mode : Secure
Utilize accurate stream : Yes
Defeat audio cache : Yes
Make use of C2 pointers : No

Read offset correction : 6
Overread into Lead-In and Lead-Out : No
Fill up missing offset samples with silence : Yes
Delete leading and trailing silent blocks : No
Null samples used in CRC calculations : Yes
Used interface : Native Win32 interface for Win NT & 2000

Used output format : Internal WAV Routines
Sample format : 44.100 Hz; 16 Bit; Stereo


TOC of the extracted CD

Track | Start | Length | Start sector | End sector
––––––––––––––––––––––––––––-
1 | 0:00.00 | 8:23.42 | 0 | 37766
2 | 8:23.42 | 4:13.60 | 37767 | 56801
3 | 12:37.27 | 9:28.52 | 56802 | 99453
4 | 22:06.04 | 4:12.56 | 99454 | 118409
5 | 26:18.60 | 4:05.66 | 118410 | 136850
6 | 30:24.51 | 5:28.22 | 136851 | 161472
7 | 35:52.73 | 2:40.06 | 161473 | 173478
8 | 38:33.04 | 3:26.68 | 173479 | 188996
9 | 41:59.72 | 6:21.64 | 188997 | 217635
10 | 48:21.61 | 8:23.05 | 217636 | 255365


Range status and errors

Selected range

Filename C:\Users\Meijin\Desktop\Lossless Rip by ALLexxess\Family\2013 Once Open A Time (14CD Collector Box Set Snapper Music)\CD09 2003 Family Live (Recorded 1971)\Family - Family Live (Recorded 1971).wav

Peak level 93.2 %
Extraction speed 7.7 X
Range quality 100.0 %
Test CRC FFDBA111
Copy CRC FFDBA111
Copy OK

No errors occurred


AccurateRip summary

Track 1 not present in database
Track 2 not present in database
Track 3 not present in database
Track 4 not present in database
Track 5 not present in database
Track 6 not present in database
Track 7 not present in database
Track 8 not present in database
Track 9 not present in database
Track 10 not present in database

None of the tracks are present in the AccurateRip database

End of status report

foobar2000 1.1.18 / Dynamic Range Meter 1.1.1
log date: 2013-02-25 00:36:03

––––––––––––––––––––––––––––––––––––––––
Analyzed: Family / Family Live: Recorded 1971
––––––––––––––––––––––––––––––––––––––––

DR Peak RMS Duration Track
––––––––––––––––––––––––––––––––––––––––
DR8 -0.61 dB -11.30 dB 8:24 01-Good News - Bad News
DR9 -0.61 dB -12.14 dB 4:14 02-Spanish Tide
DR10 -0.61 dB -13.70 dB 9:29 03-Part Of The Load
DR9 -0.61 dB -12.52 dB 4:13 04-Drowned In Wine
DR10 -0.61 dB -12.52 dB 4:06 05-Holding The Compass
DR9 -0.61 dB -12.33 dB 5:28 06-Between Blue And Me
DR11 -0.61 dB -15.25 dB 2:40 07-Children
DR8 -0.61 dB -9.72 dB 3:27 08-In My Own Time
DR10 -0.61 dB -12.34 dB 6:22 09-Take Your Partners
DR9 -0.61 dB -11.91 dB 8:23 10-Weaver's Answer
––––––––––––––––––––––––––––––––––––––––

Number of tracks: 10
Official DR value: DR9

Samplerate: 44100 Hz
Channels: 2
Bits per sample: 16
Bitrate: 833 kbps
Codec: FLAC

===========================

Victoria (2016) [Season 1]

CD10-11: Family - Once Upon A Time & More (2013)
EAC Rip | Flac(Image) + Cue + Log & MP3 CBR 320Kbps
2CD | SMABX999/8 | ~ 712 or 280 Mb | Scans(png) -> 122 Mb
Psychedelic Rock / Progressive Rock

Tracklist CD1:

01. Part Of The Load (Backing Track) 05:02
02. Lives And Ladies (Instrumental) 06:53
03. Sat'd'y Barfly (Instrumental / No Horn) 04:50
04. Sat'd'y Barfly (Instrumental #1 / Guide Track, No Horn Studio Chatter) 03:06
05. Sat'd'y Barfly (Instrumental #2 / Guide Track, More Studio Chatter) 04:33
06. Studio Chat #1 00:34
07. Studio Chat #2 00:41
08. Spanish Tide (Instrumental #1) 04:11
09. Spanish Tide (Instrumental #2) 01:38
10. Spanish Tide (Instrumental #3) 03:53
11. Spanish Tide (with Spoken Intro) 12:43
12. Spanish Tide (Instrumental #4) 04:13

Exact Audio Copy V1.0 beta 3 from 29. August 2011

EAC extraction logfile from 19. February 2013, 13:11

Family / Once Upon A Time & More CD1

Used drive : PLEXTOR BD-R PX-B950SA Adapter: 6 ID: 0

Read mode : Secure
Utilize accurate stream : Yes
Defeat audio cache : Yes
Make use of C2 pointers : No

Read offset correction : 6
Overread into Lead-In and Lead-Out : No
Fill up missing offset samples with silence : Yes
Delete leading and trailing silent blocks : No
Null samples used in CRC calculations : Yes
Used interface : Native Win32 interface for Win NT & 2000

Used output format : Internal WAV Routines
Sample format : 44.100 Hz; 16 Bit; Stereo


TOC of the extracted CD

Track | Start | Length | Start sector | End sector
––––––––––––––––––––––––––––-
1 | 0:00.00 | 5:02.67 | 0 | 22716
2 | 5:02.67 | 6:53.12 | 22717 | 53703
3 | 11:56.04 | 4:50.00 | 53704 | 75453
4 | 16:46.04 | 3:06.47 | 75454 | 89450
5 | 19:52.51 | 4:33.24 | 89451 | 109949
6 | 24:26.00 | 0:34.20 | 109950 | 112519
7 | 25:00.20 | 0:41.12 | 112520 | 115606
8 | 25:41.32 | 4:11.12 | 115607 | 134443
9 | 29:52.44 | 1:38.12 | 134444 | 141805
10 | 31:30.56 | 3:53.57 | 141806 | 159337
11 | 35:24.38 | 12:43.66 | 159338 | 216628
12 | 48:08.29 | 4:13.19 | 216629 | 235622


Range status and errors

Selected range

Filename C:\Users\Meijin\Desktop\Lossless Rip by ALLexxess\Family\2013 Once Open A Time (14CD Collector Box Set Snapper Music)\CD10 2013 Once Upon A Time & More 2CD\CD1\Family - Once Upon A Time & More CD1.wav

Peak level 91.2 %
Extraction speed 7.5 X
Range quality 100.0 %
Test CRC A23E8235
Copy CRC A23E8235
Copy OK

No errors occurred


AccurateRip summary

Track 1 not present in database
Track 2 not present in database
Track 3 not present in database
Track 4 not present in database
Track 5 not present in database
Track 6 not present in database
Track 7 not present in database
Track 8 not present in database
Track 9 not present in database
Track 10 not present in database
Track 11 not present in database
Track 12 not present in database

None of the tracks are present in the AccurateRip database

End of status report

foobar2000 1.1.18 / Dynamic Range Meter 1.1.1
log date: 2013-02-25 00:36:28

––––––––––––––––––––––––––––––––––––––––
Analyzed: Family / Once Upon A Time & More CD1
––––––––––––––––––––––––––––––––––––––––

DR Peak RMS Duration Track
––––––––––––––––––––––––––––––––––––––––
DR8 -0.80 dB -11.08 dB 5:03 01-Part Of The Load (Backing Track)
DR6 -0.80 dB -10.20 dB 6:53 02-Lives And Ladies (Instrumental)
DR9 -0.80 dB -11.79 dB 4:50 03-Sat'd'y Barfly (Instrumental / No Horn)
DR9 -0.80 dB -11.46 dB 3:07 04-Sat'd'y Barfly (Instrumental #1 / Guide Track, No Horn Studio Chatter)
DR9 -0.80 dB -12.22 dB 4:33 05-Sat'd'y Barfly (Instrumental #2 / Guide Track, More Studio Chatter)
DR11 -0.80 dB -20.76 dB 0:34 06-Studio Chat #1
DR12 -0.93 dB -16.69 dB 0:41 07-Studio Chat #2
DR9 -0.80 dB -12.39 dB 4:11 08-Spanish Tide (Instrumental #1)
DR10 -0.80 dB -15.75 dB 1:38 09-Spanish Tide (Instrumental #2)
DR10 -0.80 dB -12.71 dB 3:54 10-Spanish Tide (Instrumental #3)
DR10 -0.80 dB -13.10 dB 12:44 11-Spanish Tide (with Spoken Intro)
DR10 -0.80 dB -13.09 dB 4:13 12-Spanish Tide (Instrumental #4)
––––––––––––––––––––––––––––––––––––––––

Number of tracks: 12
Official DR value: DR9

Samplerate: 44100 Hz
Channels: 2
Bits per sample: 16
Bitrate: 846 kbps
Codec: FLAC

Tracklist CD2:

01. Burlesque (Instrumental) 04:12
02. Bolero Babe (Rough Mix) 04:45
03. My Friend The Sun (Instrumental / Part Vocal) 04:24
04. My Friend The Sun (Guide Track #1 / Part Vocal) 04:45
05. My Friend The Sun (Guide Track #2 / Part Vocal) 04:33
06. Ready To Go (Alternate Take #1) 04:36
07. Ready To Go (Alternate Take #2) 04:36
08. Ready To Go (Alternate Take #3) 04:37
09. Top Of The Hill (Alternate Take) 05:41
10. Boom Bang (Instrumental / Part Vocal) 05:01
11. Suspicion (No Brass) 03:33
12. Check Out (Instrumental) 04:46
13. Stop This Car (Alternate Version of B-Side to 'Boom Bang') 04:41

Exact Audio Copy V1.0 beta 3 from 29. August 2011

EAC extraction logfile from 19. February 2013, 12:44

Family / Once Upon A Time & More CD2

Used drive : PLEXTOR BD-R PX-B950SA Adapter: 6 ID: 0

Read mode : Secure
Utilize accurate stream : Yes
Defeat audio cache : Yes
Make use of C2 pointers : No

Read offset correction : 6
Overread into Lead-In and Lead-Out : No
Fill up missing offset samples with silence : Yes
Delete leading and trailing silent blocks : No
Null samples used in CRC calculations : Yes
Used interface : Native Win32 interface for Win NT & 2000

Used output format : Internal WAV Routines
Sample format : 44.100 Hz; 16 Bit; Stereo


TOC of the extracted CD

Track | Start | Length | Start sector | End sector
––––––––––––––––––––––––––––-
1 | 0:00.00 | 4:12.25 | 0 | 18924
2 | 4:12.25 | 4:45.68 | 18925 | 40367
3 | 8:58.18 | 4:24.31 | 40368 | 60198
4 | 13:22.49 | 4:45.24 | 60199 | 81597
5 | 18:07.73 | 4:33.60 | 81598 | 102132
6 | 22:41.58 | 4:36.24 | 102133 | 122856
7 | 27:18.07 | 4:36.65 | 122857 | 143621
8 | 31:54.72 | 4:37.18 | 143622 | 164414
9 | 36:32.15 | 5:41.34 | 164415 | 190023
10 | 42:13.49 | 5:01.44 | 190024 | 212642
11 | 47:15.18 | 3:33.55 | 212643 | 228672
12 | 50:48.73 | 4:46.00 | 228673 | 250122
13 | 55:34.73 | 4:41.60 | 250123 | 271257


Range status and errors

Selected range

Filename C:\Users\Meijin\Desktop\Lossless Rip by ALLexxess\Family\2013 Once Open A Time (14CD Collector Box Set Snapper Music)\CD10 2013 Once Upon A Time & More 2CD\CD2\Family - Once Upon A Time & More CD2.wav

Peak level 91.2 %
Extraction speed 7.8 X
Range quality 100.0 %
Test CRC 1EC5552A
Copy CRC 1EC5552A
Copy OK

No errors occurred


AccurateRip summary

Track 1 not present in database
Track 2 not present in database
Track 3 not present in database
Track 4 not present in database
Track 5 not present in database
Track 6 not present in database
Track 7 not present in database
Track 8 not present in database
Track 9 not present in database
Track 10 not present in database
Track 11 not present in database
Track 12 not present in database
Track 13 not present in database

None of the tracks are present in the AccurateRip database

End of status report

foobar2000 1.1.18 / Dynamic Range Meter 1.1.1
log date: 2013-02-25 00:37:14

––––––––––––––––––––––––––––––––––––––––
Analyzed: Family / Once Upon A Time & More CD2
––––––––––––––––––––––––––––––––––––––––

DR Peak RMS Duration Track
––––––––––––––––––––––––––––––––––––––––
DR10 -0.80 dB -12.61 dB 4:12 01-Burlesque (Instrumental)
DR11 -0.80 dB -16.24 dB 4:46 02-Bolero Babe (Rough Mix)
DR12 -1.78 dB -17.72 dB 4:24 03-My Friend The Sun (Instrumental / Part Vocal)
DR16 -2.19 dB -21.77 dB 4:45 04-My Friend The Sun (Guide Track #1 / Part Vocal)
DR15 -0.80 dB -18.80 dB 4:34 05-My Friend The Sun (Guide Track #2 / Part Vocal)
DR11 -0.80 dB -13.57 dB 4:36 06-Ready To Go (Alternate Take #1)
DR10 -0.80 dB -12.58 dB 4:37 07-Ready To Go (Alternate Take #2)
DR9 -0.80 dB -11.71 dB 4:37 08-Ready To Go (Alternate Take #3)
DR10 -1.01 dB -14.71 dB 5:41 09-Top Of The Hill (Alternate Take)
DR11 -0.80 dB -13.75 dB 5:02 10-Boom Bang (Instrumental / Part Vocal)
DR12 -0.80 dB -14.66 dB 3:34 11-Suspicion (No Brass)
DR12 -0.80 dB -14.40 dB 4:46 12-Check Out (Instrumental)
DR14 -0.80 dB -17.71 dB 4:42 13-Stop This Car (Alternate Version of B-Side to 'Boom Bang')
––––––––––––––––––––––––––––––––––––––––

Number of tracks: 13
Official DR value: DR12

Samplerate: 44100 Hz
Channels: 2
Bits per sample: 16
Bitrate: 812 kbps
Codec: FLAC

===========================

Victoria (2016) [Season 1]

CD12: Family - In My Own Time (1971) Single
EAC Rip | Flac(Image) + Cue + Log & MP3 CBR 320Kbps
SMABX999/CDS1 | ~ 68 or 44 Mb
Psychedelic Rock / Progressive Rock

Tracklist:

01. In My Own Time 03:34
02. Seasons 02:20

Exact Audio Copy V1.0 beta 3 from 29. August 2011

EAC extraction logfile from 19. February 2013, 12:04

Family / In My Own Time: Single

Used drive : PLEXTOR BD-R PX-B950SA Adapter: 6 ID: 0

Read mode : Secure
Utilize accurate stream : Yes
Defeat audio cache : Yes
Make use of C2 pointers : No

Read offset correction : 6
Overread into Lead-In and Lead-Out : No
Fill up missing offset samples with silence : Yes
Delete leading and trailing silent blocks : No
Null samples used in CRC calculations : Yes
Used interface : Native Win32 interface for Win NT & 2000

Used output format : Internal WAV Routines
Sample format : 44.100 Hz; 16 Bit; Stereo


TOC of the extracted CD

Track | Start | Length | Start sector | End sector
––––––––––––––––––––––––––––-
1 | 0:00.00 | 3:34.74 | 0 | 16123
2 | 3:34.74 | 2:20.12 | 16124 | 26635


Range status and errors

Selected range

Filename C:\Users\Meijin\Desktop\Lossless Rip by ALLexxess\Family\2013 Once Open A Time (14CD Collector Box Set Snapper Music)\CD11 1971 In My Own Time (Single)\Family - In My Own Time (Single).wav

Peak level 91.5 %
Extraction speed 5.8 X
Range quality 100.0 %
Test CRC 5237EC92
Copy CRC 5237EC92
Copy OK

No errors occurred


AccurateRip summary

Track 1 not present in database
Track 2 not present in database

None of the tracks are present in the AccurateRip database

End of status report

foobar2000 1.1.18 / Dynamic Range Meter 1.1.1
log date: 2013-02-25 00:37:42

––––––––––––––––––––––––––––––––––––––––
Analyzed: Family / In My Own Time: Single
––––––––––––––––––––––––––––––––––––––––

DR Peak RMS Duration Track
––––––––––––––––––––––––––––––––––––––––
DR8 -0.76 dB -10.92 dB 3:35 01-In My Own Time
DR9 -1.11 dB -12.76 dB 2:20 02-Seasons
––––––––––––––––––––––––––––––––––––––––

Number of tracks: 2
Official DR value: DR8

Samplerate: 44100 Hz
Channels: 2
Bits per sample: 16
Bitrate: 842 kbps
Codec: FLAC

===========================

Victoria (2016) [Season 1]

CD13: Family - Boom Bang (1973) Single
EAC Rip | Flac(Image) + Cue + Log & MP3 CBR 320Kbps
SMABX999/CDS2 | ~ 65 or 45 Mb
Psychedelic Rock / Progressive Rock

Tracklist:

01. Boom Bang 03:06
02. Stop This Car 02:58

Exact Audio Copy V1.0 beta 3 from 29. August 2011

EAC extraction logfile from 19. February 2013, 11:48

Family / Boom Bang: Single

Used drive : PLEXTOR BD-R PX-B950SA Adapter: 6 ID: 0

Read mode : Secure
Utilize accurate stream : Yes
Defeat audio cache : Yes
Make use of C2 pointers : No

Read offset correction : 6
Overread into Lead-In and Lead-Out : No
Fill up missing offset samples with silence : Yes
Delete leading and trailing silent blocks : No
Null samples used in CRC calculations : Yes
Used interface : Native Win32 interface for Win NT & 2000

Used output format : Internal WAV Routines
Sample format : 44.100 Hz; 16 Bit; Stereo


TOC of the extracted CD

Track | Start | Length | Start sector | End sector
––––––––––––––––––––––––––––-
1 | 0:00.00 | 3:06.22 | 0 | 13971
2 | 3:06.22 | 2:58.18 | 13972 | 27339


Range status and errors

Selected range

Filename C:\Users\Meijin\Desktop\Lossless Rip by ALLexxess\Family\2013 Once Open A Time (14CD Collector Box Set Snapper Music)\CD12 1973 Boom Bang (Single)\Family - Boom Bang (Single).wav

Peak level 92.1 %
Extraction speed 4.3 X
Range quality 99.9 %
Test CRC F1C02A00
Copy CRC F1C02A00
Copy OK

No errors occurred


AccurateRip summary

Track 1 not present in database
Track 2 not present in database

None of the tracks are present in the AccurateRip database

End of status report

foobar2000 1.1.18 / Dynamic Range Meter 1.1.1
log date: 2013-02-25 00:37:58

––––––––––––––––––––––––––––––––––––––––
Analyzed: Family / Boom Bang: Single
––––––––––––––––––––––––––––––––––––––––

DR Peak RMS Duration Track
––––––––––––––––––––––––––––––––––––––––
DR8 -0.71 dB -10.48 dB 3:06 01-Boom Bang
DR13 -1.59 dB -17.42 dB 2:58 02-Stop This Car
––––––––––––––––––––––––––––––––––––––––

Number of tracks: 2
Official DR value: DR10

Samplerate: 44100 Hz
Channels: 2
Bits per sample: 16
Bitrate: 742 kbps
Codec: FLAC

===========================

Victoria (2016) [Season 1]

CD14: Family - Sweet Desiree (1973) Single
EAC Rip | Flac(Image) + Cue + Log & MP3 CBR 320Kbps
SMABX999/CDS3 | ~ 73 or 49 Mb
Psychedelic Rock / Progressive Rock

Tracklist:

01. Sweet Desiree 03:50
02. Drink To You 03:50

Exact Audio Copy V1.0 beta 3 from 29. August 2011

EAC extraction logfile from 19. February 2013, 11:29

Family / Sweet Desiree: Single

Used drive : PLEXTOR BD-R PX-B950SA Adapter: 6 ID: 0

Read mode : Secure
Utilize accurate stream : Yes
Defeat audio cache : Yes
Make use of C2 pointers : No

Read offset correction : 6
Overread into Lead-In and Lead-Out : No
Fill up missing offset samples with silence : Yes
Delete leading and trailing silent blocks : No
Null samples used in CRC calculations : Yes
Used interface : Native Win32 interface for Win NT & 2000

Used output format : Internal WAV Routines
Sample format : 44.100 Hz; 16 Bit; Stereo


TOC of the extracted CD

Track | Start | Length | Start sector | End sector
––––––––––––––––––––––––––––-
1 | 0:00.00 | 3:50.58 | 0 | 17307
2 | 3:50.58 | 3:34.33 | 17308 | 33390


Range status and errors

Selected range

Filename C:\Users\Meijin\Desktop\Lossless Rip by ALLexxess\Family\2013 Once Open A Time (14CD Collector Box Set Snapper Music)\CD13 1973 Sweet Desiree (Single)\Family - Sweet Desiree (Single).wav

Peak level 92.1 %
Extraction speed 5.5 X
Range quality 99.9 %
Test CRC DEB22793
Copy CRC DEB22793
Copy OK

No errors occurred


AccurateRip summary

Track 1 not present in database
Track 2 not present in database

None of the tracks are present in the AccurateRip database

End of status report

foobar2000 1.1.18 / Dynamic Range Meter 1.1.1
log date: 2013-02-25 00:38:13

––––––––––––––––––––––––––––––––––––––––
Analyzed: Family / Sweet Desiree: Single
––––––––––––––––––––––––––––––––––––––––

DR Peak RMS Duration Track
––––––––––––––––––––––––––––––––––––––––
DR9 -0.71 dB -11.51 dB 3:51 01-Sweet Desiree
DR9 -0.71 dB -11.36 dB 3:34 02-Drink To You
––––––––––––––––––––––––––––––––––––––––

Number of tracks: 2
Official DR value: DR9

Samplerate: 44100 Hz
Channels: 2
Bits per sample: 16
Bitrate: 749 kbps
Codec: FLAC

All thanks go to ALLexxess

Download amily - Once Upon A Time (2013):