Tags
Language
Tags

Famous Groupies - Chameleon Sessions (2021)

Posted By: popsakov
Famous Groupies - Chameleon Sessions (2021)

Famous Groupies - Chameleon Sessions (2021)
EAC Rip | FLAC (Img) + Cue + Log ~ 466 Mb | MP3 CBR320 ~ 199 Mb
Full Scans | 01:18:07 | RAR 5% Recovery
Pop Rock, Soft Rock, Power Pop | Orange Records

A Scottish band with a crush on all things McCartney. Kirkcaldy McKenzie and the Famous Groupies are a kind of a mystery group and are heavily influenced by McCartney and Wings.

"We are delighted to announce that our fourth and ultimately final album has been unleashed upon this world. We have spent these past 8 months working away on these 15 (technically 16) songs, and fruition has arrived. We set you free, Chameleon sessions…"

"Famous Groupies music is funny, PROLIFIC, joyful, masterfully crafted, intriguing, nostalgic, coded, adventurous, mystical, magical…basically every element a being secretly hopes to experience when listening to music! Just all around SATISFYING" ~ Curt Clendenin

***************

Track List:

01. Starlight [3:23]
02. Voodoo Woman [2:48]
03. I Think I'm In Love [3:25]
04. Marianne [2:52]
05. The Continental [3:49]
06. Probably Just As Well [3:26]
07. Prelude To A Shooting Star/Dog [3:55]
08. Mr. Songwriter Dude [3:12]
09. Girl In My World [3:05]
10. I Am [2:56]
11. Find Me In The Morning [2:22]
12. (I Wanna Be) Close To You [3:00]
13. This World Wonders [3:25]
14. Alice Spur Overture [3:43]
15. Song For The Insomniac [32:51]

Exact Audio Copy V1.6 from 23. October 2020

Отчёт EAC об извлечении, выполненном 11. ноября 2021, 15:25

Famous Groupies / Chameleon Sessions

Дисковод: ATAPI iHAS122 F Adapter: 1 ID: 0

Режим чтения : Достоверность
Использование точного потока : Да
Отключение кэша аудио : Да
Использование указателей C2 : Нет

Коррекция смещения при чтении : 6
Способность читать области Lead-in и Lead-out : Нет
Заполнение пропущенных сэмплов тишиной : Да
Удаление блоков с тишиной в начале и конце : Нет
При вычислениях CRC использовались нулевые сэмплы : Да
Интерфейс : Встроенный Win32-интерфейс для Win NT/2000

Выходной формат : Пользовательский кодировщик
Выбранный битрейт : 1024 kBit/s
Качество : Высокий
Добавление ID3-тега : Нет
Утилита сжатия : C:\Program Files (x86)\Exact Audio Copy\FLAC\FLAC.EXE
Дополнительные параметры : -6 -V -T "ARTIST=%artist%" -T "TITLE=%title%" -T "ALBUM=%albumtitle%" -T "DATE=%year%" -T "TRACKNUMBER=%tracknr%" -T "GENRE=%genre%" -T "COMMENT=%comment%" -T "BAND=%albuminterpret%" -T "ALBUMARTIST=%albuminterpret%" -T "COMPOSER=%composer%" %haslyrics%–tag-from-file=LYRICS="%lyricsfile%"%haslyrics% -T "DISCNUMBER=%cdnumber%" -T "TOTALDISCS=%totalcds%" -T "TOTALTRACKS=%numtracks%" %hascover%–picture="%coverfile%"%hascover% %source% -o %dest%


TOC извлечённого CD

Трек | Старт | Длительность | Начальный сектор | Конечный сектор
––––––––––––––––––––––––––––––––––-
1 | 0:00.00 | 3:22.47 | 0 | 15196
2 | 3:22.47 | 2:47.71 | 15197 | 27792
3 | 6:10.43 | 3:24.64 | 27793 | 43156
4 | 9:35.32 | 2:51.27 | 43157 | 56008
5 | 12:26.59 | 3:48.18 | 56009 | 73126
6 | 16:15.02 | 3:25.43 | 73127 | 88544
7 | 19:40.45 | 3:54.09 | 88545 | 106103
8 | 23:34.54 | 3:11.70 | 106104 | 120498
9 | 26:46.49 | 3:04.64 | 120499 | 134362
10 | 29:51.38 | 2:55.68 | 134363 | 147555
11 | 32:47.31 | 2:21.07 | 147556 | 158137
12 | 35:08.38 | 2:59.69 | 158138 | 171631
13 | 38:08.32 | 3:24.45 | 171632 | 186976
14 | 41:33.02 | 3:42.65 | 186977 | 203691
15 | 45:15.67 | 32:50.16 | 203692 | 351457


Характеристики диапазона извлечения и сообщения об ошибках

Выбранный диапазон

Имя файла E:\Torrents-seed\Famous Groupies - 2020\2021 - Chameleon Sessions\Famous Groupies - Chameleon Sessions.wav

Пиковый уровень 100.0 %
Скорость извлечения 9.9 X
Качество диапазона 100.0 %
CRC теста EF42CD0F
CRC копии EF42CD0F
Копирование… OK

Ошибок не произошло


AccurateRip: сводка

Трек 1 отсутствует в базе данных
Трек 2 отсутствует в базе данных
Трек 3 отсутствует в базе данных
Трек 4 отсутствует в базе данных
Трек 5 отсутствует в базе данных
Трек 6 отсутствует в базе данных
Трек 7 отсутствует в базе данных
Трек 8 отсутствует в базе данных
Трек 9 отсутствует в базе данных
Трек 10 отсутствует в базе данных
Трек 11 отсутствует в базе данных
Трек 12 отсутствует в базе данных
Трек 13 отсутствует в базе данных
Трек 14 отсутствует в базе данных
Трек 15 отсутствует в базе данных

Ни одного трека нет в базе AccurateRip

Конец отчёта

==== Контрольная сумма отчёта E7CB1A6B65B4A4D0C25DBEBB5731566F651267F41391827063A5DE01C42D0DD8 ====

See also:

Famous Groupies - The Furry White Album (2020)

All thanks go to Condrаt

>>> My Blog <<<

DOWNLOAD: