Subcategories

Fats Domino - 20 Rock'n'roll Hits (1995)

Posted By: jclane
Fats Domino - 20 Rock'n'roll Hits (1995)

Fats Domino - 20 Rock'n'roll Hits (1995)
XLD Rip | FLAC Image + Cue + Log | 216 MB | Complete Scans, 600 dpi JPEG | 59 MB
MP3 CBR @320 kbps (LAME 3.99) | Joint Stereo | 107 MB
EMI | 7243 8 33424 2 6 | Rock & Roll | RAR 3% Recovery

The most popular exponent of the classic New Orleans R&B sound, Fats Domino sold more records than any other black rock & roll star of the 1950s. His relaxed, lolling boogie-woogie piano style and easygoing, warm vocals anchored a long series of national hits from the mid-'50s to the early '60s. Through it all, his basic approach rarely changed. He may not have been one of early rock's most charismatic, innovative, or threatening figures, but he was certainly one of its most consistent.

Domino's first single, "The Fat Man" (1949), is one of the dozens of tracks that have been consistently singled out as a candidate for the first rock & roll record. As far as Fats was concerned, he was just playing what he'd already been doing in New Orleans for years, and would continue to play and sing in pretty much the same fashion even after his music was dubbed "rock & roll."

The record made number two on the R&B charts, and sold a million copies. Just as important, it established a vital partnership between Fats and Imperial A&R man Dave Bartholomew. Bartholomew, himself a trumpeter, would produce Domino's big hits, co-writing many of them with Fats. He would also usually employ New Orleans session greats like Alvin Tyler on sax and Earl Palmer on drums – musicians who were vital in establishing New Orleans R&B as a distinct entity, playing on many other local recordings as well (including hits made in New Orleans by Georgia native Little Richard).

Domino didn't cross over into the pop charts in a big way until 1955, when "Ain't That a Shame" made the Top Ten. Pat Boone's cover of the song stole some of Fats' thunder, going all the way to number one (Boone was also bowdlerizing Little Richard's early singles for pop hits during this time). Domino's long-range prospects weren't damaged, however; between 1955 and 1963, he racked up an astonishing 35 Top 40 singles. "Blueberry Hill" (1956) was probably his best (and best-remembered) single; "Walking to New Orleans," "Whole Lotta Loving," "I'm Walking," "Blue Monday," and "I'm in Love Again" were also huge successes.

After Fats left Imperial for ABC-Paramount in 1963, he would only enter the Top 40 one more time. The surprise was not that Fats fell out of fashion, but that he'd maintained his popularity so long while the essentials of his style remained unchanged. This was during an era, remember, when most of rock's biggest stars had their careers derailed by death or scandal, or were made to soften up their sound for mainstream consumption. Although an active performer in the ensuing decades, his career as an important artist was essentially over in the mid-'60s. He did stir up a bit of attention in 1968 when he covered the Beatles' "Lady Madonna" single, which had been an obvious homage to Fats' style.


Track Listing:

01. Blueberry Hill - Lewis, Stock, Rose - 2:25
02. Be My Guest - Domino, Marascalco, Boyce - 2:00
03. My Girl Josephine - Bartholomew, Domino - 1:59
04. I Hear You Knocking - Bartholomew, King - 1:54
05. The Fat Man - Bartholomew, Domino - 2:35
06. Blue Monday - Bartholomew, Domino - 2:14
07. Walking To New Orleans - Bartholomew, Domino, Guidry - 1:54
08. Ain't That A Shame - Bartholomew, Domino - 2:24
09. My Blue Heaven - Whiting, Donaldson - 2:04
10. I Want To Walk You Home - Domino - 2:21
11. Whole Lotta Loving - Bartholomew, Domino - 1:38
12. Country Boy - Bartholomew, Domino - 2:13
13. Let The Four Winds Blow - Bartholomew, Domino - 2:01
14. It Keeps Raining - Bartholomew, Domino - 2:42
15. Jambalaya (On The Bayou) - Hank Williams - 2:24
16. I'm Ready - Durand, King, Obichaux - 2:21
17. Going To The River - Bartholomew, Domino - 2:29
18. I'm Walkin' - Bartholomew, Domino - 2:02
19. Goin' Home - Young, Domino - 2:10
20. Red Sails In The Sunset - Williams , Kennedy - 1:52


X Lossless Decoder version 20120407 (140.0)

XLD extraction logfile from 2012-04-26 00:17:47 +0300

Fats Domino / 20 Rock'n Roll Hits

Used drive : MATSHITA DVD-R UJ-898 (revision HC09)

Ripper mode : XLD Secure Ripper
Disable audio cache : OK for the drive with a cache less than 1375KiB
Make use of C2 pointers : NO
Read offset correction : 102
Max retry count : 20
Gap status : Analyzed, Appended

TOC of the extracted CD
Track | Start | Length | Start sector | End sector
––––––––––––––––––––––––––––-
1 | 00:00:30 | 02:29:44 | 30 | 11248
2 | 02:29:74 | 02:02:69 | 11249 | 20467
3 | 04:32:68 | 02:03:02 | 20468 | 29694
4 | 06:35:70 | 01:58:03 | 29695 | 38547
5 | 08:33:73 | 02:39:08 | 38548 | 50480
6 | 11:13:06 | 02:25:08 | 50481 | 61363
7 | 13:38:14 | 02:02:60 | 61364 | 70573
8 | 15:40:74 | 02:34:25 | 70574 | 82148
9 | 18:15:24 | 02:07:59 | 82149 | 91732
10 | 20:23:08 | 02:22:69 | 91733 | 102451
11 | 22:46:02 | 01:42:44 | 102452 | 110145
12 | 24:28:46 | 02:18:31 | 110146 | 120526
13 | 26:47:02 | 02:05:25 | 120527 | 129926
14 | 28:52:27 | 02:42:37 | 129927 | 142113
15 | 31:34:64 | 02:27:24 | 142114 | 153162
16 | 34:02:13 | 02:05:64 | 153163 | 162601
17 | 36:08:02 | 02:34:08 | 162602 | 174159
18 | 38:42:10 | 02:06:10 | 174160 | 183619
19 | 40:48:20 | 02:14:63 | 183620 | 193732
20 | 43:03:08 | 02:00:38 | 193733 | 202770

AccurateRip Summary
Track 01 : OK (confidence 1)
Track 02 : OK (confidence 1)
Track 03 : OK (confidence 1)
Track 04 : OK (confidence 1)
Track 05 : OK (confidence 1)
Track 06 : OK (confidence 1)
Track 07 : OK (confidence 1)
Track 08 : OK (confidence 1)
Track 09 : OK (confidence 1)
Track 10 : OK (confidence 1)
Track 11 : OK (confidence 1)
Track 12 : OK (confidence 1)
Track 13 : OK (confidence 1)
Track 14 : OK (confidence 1)
Track 15 : OK (confidence 1)
Track 16 : OK (confidence 1)
Track 17 : OK (confidence 1)
Track 18 : OK (confidence 1)
Track 19 : OK (confidence 1)
Track 20 : OK (confidence 1)
->All tracks accurately ripped.

All Tracks
Filename : /Users/macuser/Music/myRips/fats domino-20 rock'n'roll hits(1995)/01 Fats Domino - 20 Rock'n Roll Hits.flac
Album gain : -8.55 dB
Peak : 0.955811
CRC32 hash (test run) : 11CC6E2F
CRC32 hash : 11CC6E2F
CRC32 hash (skip zero) : 89727B6B
Statistics
Read error : 0
Jitter error (maybe fixed) : 0
Retry sector count : 0
Damaged sector count : 0

Track 01
Pre-gap length : 00:02:30

Track gain : -8.17 dB
Peak : 0.919586
CRC32 hash (test run) : FAF0472A
CRC32 hash : FAF0472A
CRC32 hash (skip zero) : 12A17F41
AccurateRip signature : 7B6E7F5E
->Accurately ripped! (confidence 1)
Statistics
Read error : 0
Jitter error (maybe fixed) : 0
Retry sector count : 0
Damaged sector count : 0

Track 02

Track gain : -8.15 dB
Peak : 0.914154
CRC32 hash (test run) : 97EFC832
CRC32 hash : 97EFC832
CRC32 hash (skip zero) : A5C7E437
AccurateRip signature : 87DC863D
->Accurately ripped! (confidence 1)
Statistics
Read error : 0
Jitter error (maybe fixed) : 0
Retry sector count : 0
Damaged sector count : 0

Track 03

Track gain : -6.52 dB
Peak : 0.901459
CRC32 hash (test run) : 38C5BD8A
CRC32 hash : 38C5BD8A
CRC32 hash (skip zero) : 5FAEEAD4
AccurateRip signature : 067FF415
->Accurately ripped! (confidence 1)
Statistics
Read error : 0
Jitter error (maybe fixed) : 0
Retry sector count : 0
Damaged sector count : 0

Track 04

Track gain : -7.43 dB
Peak : 0.915375
CRC32 hash (test run) : B9B3BAD1
CRC32 hash : B9B3BAD1
CRC32 hash (skip zero) : 97B00EFE
AccurateRip signature : 278C8F36
->Accurately ripped! (confidence 1)
Statistics
Read error : 0
Jitter error (maybe fixed) : 0
Retry sector count : 0
Damaged sector count : 0

Track 05

Track gain : -7.88 dB
Peak : 0.899261
CRC32 hash (test run) : 505DEC6A
CRC32 hash : 505DEC6A
CRC32 hash (skip zero) : 1B23C49C
AccurateRip signature : 428D22D8
->Accurately ripped! (confidence 1)
Statistics
Read error : 0
Jitter error (maybe fixed) : 0
Retry sector count : 0
Damaged sector count : 0

Track 06

Track gain : -7.33 dB
Peak : 0.908813
CRC32 hash (test run) : 81150FBB
CRC32 hash : 81150FBB
CRC32 hash (skip zero) : 5DB1A137
AccurateRip signature : 9FED0FEB
->Accurately ripped! (confidence 1)
Statistics
Read error : 0
Jitter error (maybe fixed) : 0
Retry sector count : 0
Damaged sector count : 0

Track 07

Track gain : -7.50 dB
Peak : 0.912415
CRC32 hash (test run) : A348E836
CRC32 hash : A348E836
CRC32 hash (skip zero) : 1AF091C2
AccurateRip signature : E9B18B72
->Accurately ripped! (confidence 1)
Statistics
Read error : 0
Jitter error (maybe fixed) : 0
Retry sector count : 0
Damaged sector count : 0

Track 08

Track gain : -7.99 dB
Peak : 0.918793
CRC32 hash (test run) : FE8CFBCC
CRC32 hash : FE8CFBCC
CRC32 hash (skip zero) : 69C95585
AccurateRip signature : C2845BB4
->Accurately ripped! (confidence 1)
Statistics
Read error : 0
Jitter error (maybe fixed) : 0
Retry sector count : 0
Damaged sector count : 0

Track 09

Track gain : -8.71 dB
Peak : 0.918182
CRC32 hash (test run) : D7F9CADF
CRC32 hash : D7F9CADF
CRC32 hash (skip zero) : C53B7843
AccurateRip signature : 432CA9DF
->Accurately ripped! (confidence 1)
Statistics
Read error : 0
Jitter error (maybe fixed) : 0
Retry sector count : 0
Damaged sector count : 0

Track 10

Track gain : -8.54 dB
Peak : 0.916016
CRC32 hash (test run) : 6972CB37
CRC32 hash : 6972CB37
CRC32 hash (skip zero) : 110A1D10
AccurateRip signature : 7814D5BC
->Accurately ripped! (confidence 1)
Statistics
Read error : 0
Jitter error (maybe fixed) : 0
Retry sector count : 0
Damaged sector count : 0

Track 11

Track gain : -9.15 dB
Peak : 0.914246
CRC32 hash (test run) : 47715086
CRC32 hash : 47715086
CRC32 hash (skip zero) : B999D7E1
AccurateRip signature : E6F92A4E
->Accurately ripped! (confidence 1)
Statistics
Read error : 0
Jitter error (maybe fixed) : 0
Retry sector count : 0
Damaged sector count : 0

Track 12

Track gain : -7.70 dB
Peak : 0.921997
CRC32 hash (test run) : 7C54C2C7
CRC32 hash : 7C54C2C7
CRC32 hash (skip zero) : DAF807F7
AccurateRip signature : 1505AC05
->Accurately ripped! (confidence 1)
Statistics
Read error : 0
Jitter error (maybe fixed) : 0
Retry sector count : 0
Damaged sector count : 0

Track 13

Track gain : -8.01 dB
Peak : 0.910126
CRC32 hash (test run) : D01470D4
CRC32 hash : D01470D4
CRC32 hash (skip zero) : F455C7F6
AccurateRip signature : 3E2BC01A
->Accurately ripped! (confidence 1)
Statistics
Read error : 0
Jitter error (maybe fixed) : 0
Retry sector count : 0
Damaged sector count : 0

Track 14

Track gain : -8.37 dB
Peak : 0.921661
CRC32 hash (test run) : 7AEA2C2C
CRC32 hash : 7AEA2C2C
CRC32 hash (skip zero) : 828C2076
AccurateRip signature : 49813B3E
->Accurately ripped! (confidence 1)
Statistics
Read error : 0
Jitter error (maybe fixed) : 0
Retry sector count : 0
Damaged sector count : 0

Track 15

Track gain : -9.40 dB
Peak : 0.917938
CRC32 hash (test run) : 199AE291
CRC32 hash : 199AE291
CRC32 hash (skip zero) : A679533E
AccurateRip signature : 26701CBA
->Accurately ripped! (confidence 1)
Statistics
Read error : 0
Jitter error (maybe fixed) : 0
Retry sector count : 0
Damaged sector count : 0

Track 16

Track gain : -9.66 dB
Peak : 0.918396
CRC32 hash (test run) : A85AD96C
CRC32 hash : A85AD96C
CRC32 hash (skip zero) : BAF2849B
AccurateRip signature : E669C63B
->Accurately ripped! (confidence 1)
Statistics
Read error : 0
Jitter error (maybe fixed) : 0
Retry sector count : 0
Damaged sector count : 0

Track 17

Track gain : -9.51 dB
Peak : 0.922333
CRC32 hash (test run) : A2C15123
CRC32 hash : A2C15123
CRC32 hash (skip zero) : 947CD782
AccurateRip signature : C6414CFE
->Accurately ripped! (confidence 1)
Statistics
Read error : 0
Jitter error (maybe fixed) : 0
Retry sector count : 0
Damaged sector count : 0

Track 18

Track gain : -8.39 dB
Peak : 0.905701
CRC32 hash (test run) : E958E53F
CRC32 hash : E958E53F
CRC32 hash (skip zero) : 49E7BD1E
AccurateRip signature : E0AB5713
->Accurately ripped! (confidence 1)
Statistics
Read error : 0
Jitter error (maybe fixed) : 0
Retry sector count : 0
Damaged sector count : 0

Track 19

Track gain : -9.45 dB
Peak : 0.911499
CRC32 hash (test run) : 578DFCBF
CRC32 hash : 578DFCBF
CRC32 hash (skip zero) : 76C13AF5
AccurateRip signature : 4BAF4E87
->Accurately ripped! (confidence 1)
Statistics
Read error : 0
Jitter error (maybe fixed) : 0
Retry sector count : 0
Damaged sector count : 0

Track 20

Track gain : -7.58 dB
Peak : 0.955811
CRC32 hash (test run) : 040DEA4F
CRC32 hash : 040DEA4F
CRC32 hash (skip zero) : A7DF7801
AccurateRip signature : C98B790B
->Accurately ripped! (confidence 1)
Statistics
Read error : 0
Jitter error (maybe fixed) : 0
Retry sector count : 0
Damaged sector count : 0

No errors occurred

End of status report


[CUETools log; Date: 5/13/2012 8:18:00 PM; Version: 2.1.2a]
Pregap length 00:00:30.
[CTDB TOCID: HOhWPU1DQ6ychekZJCk4SEXogRE-] disk not present in database.
[AccurateRip ID: 00208632-01dd65ed-0e0a8f14] found.
Track [ CRC ] Status
01 [7b6e7f5e] (1/1) Accurately ripped
02 [87dc863d] (1/1) Accurately ripped
03 [067ff415] (1/1) Accurately ripped
04 [278c8f36] (1/1) Accurately ripped
05 [428d22d8] (1/1) Accurately ripped
06 [9fed0feb] (1/1) Accurately ripped
07 [e9b18b72] (1/1) Accurately ripped
08 [c2845bb4] (1/1) Accurately ripped
09 [432ca9df] (1/1) Accurately ripped
10 [7814d5bc] (1/1) Accurately ripped
11 [e6f92a4e] (1/1) Accurately ripped
12 [1505ac05] (1/1) Accurately ripped
13 [3e2bc01a] (1/1) Accurately ripped
14 [49813b3e] (1/1) Accurately ripped
15 [26701cba] (1/1) Accurately ripped
16 [e669c63b] (1/1) Accurately ripped
17 [c6414cfe] (1/1) Accurately ripped
18 [e0ab5713] (1/1) Accurately ripped
19 [4baf4e87] (1/1) Accurately ripped
20 [c98b790b] (1/1) Accurately ripped

Track Peak [ CRC32 ] [W/O NULL]
– 95.5 [11CC6E2F] [89727B6B]
01 91.9 [FAF0472A] [12A17F41]
02 91.4 [97EFC832] [A5C7E437]
03 90.1 [38C5BD8A] [5FAEEAD4]
04 91.5 [B9B3BAD1] [97B00EFE]
05 89.9 [505DEC6A] [1B23C49C]
06 90.8 [81150FBB] [5DB1A137]
07 91.2 [A348E836] [1AF091C2]
08 91.8 [FE8CFBCC] [69C95585]
09 91.8 [D7F9CADF] [C53B7843]
10 91.6 [6972CB37] [110A1D10]
11 91.4 [47715086] [B999D7E1]
12 92.2 [7C54C2C7] [DAF807F7]
13 91.0 [D01470D4] [F455C7F6]
14 92.1 [7AEA2C2C] [828C2076]
15 91.7 [199AE291] [A679533E]
16 91.8 [A85AD96C] [BAF2849B]
17 92.2 [A2C15123] [947CD782]
18 90.5 [E958E53F] [49E7BD1E]
19 91.1 [578DFCBF] [76C13AF5]
20 95.5 [040DEA4F] [A7DF7801]


Released Date: 1995
Format: CD, Compilation
Length: 45:03
Made in Holland

Fats Domino - 20 Rock'n'roll Hits (1995)

Fats Domino - 20 Rock'n'roll Hits (1995)


––––––––––––––––––––––––––––––––––––––––


Thanks to igaann

The files are interchangeable!… No Mirrors Please!!!