Subcategories

Finnegans Wake - Yellow (1994)

Posted By: gribovar
Finnegans Wake - Yellow (1994)

Finnegans Wake - Yellow (1994)
EAC Rip | FLAC (tracks+.cue+log) - 223 MB | MP3 CBR 320 kbps (LAME 3.93) - 92 MB | Covers - 63 MB
Genre: Progressive Rock, Avant-Prog | RAR 3% Rec. | Label: Mellow Records (MMP 256)

Musically Finnegans Wake is a strange mix of jazz-rock with some RIO chamber rock. The group is mostly a trio with Jean-Louis Aucremanne on keyboards, Alain Lemaitre on bass and drums (and programmed percussions), Henry Krutzen on almost everything else (including sax and cello) and vocals except for the guitars, handled by Michael Ouchinsky, but there are many other guests including Wendy Ruymen on violin.

Tracklist:
01. Chamber Music
02. Wooden Horses
03. King Wenceslas
04. El Cid
05. For Joelle
06. Last Poem
07. Standards to You

Total time: 38:39

Exact Audio Copy V1.0 beta 4 from 7. December 2014

EAC extraction logfile from 8. February 2019, 20:10

Finnegans Wake / Yellow

Used drive : ATAPI iHAS124 F Adapter: 1 ID: 0

Read mode : Secure
Utilize accurate stream : Yes
Defeat audio cache : Yes
Make use of C2 pointers : No

Read offset correction : 6
Overread into Lead-In and Lead-Out : No
Fill up missing offset samples with silence : Yes
Delete leading and trailing silent blocks : No
Null samples used in CRC calculations : Yes
Used interface : Native Win32 interface for Win NT & 2000
Gap handling : Appended to previous track

Used output format : User Defined Encoder
Selected bitrate : 896 kBit/s
Quality : High
Add ID3 tag : No
Command line compressor : C:\Program Files\flac-1.3.2-win\win64\flac.exe
Additional command line options : -8 -V -T "ARTIST=%artist%" -T "TITLE=%title%" -T "ALBUM=%albumtitle%" -T "DATE=%year%" -T "TRACKNUMBER=%tracknr%" -T "GENRE=%genre%" -T "COMMENT=ripped by vp_sunset" %source% -o %dest%


TOC of the extracted CD

Track | Start | Length | Start sector | End sector
––––––––––––––––––––––––––––-
1 | 0:00.00 | 6:05.72 | 0 | 27446
2 | 6:05.72 | 5:56.67 | 27447 | 54213
3 | 12:02.64 | 3:57.13 | 54214 | 72001
4 | 16:00.02 | 11:20.65 | 72002 | 123066
5 | 27:20.67 | 1:56.53 | 123067 | 131819
6 | 29:17.45 | 4:07.25 | 131820 | 150369
7 | 33:24.70 | 5:14.12 | 150370 | 173931


Track 1

Filename C:\_EAC\01. Chamber Music.wav

Pre-gap length 0:00:02.00

Peak level 90.8 %
Extraction speed 5.6 X
Track quality 100.0 %
Test CRC 18BCAEF0
Copy CRC 18BCAEF0
Accurately ripped (confidence 2) [8868672A] (AR v1)
Copy OK

Track 2

Filename C:\_EAC\02. Wooden Horses.wav

Peak level 90.9 %
Extraction speed 5.7 X
Track quality 99.9 %
Test CRC F7843B02
Copy CRC F7843B02
Accurately ripped (confidence 2) [D2854960] (AR v1)
Copy OK

Track 3

Filename C:\_EAC\03. King Wenceslas.wav

Peak level 91.7 %
Extraction speed 6.7 X
Track quality 100.0 %
Test CRC 21E17B53
Copy CRC 21E17B53
Accurately ripped (confidence 2) [9CEF1B2B] (AR v1)
Copy OK

Track 4

Filename C:\_EAC\04. El Cid.wav

Peak level 78.5 %
Extraction speed 8.2 X
Track quality 100.0 %
Test CRC 23760278
Copy CRC 23760278
Accurately ripped (confidence 2) [D71B20B0] (AR v1)
Copy OK

Track 5

Filename C:\_EAC\05. For Joelle.wav

Peak level 19.5 %
Extraction speed 7.1 X
Track quality 100.0 %
Test CRC 157DE5AE
Copy CRC 157DE5AE
Accurately ripped (confidence 2) [4A22D0FE] (AR v1)
Copy OK

Track 6

Filename C:\_EAC\06. Last Poem.wav

Peak level 84.9 %
Extraction speed 7.1 X
Track quality 99.9 %
Test CRC F24A13A0
Copy CRC F24A13A0
Accurately ripped (confidence 2) [2FE9CD5C] (AR v1)
Copy OK

Track 7

Filename C:\_EAC\07. Standards to You.wav

Peak level 78.6 %
Extraction speed 9.1 X
Track quality 100.0 %
Test CRC D359C0AD
Copy CRC D359C0AD
Accurately ripped (confidence 2) [511CD0F1] (AR v1)
Copy OK


All tracks accurately ripped

No errors occurred

End of status report

–– CUETools DB Plugin V2.1.4

[CTDB TOCID: XZjLt0rKtT.8deDw8LtrhNmyc9k-] found
Submit result: XZjLt0rKtT.8deDw8LtrhNmyc9k- has been confirmed
Track | CTDB Status
1 | (3/3) Accurately ripped
2 | (3/3) Accurately ripped
3 | (3/3) Accurately ripped
4 | (3/3) Accurately ripped
5 | (3/3) Accurately ripped
6 | (3/3) Accurately ripped
7 | (3/3) Accurately ripped


==== Log checksum 9E22C3AA21AAC8177EBADD4A6878BA8D525408FF90B4ECFD11EBA97D3F3E4ED0 ====

[CUETools log; Date: 11.02.2019 23:30:09; Version: 2.1.4]
[CTDB TOCID: XZjLt0rKtT.8deDw8LtrhNmyc9k-] found.
Track | CTDB Status
1 | (4/4) Accurately ripped
2 | (4/4) Accurately ripped
3 | (4/4) Accurately ripped
4 | (4/4) Accurately ripped
5 | (4/4) Accurately ripped
6 | (4/4) Accurately ripped
7 | (4/4) Accurately ripped
[AccurateRip ID: 000b2eb4-00427706-5b090f07] found.
Track [ CRC | V2 ] Status
01 [8868672a|05431189] (2+0/2) Accurately ripped
02 [d2854960|034aa5e1] (2+0/2) Accurately ripped
03 [9cef1b2b|038c1fe2] (2+0/2) Accurately ripped
04 [d71b20b0|cecbe572] (2+0/2) Accurately ripped
05 [4a22d0fe|7c685f8b] (2+0/2) Accurately ripped
06 [2fe9cd5c|2da3930a] (2+0/2) Accurately ripped
07 [511cd0f1|ac03cb1e] (2+0/2) Accurately ripped

Track Peak [ CRC32 ] [W/O NULL] [ LOG ]
– 91,7 [C3858F6C] [F80EB37D]
01 90,8 [18BCAEF0] [8FF8F231] CRC32
02 90,9 [F7843B02] [49041642] CRC32
03 91,7 [21E17B53] [EA5B097E] CRC32
04 78,5 [23760278] [ADEDC9C5] CRC32
05 19,5 [157DE5AE] [8A0A1B7B] CRC32
06 84,9 [F24A13A0] [C6FB20E0] CRC32
07 78,6 [D359C0AD] [02E47020] CRC32

Thanks to vp_sunset