Subcategories

Fleetwood Mac - Heroes Are Hard To Find (1974) [Warner Music Japan, WPCR-14585] Repost

Posted By: v3122
Fleetwood Mac - Heroes Are Hard To Find (1974) [Warner Music Japan, WPCR-14585] Repost

Fleetwood Mac - Heroes Are Hard To Find (1974)
EAC | Flac(Image) + Cue + Log & MP3 CBR 320Kbps
Warner Music Japan, WPCR-14585 | ~ 244 or 96 Mb | Scans(png) -> 183 Mb
Classic Rock, Pop Rock

Although this was Bob Welch's last album with the band he had worked with since 1971, it sounds like he's at his peak. Pared down to a foursome for the first and (as of 2002) only time since the addition of Danny Kirwan, both Welch and Christine McVie contribute some of their finest songs. Bolstered by sympathetic self-production and imaginative, often aggressive arrangements that include brassy horns on the title track (a blatant but failed attempt at a hit single), the album is one of their most cohesive yet diverse. Welch continues his fascination with UFOs in a sort of follow-up to Mystery to Me's "Hypnotized" called "Bermuda Triangle" and even heads into a spacy Hendrix "Third Stone From the Sun" groove on "Coming Home." Christine McVie is in wonderful voice on her own ballads like "Prove Your Love" but outdoes herself on the magnificent "Come a Little Bit Closer," a stunning track whose grandeur is heightened by strings and McVie's majestic piano. It's a hidden classic and pedal steel by the Flying Burrito Brothers' Sneaky Pete Kleinow is an unexpected and perfect addition to the album's most fully realized tune. Welch's folk-pop "She's Changing Me" is one of his most upbeat, memorable melodies, offset by the rocker "Silver Heels" and his closing "Safe Harbor," a knowing nod back to Peter Green's atmospheric work on "Albatross" and his contributions to Then Play On. McVie's haunting rocker "Bad Loser" is reinforced by the propulsive rhythm section of Mick Fleetwood and John McVie, both adding tense bite to even the most tender of ballads. Welch left soon after the album's release, and the group went on to bigger and better things, but Heroes is a minor gem that retains its effortless pop charms and contains some buried jewels in the extensive Fleetwood Mac catalog.

by Hal Horowitz, allmusic
Fleetwood Mac - Heroes Are Hard To Find (1974):

Fleetwood Mac - Heroes Are Hard To Find (1974) [Warner Music Japan, WPCR-14585] Repost

Tracklist:

01. Heroes Are Hard To Find 03:36
02. Coming Home 03:54
03. Angel 03:54
04. Bermuda Triangle 04:08
05. Come A Little Closer 04:48
06. She's Changing Me 02:59
07. Bad Loser 03:25
08. Silver Heels 03:27
09. Prove Your Love 03:58
10. Born Enchanter 02:54
11. Safe Harbour 02:32

Exact Audio Copy V1.0 beta 3 from 29. August 2011

EAC extraction logfile from 27. October 2013, 18:56

Fleetwood Mac / Heroes Are Hard To Find

Used drive : PLEXTOR BD-R PX-B950SA Adapter: 6 ID: 0

Read mode : Secure
Utilize accurate stream : Yes
Defeat audio cache : Yes
Make use of C2 pointers : No

Read offset correction : 6
Overread into Lead-In and Lead-Out : No
Fill up missing offset samples with silence : Yes
Delete leading and trailing silent blocks : No
Null samples used in CRC calculations : Yes
Used interface : Native Win32 interface for Win NT & 2000

Used output format : Internal WAV Routines
Sample format : 44.100 Hz; 16 Bit; Stereo


TOC of the extracted CD

Track | Start | Length | Start sector | End sector
––––––––––––––––––––––––––––-
1 | 0:00.00 | 3:36.17 | 0 | 16216
2 | 3:36.17 | 3:54.58 | 16217 | 33824
3 | 7:31.00 | 3:54.41 | 33825 | 51415
4 | 11:25.41 | 4:08.21 | 51416 | 70036
5 | 15:33.62 | 4:48.08 | 70037 | 91644
6 | 20:21.70 | 2:59.60 | 91645 | 105129
7 | 23:21.55 | 3:25.52 | 105130 | 120556
8 | 26:47.32 | 3:27.53 | 120557 | 136134
9 | 30:15.10 | 3:58.30 | 136135 | 154014
10 | 34:13.40 | 2:54.67 | 154015 | 167131
11 | 37:08.32 | 2:32.03 | 167132 | 178534


Range status and errors

Selected range

Filename C:\Users\Meijin\Desktop\ALLexxess\Fleetwood Mac\1974 Heroes Are Hard To Find (Mini LP SHM-CD Warner Japan 2013)\Fleetwood Mac - Heroes Are Hard To Find.wav

Peak level 100.0 %
Extraction speed 6.6 X
Range quality 99.9 %
Test CRC 575FB353
Copy CRC 575FB353
Copy OK

No errors occurred


AccurateRip summary

Track 1 not present in database
Track 2 not present in database
Track 3 not present in database
Track 4 not present in database
Track 5 not present in database
Track 6 not present in database
Track 7 not present in database
Track 8 not present in database
Track 9 not present in database
Track 10 not present in database
Track 11 not present in database

None of the tracks are present in the AccurateRip database

End of status report

==== Log checksum 10E7BF55BA444E69B976DC4EF6A91761E75F9643BCCB1C513D024BFEB3EAD7C9 ====


[CUETools log; Date: 31.05.2018 15:56:09; Version: 2.1.5]
[AccurateRip ID: 00112924-0093ccd8-83094c0b] found.
Track [ CRC | V2 ] Status
01 [a451b8dd|ef3242a9] (0+8/8) Accurately ripped
02 [1fed1251|dbf9fe0c] (0+8/8) Accurately ripped
03 [ef6d9588|9619fa74] (0+8/8) Accurately ripped
04 [627fd6fa|e0e18dad] (0+8/8) Accurately ripped
05 [398bf616|e7032785] (0+8/8) Accurately ripped
06 [02b09d4f|14b6cf4b] (0+8/8) Accurately ripped
07 [e9fd13a7|87e3eabd] (0+8/8) Accurately ripped
08 [6345e3d5|c07684c3] (0+8/8) Accurately ripped
09 [902a07d9|856aaeca] (0+8/8) Accurately ripped
10 [1c99f15f|1573f274] (0+8/8) Accurately ripped
11 [b58f9334|56b2fa4a] (0+8/8) Accurately ripped

Track Peak [ CRC32 ] [W/O NULL] [ LOG ]
– 100,0 [575FB353] [5BFCE2FE] CRC32
01 100,0 [E767354C] [4A4C33D1]
02 94,2 [F26BAA4F] [AE8100B7]
03 100,0 [5BE8A804] [F351F9C6]
04 100,0 [578FAB3A] [3E54D32A]
05 100,0 [12D2E95C] [9EEE8FCD]
06 100,0 [E1115E64] [E59EAF1C]
07 100,0 [5B74025E] [F37AB0BC]
08 100,0 [CF633352] [9639EF3F]
09 100,0 [7A5B1543] [C4DDFC5C]
10 100,0 [04F7C362] [E1352EE2]
11 92,3 [0683D3AB] [C7D76DB3]


Fleetwood Mac - Heroes Are Hard To Find (1974) [Warner Music Japan, WPCR-14585] Repost

All thanks go to ALLexxess

Fleetwood Mac or Fleetwood Mac in my Blog

Download Fleetwood Mac - Heroes Are Hard To Find (1974):