Subcategories

Fleetwood Mac - Live: The Great Fleetwood Mac (1999)

Posted By: popsakov
Fleetwood Mac - Live: The Great Fleetwood Mac (1999)

Fleetwood Mac - Live: The Great Fleetwood Mac (1999)
EAC Rip | FLAC (Tracks) + Cue + Log + m3u ~ 291 Mb | MP3 CBR320 ~ 119 Mb
Full Scans ~ 58 Mb | 00:49:16 | RAR 5% Recovery
Blues, Blues Rock | Goldies / I.M.C. Music #GLD 63209

Though they ultimately made their name as a blues-rock band, and Peter Green's admiration of artists like Jerry Garcia eventually found its way into their music, Fleetwood Mac began as a straight-ahead blues band. A bunch of Brits devoted to the music of Chicago and the Delta, Green and company couldn't help but put their own twist on the blues, but they were simultaneously reverential towards it. This is the situation presented in this 1968 live recording.

While the sound quality is less than stellar, it's good enough to make the guitar talents of Green and Jeremy Spencer obvious, as they work up effective solos over "Got To Move," "Vuzz Me" and others. Unlike their peers, who used blues as a vehicle to something larger and louder, Mac circa '68 stuck close to their roots and made it work. The live setting proved even more inspiring for the two guitarists, whose blistering lead work is the central focus throughout this album.

~ All Music

***************

Fleetwood Mac - Live: The Great Fleetwood Mac (1999)

Fleetwood Mac - Live: The Great Fleetwood Mac (1999)

Track List:

01. Got To Move [0:05:01.50]
02. I Held My Baby Last Night [0:05:08.14]
03. My Baby's Sweet [0:03:29.66]
04. My Baby's A Good Un [0:05:08.40]
05. Don't Know Which Way To Go [0:06:23.65]
06. Buzz Me [0:03:57.35]
07. The Worried Dream [0:06:32.25]
08. The World Keeps On Turning [0:05:03.12]
09. How Blue Can You Get [0:04:06.55]
10. Bleeding Heart [0:04:24.33]

Exact Audio Copy V1.0 beta 3 from 29. August 2011

EAC extraction logfile from 17. October 2013, 14:34

Fleetwood Mac / Live. The Great Fleetwood Mac

Used drive : HL-DT-STDVDRAM GH22NS50 Adapter: 3 ID: 0

Read mode : Secure
Utilize accurate stream : Yes
Defeat audio cache : Yes
Make use of C2 pointers : No

Read offset correction : 667
Overread into Lead-In and Lead-Out : No
Fill up missing offset samples with silence : Yes
Delete leading and trailing silent blocks : No
Null samples used in CRC calculations : Yes
Used interface : Installed external ASPI interface
Gap handling : Appended to previous track

Used output format : User Defined Encoder
Selected bitrate : 1024 kBit/s
Quality : High
Add ID3 tag : No
Command line compressor : C:\MMProgram\Exact Audio Copy\FLAC\FLAC.EXE
Additional command line options : -6 -V -T "ARTIST=%artist%" -T "TITLE=%title%" -T "ALBUM=%albumtitle%" -T "DATE=%year%" -T "TRACKNUMBER=%tracknr%" -T "GENRE=%genre%" -T "COMMENT=%comment%" -T "BAND=%albuminterpret%" -T "ALBUMARTIST=%albuminterpret%" -T "COMPOSER=%composer%" %haslyrics%–tag-from-file=LYRICS="%lyricsfile%"%haslyrics% -T "DISCNUMBER=%cdnumber%" -T "TOTALDISCS=%totalcds%" -T "TOTALTRACKS=%numtracks%" %hascover%–picture="%coverfile%"%hascover% %source% -o %dest%


TOC of the extracted CD

Track | Start | Length | Start sector | End sector
––––––––––––––––––––––––––––-
1 | 0:00.00 | 5:01.50 | 0 | 22624
2 | 5:01.50 | 5:08.14 | 22625 | 45738
3 | 10:09.64 | 3:29.66 | 45739 | 61479
4 | 13:39.55 | 5:08.40 | 61480 | 84619
5 | 18:48.20 | 6:23.65 | 84620 | 113409
6 | 25:12.10 | 3:57.35 | 113410 | 131219
7 | 29:09.45 | 6:32.25 | 131220 | 160644
8 | 35:41.70 | 5:03.12 | 160645 | 183381
9 | 40:45.07 | 4:06.55 | 183382 | 201886
10 | 44:51.62 | 4:24.33 | 201887 | 221719


Track 1

Filename D:\mm\Fleetwood Mac\1999 - Live. The Great Fleetwood Mac\01 - Got To Move.wav

Pre-gap length 0:00:02.00

Peak level 80.7 %
Extraction speed 1.0 X
Track quality 100.0 %
Test CRC 73322B42
Copy CRC 73322B42
Accurately ripped (confidence 1) [F2E5A597] (AR v2)
Copy OK

Track 2

Filename D:\mm\Fleetwood Mac\1999 - Live. The Great Fleetwood Mac\02 - I Held My Baby Last Night.wav

Peak level 83.5 %
Extraction speed 1.2 X
Track quality 100.0 %
Test CRC B88E1CC3
Copy CRC B88E1CC3
Accurately ripped (confidence 1) [9F5A9D40] (AR v2)
Copy OK

Track 3

Filename D:\mm\Fleetwood Mac\1999 - Live. The Great Fleetwood Mac\03 - My Baby's Sweet.wav

Peak level 62.4 %
Extraction speed 1.2 X
Track quality 100.0 %
Test CRC 05719ADF
Copy CRC 05719ADF
Accurately ripped (confidence 1) [ACF59577] (AR v2)
Copy OK

Track 4

Filename D:\mm\Fleetwood Mac\1999 - Live. The Great Fleetwood Mac\04 - My Baby's A Good Un.wav

Peak level 77.8 %
Extraction speed 1.4 X
Track quality 100.0 %
Test CRC BADA8970
Copy CRC BADA8970
Accurately ripped (confidence 1) [42619210] (AR v2)
Copy OK

Track 5

Filename D:\mm\Fleetwood Mac\1999 - Live. The Great Fleetwood Mac\05 - Don't Know Which Way To Go.wav

Peak level 69.9 %
Extraction speed 1.6 X
Track quality 100.0 %
Test CRC 24B4C6F4
Copy CRC 24B4C6F4
Accurately ripped (confidence 1) [787E7683] (AR v2)
Copy OK

Track 6

Filename D:\mm\Fleetwood Mac\1999 - Live. The Great Fleetwood Mac\06 - Buzz Me.wav

Peak level 72.6 %
Extraction speed 0.2 X
Track quality 100.0 %
Test CRC 2779DB0D
Copy CRC 2779DB0D
Accurately ripped (confidence 1) [095E4A8A] (AR v2)
Copy OK

Track 7

Filename D:\mm\Fleetwood Mac\1999 - Live. The Great Fleetwood Mac\07 - The Worried Dream.wav

Peak level 89.9 %
Extraction speed 2.1 X
Track quality 100.0 %
Test CRC C14F1142
Copy CRC C14F1142
Accurately ripped (confidence 1) [E4F750E2] (AR v2)
Copy OK

Track 8

Filename D:\mm\Fleetwood Mac\1999 - Live. The Great Fleetwood Mac\08 - The World Keeps On Turning.wav

Peak level 58.8 %
Extraction speed 2.2 X
Track quality 100.0 %
Test CRC 0F8F3A22
Copy CRC 0F8F3A22
Accurately ripped (confidence 1) [9B90FDC9] (AR v2)
Copy OK

Track 9

Filename D:\mm\Fleetwood Mac\1999 - Live. The Great Fleetwood Mac\09 - How Blue Can You Get.wav

Peak level 80.5 %
Extraction speed 2.2 X
Track quality 100.0 %
Test CRC C9A977B1
Copy CRC C9A977B1
Accurately ripped (confidence 1) [55D41131] (AR v2)
Copy OK

Track 10

Filename D:\mm\Fleetwood Mac\1999 - Live. The Great Fleetwood Mac\10 - Bleeding Heart.wav

Peak level 87.6 %
Extraction speed 2.3 X
Track quality 100.0 %
Test CRC 865F0027
Copy CRC 865F0027
Accurately ripped (confidence 1) [2F945ED7] (AR v2)
Copy OK


All tracks accurately ripped

No errors occurred

End of status report

–– CUETools DB Plugin V2.1.3

[CTDB TOCID: BISUjWtiqGgy2jSOtrVWAtOq1MA-] disk not present in database


==== Log checksum B2121B7283CB52313B47E927B8A46E919C6D1897D3F6C6B66196CD653BE55C0B ====

Fleetwood Mac - Live: The Great Fleetwood Mac (1999)


All thanks go to sergych

>>> Fleetwood Mac in my Blog <<<

DOWNLOAD: