Subcategories

Fleetwood Mac - Fleetwood Mac Live (1980) {2000, Reissue} Repost / New Rip

Posted By: popsakov
Fleetwood Mac - Fleetwood Mac Live (1980) {2000, Reissue} Repost / New Rip

Fleetwood Mac - Fleetwood Mac Live (1980) {2000, Reissue}
2CD | EAC Rip | FLAC (Img) + Cue + Log ~ 570 Mb | MP3 CBR320 ~ 219 Mb
Full Scans (JPG, 600 dpi) ~ 48 Mb | RAR 5% Recovery
Pop Rock, Classic Rock | Warner Bros. Records #7599-27410-2

Live is a double live album released by British-American rock band Fleetwood Mac in 1980. It was the first live album from the then-current line-up of the band, and the next would be The Dance from 1997. The album was certified gold in November 1981. Live consists of recordings taken primarily from the 1979-1980 Tusk Tour, together with a few from the earlier Rumours Tour of 1977. Two songs were recorded at a Paris soundcheck and three at a performance at Santa Monica Civic Auditorium "for an audience of friends and road crew."

Of particular note are three new songs - Christine McVie's "One More Night", Stevie Nicks' "Fireflies", and a well-harmonized backstage rendition of The Beach Boys' "The Farmer's Daughter". The latter two were released as singles; "Fireflies" reached the top 60 in the US, while "The Farmer's Daughter" reached the top 10 in Austria. "Fireflies" was Nicks' rumination on the tumultuous recording of the "Tusk" album and her observance that the band stayed intact nevertheless. Her lyrics referred to band members as the "five fireflies." "Don't Let Me Down Again" is a song from the Buckingham Nicks album. Also notable are two Lindsey Buckingham guitar showcases. The first, "I'm So Afraid", was popular as a concert finale during this period. The second was Buckingham's take on former Mac guitarist Peter Green's signature number, "Oh Well" (originally a 1969 single release).
~ Wiki
Fleetwood Mac - Fleetwood Mac Live (1980) {2000, Reissue} Repost / New Rip


***************

Fleetwood Mac - Fleetwood Mac Live (1980) {2000, Reissue} Repost / New Rip

Fleetwood Mac - Fleetwood Mac Live (1980) {2000, Reissue} Repost / New Rip

Track List CD1:

01. Monday Morning [0:03:58.05]
02. Say You Love Me [0:04:16.25]
03. Dreams [0:04:19.72]
04. Oh Well [0:03:40.63]
05. Over & Over [0:05:01.02]
06. Sara [0:07:25.05]
07. Not That Funny [0:08:59.58]
08. Never Going Back Again [0:04:18.22]
09. Landslide [0:04:54.20]

Exact Audio Copy V1.0 beta 3 from 29. August 2011

EAC extraction logfile from 1. September 2015, 0:33

Fleetwood Mac / Live (CD1)

Used drive : ATAPI iHAS124 D Adapter: 0 ID: 2

Read mode : Secure
Utilize accurate stream : Yes
Defeat audio cache : Yes
Make use of C2 pointers : No

Read offset correction : 6
Overread into Lead-In and Lead-Out : No
Fill up missing offset samples with silence : Yes
Delete leading and trailing silent blocks : No
Null samples used in CRC calculations : Yes
Used interface : Installed external ASPI interface

Used output format : User Defined Encoder
Selected bitrate : 1024 kBit/s
Quality : High
Add ID3 tag : No
Command line compressor : C:\Program Files (x86)\Exact Audio Copy\Flac\flac.exe
Additional command line options : -6 -V -T "ARTIST=%artist%" -T "TITLE=%title%" -T "ALBUM=%albumtitle%" -T "DATE=%year%" -T "TRACKNUMBER=%tracknr%" -T "GENRE=%genre%" -T "COMMENT=%comment%" -T "BAND=%albuminterpret%" -T "COMPOSER=%composer%" %haslyrics%–tag-from-file=LYRICS="%lyricsfile%"%haslyrics% -T "DISCNUMBER=%cdnumber%" -T "TOTALDISCS=%totalcds%" -T "TOTALTRACKS=%numtracks%" %hascover%–picture="%coverfile%"%hascover% %source% -o %dest%


TOC of the extracted CD

Track | Start | Length | Start sector | End sector
––––––––––––––––––––––––––––-
1 | 0:00.00 | 3:58.05 | 0 | 17854
2 | 3:58.05 | 4:16.25 | 17855 | 37079
3 | 8:14.30 | 4:19.72 | 37080 | 56576
4 | 12:34.27 | 3:40.63 | 56577 | 73139
5 | 16:15.15 | 5:01.02 | 73140 | 95716
6 | 21:16.17 | 7:25.05 | 95717 | 129096
7 | 28:41.22 | 8:59.58 | 129097 | 169579
8 | 37:41.05 | 4:18.22 | 169580 | 188951
9 | 41:59.27 | 4:54.20 | 188952 | 211021


Range status and errors

Selected range

Filename C:\mm\Fleetwood Mac\1980 - Live [7599-27410-2]\Fleetwood Mac - Live (CD1).wav

Peak level 100.0 %
Extraction speed 8.4 X
Range quality 100.0 %
Test CRC 8C269021
Copy CRC 8C269021
Copy OK

No errors occurred


AccurateRip summary

Track 1 accurately ripped (confidence 40) [F3A1B6BF] (AR v2)
Track 2 accurately ripped (confidence 39) [1DD3C829] (AR v2)
Track 3 accurately ripped (confidence 39) [44B06FEF] (AR v2)
Track 4 accurately ripped (confidence 39) [874A45D3] (AR v2)
Track 5 accurately ripped (confidence 39) [C8BC5033] (AR v2)
Track 6 accurately ripped (confidence 40) [82F2D5C2] (AR v2)
Track 7 accurately ripped (confidence 39) [1914FEC9] (AR v2)
Track 8 accurately ripped (confidence 39) [7B6F4965] (AR v2)
Track 9 accurately ripped (confidence 39) [4D7F5EE5] (AR v2)

All tracks accurately ripped

End of status report

foobar2000 1.3.16 / Dynamic Range Meter 1.1.1
log date: 2018-02-04 17:32:48

––––––––––––––––––––––––––––––––––––––––
Analyzed: Fleetwood Mac / Live (CD1)
––––––––––––––––––––––––––––––––––––––––

DR Peak RMS Duration Track
––––––––––––––––––––––––––––––––––––––––
DR14 -0.74 dB -18.39 dB 3:58 01-Monday Morning
DR13 -1.05 dB -17.03 dB 4:16 02-Say You Love Me
DR13 0.00 dB -17.67 dB 4:20 03-Dreams
DR16 0.00 dB -19.32 dB 3:41 04-Oh Well
DR17 0.00 dB -20.81 dB 5:01 05-Over & Over
DR15 -1.86 dB -19.68 dB 7:25 06-Sara
DR16 -0.02 dB -20.07 dB 9:00 07-Not That Funny
DR16 -0.58 dB -23.95 dB 4:18 08-Never Going Back Again
DR13 -9.84 dB -28.66 dB 4:54 09-Landslide
––––––––––––––––––––––––––––––––––––––––

Number of tracks: 9
Official DR value: DR15

Samplerate: 44100 Hz
Channels: 2
Bits per sample: 16
Bitrate: 808 kbps
Codec: FLAC
================================================================================

[CUETools log; Date: 04.02.2018 17:32:55; Version: 2.1.5]
[CTDB TOCID: USIgiS0W_BeJSp7QH_0bph_xSOQ-] found.
Track | CTDB Status
1 | (149/153) Accurately ripped
2 | (150/153) Accurately ripped
3 | (150/153) Accurately ripped
4 | (150/153) Accurately ripped
5 | (151/153) Accurately ripped
6 | (149/153) Accurately ripped
7 | (150/153) Accurately ripped
8 | (150/153) Accurately ripped
9 | (149/153) Accurately ripped
[AccurateRip ID: 000ef04c-0070ad30-7a0afd09] found.
Track [ CRC | V2 ] Status
01 [ec88e3fd|f3a1b6bf] (011+058/142) Accurately ripped
02 [06bf1530|1dd3c829] (011+058/142) Accurately ripped
03 [588d4cad|44b06fef] (011+058/142) Accurately ripped
04 [87407f06|874a45d3] (010+058/141) Accurately ripped
05 [d2d6a407|c8bc5033] (011+059/142) Accurately ripped
06 [7488f8e8|82f2d5c2] (011+059/144) Accurately ripped
07 [6720a1b5|1914fec9] (011+058/141) Accurately ripped
08 [a48f819f|7b6f4965] (011+058/142) Accurately ripped
09 [b22ef3cb|4d7f5ee5] (011+057/141) Accurately ripped
Offsetted by 664:
01 [fecf9238] (031/142) Accurately ripped
02 [95ea234d] (031/142) Accurately ripped
03 [1464d962] (030/142) Accurately ripped
04 [fc70d871] (031/141) Accurately ripped
05 [a22b27bf] (031/142) Accurately ripped
06 [aadf7d1c] (031/144) Accurately ripped
07 [73d8ea83] (031/141) Accurately ripped
08 [69a10246] (031/142) Accurately ripped
09 [23906d5a] (031/141) Accurately ripped

Track Peak [ CRC32 ] [W/O NULL] [ LOG ]
– 100,0 [8C269021] [5EC58BE7] CRC32
01 91,8 [7A615BC1] [7EAE370A]
02 88,5 [A0C032FF] [78B21FA7]
03 100,0 [AB78721F] [5E84E484]
04 100,0 [F3422385] [C8D2875B]
05 100,0 [480E289A] [FC44D9CD]
06 80,7 [90C647D0] [4E218B21]
07 99,8 [9EB4A651] [36A3F914]
08 93,5 [538C6785] [97278AE7]
09 32,2 [335FDA50] [2E720E6D]

Fleetwood Mac - Fleetwood Mac Live (1980) {2000, Reissue} Repost / New Rip

Fleetwood Mac - Fleetwood Mac Live (1980) {2000, Reissue} Repost / New Rip

Track List CD2:

01. Fireflies [0:04:43.47]
02. Over My Head [0:03:23.10]
03. Rhiannon [0:07:48.30]
04. Don't Let Me Down Again [0:03:57.10]
05. One More Night [0:03:46.08]
06. Go Your Own Way [0:05:48.45]
07. Don't Stop [0:04:03.40]
08. I'm So Afraid [0:08:24.00]
09. The Farmer's Daughter [0:02:28.50]

Exact Audio Copy V1.0 beta 3 from 29. August 2011

EAC extraction logfile from 1. September 2015, 0:51

Fleetwood Mac / Live (CD2)

Used drive : ATAPI iHAS124 D Adapter: 0 ID: 2

Read mode : Secure
Utilize accurate stream : Yes
Defeat audio cache : Yes
Make use of C2 pointers : No

Read offset correction : 6
Overread into Lead-In and Lead-Out : No
Fill up missing offset samples with silence : Yes
Delete leading and trailing silent blocks : No
Null samples used in CRC calculations : Yes
Used interface : Installed external ASPI interface

Used output format : User Defined Encoder
Selected bitrate : 1024 kBit/s
Quality : High
Add ID3 tag : No
Command line compressor : C:\Program Files (x86)\Exact Audio Copy\Flac\flac.exe
Additional command line options : -6 -V -T "ARTIST=%artist%" -T "TITLE=%title%" -T "ALBUM=%albumtitle%" -T "DATE=%year%" -T "TRACKNUMBER=%tracknr%" -T "GENRE=%genre%" -T "COMMENT=%comment%" -T "BAND=%albuminterpret%" -T "COMPOSER=%composer%" %haslyrics%–tag-from-file=LYRICS="%lyricsfile%"%haslyrics% -T "DISCNUMBER=%cdnumber%" -T "TOTALDISCS=%totalcds%" -T "TOTALTRACKS=%numtracks%" %hascover%–picture="%coverfile%"%hascover% %source% -o %dest%


TOC of the extracted CD

Track | Start | Length | Start sector | End sector
––––––––––––––––––––––––––––-
1 | 0:00.00 | 4:43.47 | 0 | 21271
2 | 4:43.47 | 3:23.10 | 21272 | 36506
3 | 8:06.57 | 7:48.30 | 36507 | 71636
4 | 15:55.12 | 3:57.10 | 71637 | 89421
5 | 19:52.22 | 3:46.08 | 89422 | 106379
6 | 23:38.30 | 5:48.45 | 106380 | 132524
7 | 29:27.00 | 4:03.40 | 132525 | 150789
8 | 33:30.40 | 8:24.00 | 150790 | 188589
9 | 41:54.40 | 2:28.50 | 188590 | 199739


Range status and errors

Selected range

Filename C:\mm\Fleetwood Mac\1980 - Live [7599-27410-2]\Fleetwood Mac - Live (CD2).wav

Peak level 100.0 %
Extraction speed 8.3 X
Range quality 100.0 %
Test CRC BE2CE8CA
Copy CRC BE2CE8CA
Copy OK

No errors occurred


AccurateRip summary

Track 1 accurately ripped (confidence 39) [41E7D491] (AR v2)
Track 2 accurately ripped (confidence 39) [F97771AA] (AR v2)
Track 3 accurately ripped (confidence 39) [870CD3BF] (AR v2)
Track 4 accurately ripped (confidence 39) [547C53AF] (AR v2)
Track 5 accurately ripped (confidence 40) [11645328] (AR v2)
Track 6 accurately ripped (confidence 40) [FE81DFD8] (AR v2)
Track 7 accurately ripped (confidence 39) [E356C86E] (AR v2)
Track 8 accurately ripped (confidence 39) [917C9BFD] (AR v2)
Track 9 accurately ripped (confidence 39) [E2294858] (AR v2)

All tracks accurately ripped

End of status report

foobar2000 1.3.16 / Dynamic Range Meter 1.1.1
log date: 2018-02-04 17:30:42

––––––––––––––––––––––––––––––––––––––––
Analyzed: Fleetwood Mac / Live (CD2)
––––––––––––––––––––––––––––––––––––––––

DR Peak RMS Duration Track
––––––––––––––––––––––––––––––––––––––––
DR14 -1.19 dB -17.60 dB 4:44 01-Fireflies
DR15 0.00 dB -17.39 dB 3:23 02-Over My Head
DR15 0.00 dB -18.03 dB 7:48 03-Rhiannon
DR15 0.00 dB -16.97 dB 3:57 04-Don't Let Me Down Again
DR15 -1.47 dB -20.68 dB 3:46 05-One More Night
DR15 -0.01 dB -18.32 dB 5:49 06-Go Your Own Way
DR15 0.00 dB -17.78 dB 4:04 07-Don't Stop
DR16 0.00 dB -17.80 dB 8:24 08-I'm So Afraid
DR13 -2.75 dB -18.31 dB 2:29 09-The Farmer's Daughter
––––––––––––––––––––––––––––––––––––––––

Number of tracks: 9
Official DR value: DR15

Samplerate: 44100 Hz
Channels: 2
Bits per sample: 16
Bitrate: 855 kbps
Codec: FLAC
================================================================================

[CUETools log; Date: 04.02.2018 17:30:57; Version: 2.1.5]
[CTDB TOCID: Yz1B_gETj4gjwKtFmD7alUwZ9qM-] found.
Track | CTDB Status
1 | (137/143) Accurately ripped, or (2/143) differs in 4 samples @00:00:21
2 | (142/143) Accurately ripped
3 | (142/143) Accurately ripped
4 | (143/143) Accurately ripped
5 | (129/143) Accurately ripped
6 | (142/143) Accurately ripped
7 | (142/143) Accurately ripped
8 | (142/143) Accurately ripped
9 | (142/143) Accurately ripped
[AccurateRip ID: 000f35ff-00703185-7a0a6709] found.
Track [ CRC | V2 ] Status
01 [cc1f753c|41e7d491] (011+056/140) Accurately ripped
02 [730ed9a9|f97771aa] (011+058/142) Accurately ripped
03 [44009fd8|870cd3bf] (011+058/141) Accurately ripped
04 [c2b8abbf|547c53af] (011+058/141) Accurately ripped
05 [f80587c1|11645328] (011+060/135) Accurately ripped
06 [c634a2be|fe81dfd8] (011+059/144) Accurately ripped
07 [9812518a|e356c86e] (011+058/142) Accurately ripped
08 [d8d45c08|917c9bfd] (011+057/141) Accurately ripped
09 [ad04f8ac|e2294858] (011+058/139) Accurately ripped
Offsetted by 664:
01 [3cfeabb4] (031/140) Accurately ripped
02 [702d7e0b] (031/142) Accurately ripped
03 [2b7b3771] (031/141) Accurately ripped
04 [f5c9da64] (031/141) Accurately ripped
05 [a6fcd659] (029/135) Accurately ripped
06 [955740f7] (031/144) Accurately ripped
07 [06ef2c0a] (031/142) Accurately ripped
08 [40830453] (031/141) Accurately ripped
09 [03212580] (030/139) Accurately ripped

Track Peak [ CRC32 ] [W/O NULL] [ LOG ]
– 100,0 [BE2CE8CA] [E6EDEA13] CRC32
01 87,1 [9B96B059] [B9F2061A]
02 100,0 [B96FAAD2] [57F261E6]
03 100,0 [5C214DB4] [7C8BA1DB]
04 100,0 [2F1475BF] [63539BCB]
05 84,3 [D6195E3E] [5BB63008]
06 99,8 [7BE53E21] [C8AD53B1]
07 100,0 [9B0609C0] [FD9D8D0B]
08 100,0 [1C4ABF52] [63FFACB4]
09 72,8 [E288C9E4] [C5039CE5]

Personnel:
Bass – John McVie
Drums – Mick Fleetwood
Guitar – Lindsey Buckingham, Ray Lindsey
Guitar (Additional Live) – Ray Lindsey
Keyboards – Christine McVie, Jeffery Sova
Keyboards (Additional Live) – Jeffery Sova
Percussion – Tony Todaro
Percussion (Additional Live) – Tony Todaro
Vocals – Christine McVie, Lindsey Buckingham, Stevie Nicks

Fleetwood Mac - Fleetwood Mac Live (1980) {2000, Reissue} Repost / New Rip

All thanks go to sergych

>>> Fleetwood Mac in my Blog <<<

Download from icerbox.com: