Subcategories

Fleetwood Mac - London Live '68. The Masters (1998) {Reissue}

Posted By: popsakov
Fleetwood Mac - London Live '68. The Masters (1998) {Reissue}

Fleetwood Mac - London Live '68. The Masters (1998) {Reissue}
EAC Rip | FLAC (Img) + Cue + Log ~ 304 Mb | MP3 CBR320 ~ 123 Mb
Scans Included (JPG, 300 dpi) | RAR 5% Recovery
Blues, Blues Rock | Eagle Records #EAB CD 091 / GAS 0000091 EAB

Though they ultimately made their name as a blues-rock band, and Peter Green's admiration of artists like Jerry Garcia eventually found its way into their music, Fleetwood Mac began as a straight-ahead blues band. A bunch of Brits devoted to the music of Chicago and the Delta, Green and company couldn't help but put their own twist on the blues, but they were simultaneously reverential towards it. This is the situation presented in this 1968 live recording.

While the sound quality is less than stellar, it's good enough to make the guitar talents of Green and Jeremy Spencer obvious, as they work up effective solos over "Got To Move," "Vuzz Me" and others. Unlike their peers, who used blues as a vehicle to something larger and louder, Mac circa '68 stuck close to their roots and made it work. The live setting proved even more inspiring for the two guitarists, whose blistering lead work is the central focus throughout this album.
~ All Music

Fleetwood Mac - London Live '68. The Masters (1998) {Reissue}


***************

Fleetwood Mac - London Live '68. The Masters (1998) {Reissue}

Track List:

01. Got To Move [4:57]
02. I Held My Baby Last Night [5:14]
03. My Baby's Sweet [3:30]
04. My Baby's A Good 'Un [5:09]
05. Don't Know Which Way To Go [6:25]
06. Buzz Me [3:58]
07. The Dream [6:33]
08. The World Keeps On Turning [4:02]
09. How Blue Can You Get [4:58]
10. Bleeding Heart [4:39]

Exact Audio Copy V1.0 beta 3 from 29. August 2011

EAC extraction logfile from 20. January 2017, 10:24

Fleetwood Mac / 'London Live '68'

Used drive : TSSTcorpCDDVDW SH-216DB Adapter: 0 ID: 0

Read mode : Secure
Utilize accurate stream : Yes
Defeat audio cache : Yes
Make use of C2 pointers : No

Read offset correction : 6
Overread into Lead-In and Lead-Out : No
Fill up missing offset samples with silence : Yes
Delete leading and trailing silent blocks : No
Null samples used in CRC calculations : Yes
Used interface : Native Win32 interface for Win NT & 2000

Used output format : User Defined Encoder
Selected bitrate : 1024 kBit/s
Quality : High
Add ID3 tag : No
Command line compressor : C:\Program Files (x86)\Exact Audio Copy\Flac\flac.exe
Additional command line options : -V -8 -T "Date=%year%" -T "Genre=%genre%" %source%


TOC of the extracted CD

Track | Start | Length | Start sector | End sector
––––––––––––––––––––––––––––-
1 | 0:00.00 | 4:56.67 | 0 | 22266
2 | 4:56.67 | 5:14.16 | 22267 | 45832
3 | 10:11.08 | 3:30.20 | 45833 | 61602
4 | 13:41.28 | 5:08.69 | 61603 | 84771
5 | 18:50.22 | 6:24.54 | 84772 | 113625
6 | 25:15.01 | 3:57.72 | 113626 | 131472
7 | 29:12.73 | 6:33.04 | 131473 | 160951
8 | 35:46.02 | 4:02.11 | 160952 | 179112
9 | 39:48.13 | 4:58.37 | 179113 | 201499
10 | 44:46.50 | 4:38.41 | 201500 | 222390


Range status and errors

Selected range

Filename L:\Private\My Audio Ripps\ CD - RIPS\Fleetwood Mac - London Live'68\Fleetwood Mac - 'London Live '68'.wav

Peak level 100.0 %
Extraction speed 2.8 X
Range quality 100.0 %
Test CRC 7F4BC961
Copy CRC 7F4BC961
Copy OK

No errors occurred


AccurateRip summary

Track 1 accurately ripped (confidence 3) [902C6F11] (AR v2)
Track 2 accurately ripped (confidence 3) [7E3251E9] (AR v2)
Track 3 accurately ripped (confidence 3) [048214BB] (AR v2)
Track 4 accurately ripped (confidence 3) [AE7FCD8F] (AR v2)
Track 5 accurately ripped (confidence 3) [A9420DBC] (AR v2)
Track 6 accurately ripped (confidence 3) [1618AF87] (AR v2)
Track 7 accurately ripped (confidence 3) [340318B5] (AR v2)
Track 8 accurately ripped (confidence 3) [8DA0FA8F] (AR v2)
Track 9 accurately ripped (confidence 3) [4DC51B2F] (AR v2)
Track 10 accurately ripped (confidence 3) [487119B0] (AR v2)

All tracks accurately ripped

End of status report

==== Log checksum 0246A9FB9EC70306A1388FD091B3E0AD7E5C8D065477CCD2E845C99E4531E0C1 ====

foobar2000 1.2.6 / Dynamic Range Meter 1.1.1
log date: 2017-01-22 11:44:25

––––––––––––––––––––––––––––––––––––––––
Analyzed: Fleetwood Mac / 'London Live '68'
––––––––––––––––––––––––––––––––––––––––

DR Peak RMS Duration Track
––––––––––––––––––––––––––––––––––––––––
DR11 -0.44 dB -14.73 dB 4:57 01-Got To Move
DR11 -0.04 dB -14.69 dB 5:14 02-I Held My Baby Last Night
DR10 -2.48 dB -15.75 dB 3:30 03-My Baby's Sweet
DR11 -0.38 dB -13.00 dB 5:09 04-My Baby's A Good 'Un
DR11 -0.72 dB -15.90 dB 6:25 05-Don't Know Which Way To Go
DR10 -1.08 dB -14.26 dB 3:58 06-Buzz Me
DR11 0.00 dB -15.57 dB 6:33 07-The Dream
DR9 -3.49 dB -17.63 dB 4:02 08-The World Keeps On Turning
DR11 -0.28 dB -14.81 dB 4:58 09-How Blue Can You Get
DR11 0.00 dB -14.57 dB 4:39 10-Bleeding Heart
––––––––––––––––––––––––––––––––––––––––

Number of tracks: 10
Official DR value: DR11

Samplerate: 44100 Hz
Channels: 2
Bits per sample: 16
Bitrate: 807 kbps
Codec: FLAC
================================================================================

[CUETools log; Date: 22.01.2017 11:44:07; Version: 2.1.5]
[CTDB TOCID: Ovo6gldJN15Bg.y12u6Y_5A1f3M-] found.
Track | CTDB Status
1 | (13/13) Accurately ripped
2 | (13/13) Accurately ripped
3 | (13/13) Accurately ripped
4 | (13/13) Accurately ripped
5 | (13/13) Accurately ripped
6 | (13/13) Accurately ripped
7 | (13/13) Accurately ripped
8 | (13/13) Accurately ripped
9 | (13/13) Accurately ripped
10 | (13/13) Accurately ripped
[AccurateRip ID: 0012ab6a-0095c50b-870b950a] found.
Track [ CRC | V2 ] Status
01 [292877b0|902c6f11] (0+3/6) Accurately ripped
02 [01c03976|7e3251e9] (0+3/7) Accurately ripped
03 [de2a8221|048214bb] (0+3/7) Accurately ripped
04 [b53c9860|ae7fcd8f] (0+3/7) Accurately ripped
05 [acf41ae7|a9420dbc] (0+3/7) Accurately ripped
06 [9dcff70e|1618af87] (0+3/7) Accurately ripped
07 [59b773dc|340318b5] (0+3/7) Accurately ripped
08 [dc0c3479|8da0fa8f] (0+3/7) Accurately ripped
09 [b29ce914|4dc51b2f] (0+3/6) Accurately ripped
10 [1447d528|487119b0] (0+3/6) Accurately ripped
Offsetted by 53:
01 [47ec584a] (0/6) No match (V2 was not tested)
02 [6f6c7ab7] (0/7) No match (V2 was not tested)
03 [98669f2e] (0/7) No match (V2 was not tested)
04 [73847102] (0/7) No match (V2 was not tested)
05 [064d924e] (0/7) No match (V2 was not tested)
06 [5eaba5cc] (0/7) No match (V2 was not tested)
07 [14e3d067] (0/7) No match (V2 was not tested)
08 [d81f2726] (0/7) No match (V2 was not tested)
09 [7dc19581] (0/6) No match (V2 was not tested)
10 [d91e7191] (0/6) No match (V2 was not tested)

Track Peak [ CRC32 ] [W/O NULL] [ LOG ]
– 100,0 [7F4BC961] [5564448C] CRC32
01 95,0 [B30E8124] [A5C1668D]
02 99,5 [1E265FB6] [8E275C0F]
03 75,2 [292619B4] [02BF99B8]
04 95,7 [ED04F22C] [A2E22BF4]
05 92,0 [1C8953FD] [6D177A27]
06 88,3 [75AFC760] [9C8E1DC2]
07 100,0 [DF104381] [EC1A0E64]
08 66,8 [0FC36B0B] [E00A64DC]
09 96,8 [A332C1C2] [24DA505E]
10 100,0 [D22274AB] [945E3B26]

Fleetwood Mac - London Live '68. The Masters (1998) {Reissue}

Fleetwood Mac - London Live '68. The Masters (1998) {Reissue}

All thanks go to alexpika

> Fleetwood Mac in my blog <