Subcategories

Fleetwood Mac - Rumours (1977) [2013, Deluxe Edition Box Set] Re-up

Posted By: v3122
Fleetwood Mac - Rumours (1977) [2013, Deluxe Edition Box Set] Re-up

Fleetwood Mac - Rumours (1977)
EAC | Flac(Image) + Cue + Log & MP3 CBR 320Kbps
4CD | Warner Bros., R2-533806 | ~ 1358 or 590 Mb | Artwork(png) -> 991 Mb
DVD5: NTSC 4:3 (720x480) | AC-3, 6 ch, 448kbps / PCM, 2 ch, 1536kbps
Soft Rock, Classic Rock

Fleetwood Mac, one of rock s most enduring, beloved and successful bands, circulate another round of Rumours with expanded and deluxe versions of the album in celebration of its 35th anniversary. Rumours made the band one of the most iconic bands of the 1970s and garnered wide critical praise, earned the Grammy® for Album of the Year, and has now sold more than 40 million copies worldwide since its 1977 debut.

Mick Fleetwood, John McVie, Christine McVie, Lindsey Buckingham and Stevie Nicks recorded Rumours against a backdrop personal turmoil, chronicling their raw emotions in songs like "Go Your Own Way, " "Gold Dust Woman" and "Dreams, " the latter becoming the band s first number one smash.

The deluxe edition includes the original album and the b-side "Silver Springs, " a dozen unreleased live recordings from the group s 77 world tour, an entire disc filled with unreleased takes from the album s recording sessions, an additional disc of outtakes, a DVD that features The Rosebud Film, a 1977 documentary about the album, and the album on vinyl.

The disc of 12 unreleased live recordings from the band s 1977 Rumours tour features performances from concerts in Oklahoma City, Tulsa, Nashville and Columbia, S.C. The songs include album tracks like "The Chain, " "Oh Daddy" and "Songbird" as well as "World Turning" and "Rhiannon, " two tracks from the group s 1975 eponymous release.

Producers also have compiled a selection of 16 unreleased recordings from the album s sessions including early takes of "Go Your Own Way, " "I Don t Want To Know" and the popular b-side "Silver Springs. " There are also several demo recordings, including one for the outtake "Planets of the Universe, " plus an instrumental version of "Never Going Back Again. "

The deluxe edition of Rumours also features the 18-track compilation of session outtakes originally released in the 2004 reissue of the album, the original album on 140-gram vinyl, and a DVD with "The Rosebud Film. " This 1977 documentary by Michael Collins includes interviews, rehearsal footage and live performances of "World Turning, " "Rhiannon, " "Say You Love Me, " "Go Your Own Way, " "You Make Loving Fun" and "I m So Afraid."

~ amazon
Fleetwood Mac - Rumours (1977) [2013, Deluxe Edition Box Set] Re-up

Fleetwood Mac - Rumours (1977):

Fleetwood Mac - Rumours (1977) [2013, Deluxe Edition Box Set] Re-up

Tracklist CD1 - Original Album (Remastered):

01. Second Hand News 02:56
02. Dreams 04:17
03. Never Going Back Again 02:14
04. Don't Stop 03:13
05. Go Your Own Way 03:43
06. Songbird 03:20
07. The Chain 04:30
08. You Make Loving Fun 03:36
09. I Don't Want To Know 03:16
10. Oh Daddy 03:56
11. Gold Dust Woman 04:59
12. Silver Springs 04:48

Exact Audio Copy V1.0 beta 3 from 29. August 2011

EAC extraction logfile from 26. March 2013, 19:59

Fleetwood Mac / Rumours 1

Used drive : PLEXTOR BD-R PX-B950SA Adapter: 6 ID: 0

Read mode : Secure
Utilize accurate stream : Yes
Defeat audio cache : Yes
Make use of C2 pointers : No

Read offset correction : 6
Overread into Lead-In and Lead-Out : No
Fill up missing offset samples with silence : Yes
Delete leading and trailing silent blocks : No
Null samples used in CRC calculations : Yes
Used interface : Native Win32 interface for Win NT & 2000

Used output format : Internal WAV Routines
Sample format : 44.100 Hz; 16 Bit; Stereo


TOC of the extracted CD

Track | Start | Length | Start sector | End sector
––––––––––––––––––––––––––––-
1 | 0:00.00 | 2:56.23 | 0 | 13222
2 | 2:56.23 | 4:17.60 | 13223 | 32557
3 | 7:14.08 | 2:14.30 | 32558 | 42637
4 | 9:28.38 | 3:13.26 | 42638 | 57138
5 | 12:41.64 | 3:43.46 | 57139 | 73909
6 | 16:25.35 | 3:20.61 | 73910 | 88970
7 | 19:46.21 | 4:30.16 | 88971 | 109236
8 | 24:16.37 | 3:36.47 | 109237 | 125483
9 | 27:53.09 | 3:16.64 | 125484 | 140247
10 | 31:09.73 | 3:56.18 | 140248 | 157965
11 | 35:06.16 | 4:59.12 | 157966 | 180402
12 | 40:05.28 | 4:48.59 | 180403 | 202061


Range status and errors

Selected range

Filename C:\Users\Meijin\Desktop\Rip by ALLexxess\Fleetwood Mac\1977 Rumours (4CD + DVD + LP Deluxe Box Set Warner Bros. Records 2013)\Disc 1 Original Album\Fleetwood Mac - Rumours 1.wav

Peak level 98.8 %
Extraction speed 7.1 X
Range quality 99.9 %
Test CRC 3CC0A1B5
Copy CRC 3CC0A1B5
Copy OK

No errors occurred


AccurateRip summary

Track 1 accurately ripped (confidence 2) [C365613B] (AR v1)
Track 2 accurately ripped (confidence 2) [0BC413D2] (AR v1)
Track 3 accurately ripped (confidence 2) [9B1DC7D3] (AR v1)
Track 4 accurately ripped (confidence 2) [4DAE4963] (AR v1)
Track 5 accurately ripped (confidence 2) [ED7E0DDD] (AR v1)
Track 6 accurately ripped (confidence 2) [1939ADB8] (AR v1)
Track 7 accurately ripped (confidence 2) [2B4215BB] (AR v1)
Track 8 accurately ripped (confidence 2) [09EB990D] (AR v1)
Track 9 accurately ripped (confidence 2) [243AA368] (AR v1)
Track 10 accurately ripped (confidence 2) [A6A5649F] (AR v1)
Track 11 accurately ripped (confidence 2) [34CC6B20] (AR v1)
Track 12 accurately ripped (confidence 2) [DAA0F9CA] (AR v1)

All tracks accurately ripped

End of status report

==== Log checksum 9F5774F4604DF6684EB68E342AA8B65CBA72111BF8E3AB753DE5EADF44CB8BC6 ====


[CUETools log; Date: 24.12.2018 15:15:10; Version: 2.1.4]
[AccurateRip ID: 0012ac9f-00b0b8b9-b30a860c] found.
Track [ CRC | V2 ] Status
01 [c365613b|381c6741] (005+150/381) Accurately ripped
02 [0bc413d2|b5aec06f] (005+150/381) Accurately ripped
03 [9b1dc7d3|07ba7aee] (005+149/380) Accurately ripped
04 [4dae4963|db7bf084] (005+150/381) Accurately ripped
05 [ed7e0ddd|a6d71748] (005+149/380) Accurately ripped
06 [1939adb8|7430a7a6] (005+149/380) Accurately ripped
07 [2b4215bb|5fa04f0e] (005+151/382) Accurately ripped
08 [09eb990d|01de555c] (005+151/382) Accurately ripped
09 [243aa368|5ec572d8] (005+150/381) Accurately ripped
10 [a6a5649f|b45d8ecd] (005+149/380) Accurately ripped
11 [34cc6b20|9070f32c] (005+149/380) Accurately ripped
12 [daa0f9ca|93c69f87] (005+151/382) Accurately ripped
Offsetted by 6:
01 [55669ff9] (011/381) Accurately ripped
02 [2e925812] (011/381) Accurately ripped
03 [058d1ee3] (011/380) Accurately ripped
04 [81b56a36] (011/381) Accurately ripped
05 [2e7fe1fe] (011/380) Accurately ripped
06 [ce56a922] (011/380) Accurately ripped
07 [f3a2af95] (011/382) Accurately ripped
08 [c49c3d8f] (011/382) Accurately ripped
09 [52d24b7a] (011/381) Accurately ripped
10 [9b38d558] (011/380) Accurately ripped
11 [a02f80dd] (011/380) Accurately ripped
12 [fab2245e] (011/382) Accurately ripped
Offsetted by -664:
01 [a58641c3] (000/381) No match (V2 was not tested)
02 [ffee92d2] (000/381) No match (V2 was not tested)
03 [3f94efd4] (000/380) No match (V2 was not tested)
04 [7ae581b6] (000/381) No match (V2 was not tested)
05 [915b67bd] (000/380) No match (V2 was not tested)
06 [d659873e] (000/380) No match (V2 was not tested)
07 [8fe5b89d] (000/382) No match (V2 was not tested)
08 [aae47b85] (000/382) No match (V2 was not tested)
09 [5555fba0] (000/381) No match (V2 was not tested)
10 [028e0394] (000/380) No match (V2 was not tested)
11 [8d4cca09] (000/380) No match (V2 was not tested)
12 [dde5e8ac] (000/382) No match (V2 was not tested)
Offsetted by -6:
01 [3164227d] (000/381) No match (V2 was not tested)
02 [e8f5cf92] (000/381) No match (V2 was not tested)
03 [30d270c3] (000/380) No match (V2 was not tested)
04 [34050db0] (000/381) No match (V2 was not tested)
05 [ac7439a0] (000/380) No match (V2 was not tested)
06 [641cb24e] (000/380) No match (V2 was not tested)
07 [62e17be1] (000/382) No match (V2 was not tested)
08 [4f3af48b] (000/382) No match (V2 was not tested)
09 [f5a2fb56] (000/381) No match (V2 was not tested)
10 [6ccfd424] (000/380) No match (V2 was not tested)
11 [18775545] (000/380) No match (V2 was not tested)
12 [ba83cf36] (000/382) No match (V2 was not tested)

Track Peak [ CRC32 ] [W/O NULL] [ LOG ]
– 98,8 [3CC0A1B5] [2669A4C7] CRC32
01 98,8 [75BA839A] [F3570334]
02 98,8 [8F40332D] [93AD1241]
03 98,7 [6A26FDD8] [5BAC13E1]
04 98,5 [ED3A6E8E] [F9D56BF8]
05 98,8 [7771DDA2] [632E859A]
06 93,5 [C02B0EA5] [BE6D04F4]
07 98,8 [6C98B1E8] [F5E1B49B]
08 96,1 [2C16DD80] [7BC26A7F]
09 98,8 [59CEF394] [53BB7250]
10 98,8 [99C2DF7C] [59ED544F]
11 98,8 [80E5C128] [69466D9D]
12 98,8 [BE2973BE] [49EFFE45]


Fleetwood Mac - Rumours (1977) [2013, Deluxe Edition Box Set] Re-up

Tracklist CD2 - Live, 1977 'Rumours World Tour' (Previously Unreleased):

01. Intro 00:48
02. Monday Morning 02:38
03. Dreams 04:07
04. Don't Stop 03:51
05. The Chain 05:40
06. Oh Daddy 04:47
07. Rhiannon 07:55
08. Never Going Back Again 02:19
09. Gold Dust Woman 07:03
10. World Turning 07:31
11. Go Your Own Way 04:54
12. Songbird 04:00

Exact Audio Copy V1.0 beta 3 from 29. August 2011

EAC extraction logfile from 26. March 2013, 19:28

Fleetwood Mac / Rumours 2

Used drive : PLEXTOR BD-R PX-B950SA Adapter: 6 ID: 0

Read mode : Secure
Utilize accurate stream : Yes
Defeat audio cache : Yes
Make use of C2 pointers : No

Read offset correction : 6
Overread into Lead-In and Lead-Out : No
Fill up missing offset samples with silence : Yes
Delete leading and trailing silent blocks : No
Null samples used in CRC calculations : Yes
Used interface : Native Win32 interface for Win NT & 2000

Used output format : Internal WAV Routines
Sample format : 44.100 Hz; 16 Bit; Stereo


TOC of the extracted CD

Track | Start | Length | Start sector | End sector
––––––––––––––––––––––––––––-
1 | 0:00.00 | 0:48.28 | 0 | 3627
2 | 0:48.28 | 2:38.67 | 3628 | 15544
3 | 3:27.20 | 4:07.16 | 15545 | 34085
4 | 7:34.36 | 3:51.49 | 34086 | 51459
5 | 11:26.10 | 5:40.40 | 51460 | 76999
6 | 17:06.50 | 4:47.65 | 77000 | 98589
7 | 21:54.40 | 7:55.23 | 98590 | 134237
8 | 29:49.63 | 2:19.72 | 134238 | 144734
9 | 32:09.60 | 7:03.04 | 144735 | 176463
10 | 39:12.64 | 7:31.37 | 176464 | 210325
11 | 46:44.26 | 4:54.35 | 210326 | 232410
12 | 51:38.61 | 4:00.33 | 232411 | 250443


Range status and errors

Selected range

Filename C:\Users\Meijin\Desktop\Rip by ALLexxess\Fleetwood Mac\1977 Rumours (4CD + DVD + LP Deluxe Box Set Warner Bros. Records 2013)\Disc 2 Live, 1977 'Rumours World Tour'\Fleetwood Mac - Rumours 2.wav

Peak level 100.0 %
Extraction speed 7.6 X
Range quality 99.9 %
Test CRC 1307E7F1
Copy CRC 1307E7F1
Copy OK

No errors occurred


AccurateRip summary

Track 1 accurately ripped (confidence 2) [72D9748B] (AR v1)
Track 2 accurately ripped (confidence 2) [F98F0D74] (AR v1)
Track 3 accurately ripped (confidence 2) [9250EB0C] (AR v1)
Track 4 accurately ripped (confidence 2) [024FB3E5] (AR v1)
Track 5 accurately ripped (confidence 2) [FA5EFD78] (AR v1)
Track 6 accurately ripped (confidence 2) [65FF0294] (AR v1)
Track 7 accurately ripped (confidence 2) [C7B1CD69] (AR v1)
Track 8 accurately ripped (confidence 2) [3EF65DC8] (AR v1)
Track 9 accurately ripped (confidence 2) [94A754D7] (AR v1)
Track 10 accurately ripped (confidence 2) [BA8A92ED] (AR v1)
Track 11 accurately ripped (confidence 2) [C305EF28] (AR v1)
Track 12 accurately ripped (confidence 2) [5844C7B0] (AR v1)

All tracks accurately ripped

End of status report

==== Log checksum 5481BF252573BE6AFBAD76351E1D1BD6CFDB39C375B9C1CD1E614F258A72552A ====


[CUETools log; Date: 24.12.2018 15:23:16; Version: 2.1.4]
[AccurateRip ID: 0015cdbf-00d722ab-8f0d0b0c] found.
Track [ CRC | V2 ] Status
01 [72d9748b|579166a7] (006+137/396) Accurately ripped
02 [f98f0d74|67abbf58] (006+137/397) Accurately ripped
03 [9250eb0c|087d4466] (006+137/397) Accurately ripped
04 [024fb3e5|a5f8459f] (006+137/397) Accurately ripped
05 [fa5efd78|df8448b7] (006+137/397) Accurately ripped
06 [65ff0294|f420658e] (006+137/397) Accurately ripped
07 [c7b1cd69|6a378472] (006+137/397) Accurately ripped
08 [3ef65dc8|40cfc6c3] (006+137/397) Accurately ripped
09 [94a754d7|78c75cc7] (006+136/396) Accurately ripped
10 [ba8a92ed|d43e2c20] (006+137/397) Accurately ripped
11 [c305ef28|2b4cedf2] (006+135/394) Accurately ripped
12 [5844c7b0|c4eba4b9] (006+135/393) Accurately ripped
Offsetted by -658:
01 [5ed448b0] (002/396) Accurately ripped
02 [c2463742] (002/397) Accurately ripped
03 [e3e3ee46] (002/397) Accurately ripped
04 [9aadc2b5] (002/397) Accurately ripped
05 [f99a706e] (002/397) Accurately ripped
06 [83205b82] (002/397) Accurately ripped
07 [07806055] (002/397) Accurately ripped
08 [ebef239d] (002/397) Accurately ripped
09 [2673a72a] (002/396) Accurately ripped
10 [dbf71a41] (002/397) Accurately ripped
11 [120b0735] (002/394) Accurately ripped
12 [84a1d808] (002/393) Accurately ripped
Offsetted by 6:
01 [26ddc07d] (009/396) Accurately ripped
02 [91b74dba] (009/397) Accurately ripped
03 [50cd8235] (009/397) Accurately ripped
04 [8e79832f] (009/397) Accurately ripped
05 [779cc156] (009/397) Accurately ripped
06 [28a0a4be] (009/397) Accurately ripped
07 [5e855742] (009/397) Accurately ripped
08 [cac2eb0a] (009/397) Accurately ripped
09 [e5e2c803] (009/396) Accurately ripped
10 [377beec3] (009/397) Accurately ripped
11 [670fc9c4] (009/394) Accurately ripped
12 [4d5acdee] (009/393) Accurately ripped
Offsetted by -36:
01 [94fc6ee7] (000/396) No match (V2 was not tested)
02 [592dcfb9] (000/397) No match (V2 was not tested)
03 [ee3fb867] (000/397) No match (V2 was not tested)
04 [e1ddcce2] (000/397) No match (V2 was not tested)
05 [1c21fd71] (000/397) No match (V2 was not tested)
06 [04f1ea19] (000/397) No match (V2 was not tested)
07 [a1ecd418] (000/397) No match (V2 was not tested)
08 [466674be] (000/397) No match (V2 was not tested)
09 [4f3c0e2a] (000/396) No match (V2 was not tested)
10 [15f65fbc] (000/397) No match (V2 was not tested)
11 [2bd51a5c] (000/394) No match (V2 was not tested)
12 [ed205406] (000/393) No match (V2 was not tested)
Offsetted by -24:
01 [92883bd9] (000/396) No match (V2 was not tested)
02 [8e3dbaa3] (000/397) No match (V2 was not tested)
03 [8f9e34e2] (000/397) No match (V2 was not tested)
04 [06b88dfd] (000/397) No match (V2 was not tested)
05 [2b70b5bf] (000/397) No match (V2 was not tested)
06 [1fb9c2c1] (000/397) No match (V2 was not tested)
07 [946d731e] (000/397) No match (V2 was not tested)
08 [a77460ef] (000/397) No match (V2 was not tested)
09 [81a91901] (000/396) No match (V2 was not tested)
10 [799d9fe2] (000/397) No match (V2 was not tested)
11 [979f0a70] (000/394) No match (V2 was not tested)
12 [d0099842] (000/393) No match (V2 was not tested)
Offsetted by -6:
01 [80fc67b1] (000/396) No match (V2 was not tested)
02 [2b547595] (000/397) No match (V2 was not tested)
03 [0d52d965] (000/397) No match (V2 was not tested)
04 [9ab76bfe] (000/397) No match (V2 was not tested)
05 [5d16684a] (000/397) No match (V2 was not tested)
06 [d4c9ac48] (000/397) No match (V2 was not tested)
07 [00bc416d] (000/397) No match (V2 was not tested)
08 [a2367edb] (000/397) No match (V2 was not tested)
09 [840366f7] (000/396) No match (V2 was not tested)
10 [d236af92] (000/397) No match (V2 was not tested)
11 [2a77499f] (000/394) No match (V2 was not tested)
12 [66856f64] (000/393) No match (V2 was not tested)

Track Peak [ CRC32 ] [W/O NULL] [ LOG ]
– 99,9 [1307E7F1] [007BCEC1] CRC32
01 99,3 [9A88AEBF] [11D51E17]
02 99,9 [3BEADCD6] [4EDAF087]
03 99,9 [699BA3BB] [909D4F36]
04 99,9 [24C10583] [F2BBA357]
05 99,9 [7AD1353C] [B54AEEA0]
06 99,9 [96509EDC] [9D72A3E2]
07 99,9 [879CE634] [62667F8C]
08 94,0 [AB26F9DA] [39382961]
09 99,9 [65A239D9] [817E2CCD]
10 99,9 [D17B3659] [9EC33013]
11 99,9 [C03F625B] [2F82CC2A]
12 61,5 [F5AC1BC7] [F0D02067]


Fleetwood Mac - Rumours (1977) [2013, Deluxe Edition Box Set] Re-up

Tracklist CD3 - More From The Recording Sessions (Previously Unreleased):

01. Second Hand News (Early Take) 02:26
02. Dreams (Take 2) 05:35
03. Never Going Back Again (Acoustic Duet) 02:19
04. Go Your Own Way (Early Take) 04:04
05. Songbird (Demo) 04:33
06. Songbird (Instrumental / Take 10) 04:23
07. I Don't Want To Know (Early Take) 03:42
08. Keep Me There (Instrumental) 05:14
09. The Chain (Demo) 05:29
10. Keep Me There (With Vocal) 04:18
11. Gold Dust Woman (Early Take) 05:25
12. Oh Daddy (Early Take) 03:48
13. Silver Springs (Early Take) 05:31
14. Planets Of The Universe (Demo) 04:27
15. Doesn't Anything Last (Acoustic Duet) 01:03
16. Never Going Back Again (Instrumental) 02:36

Exact Audio Copy V1.0 beta 3 from 29. August 2011

EAC extraction logfile from 26. March 2013, 16:15

Fleetwood Mac / Rumours 4

Used drive : PLEXTOR BD-R PX-B950SA Adapter: 6 ID: 0

Read mode : Secure
Utilize accurate stream : Yes
Defeat audio cache : Yes
Make use of C2 pointers : No

Read offset correction : 6
Overread into Lead-In and Lead-Out : No
Fill up missing offset samples with silence : Yes
Delete leading and trailing silent blocks : No
Null samples used in CRC calculations : Yes
Used interface : Native Win32 interface for Win NT & 2000

Used output format : Internal WAV Routines
Sample format : 44.100 Hz; 16 Bit; Stereo


TOC of the extracted CD

Track | Start | Length | Start sector | End sector
––––––––––––––––––––––––––––-
1 | 0:00.00 | 2:26.56 | 0 | 11005
2 | 2:26.56 | 5:35.10 | 11006 | 36140
3 | 8:01.66 | 2:19.41 | 36141 | 46606
4 | 10:21.32 | 4:04.43 | 46607 | 64949
5 | 14:26.00 | 4:33.20 | 64950 | 85444
6 | 18:59.20 | 4:23.68 | 85445 | 105237
7 | 23:23.13 | 3:42.13 | 105238 | 121900
8 | 27:05.26 | 5:14.02 | 121901 | 145452
9 | 32:19.28 | 5:29.10 | 145453 | 170137
10 | 37:48.38 | 4:18.69 | 170138 | 189556
11 | 42:07.32 | 5:25.17 | 189557 | 213948
12 | 47:32.49 | 3:48.31 | 213949 | 231079
13 | 51:21.05 | 5:31.54 | 231080 | 255958
14 | 56:52.59 | 4:27.71 | 255959 | 276054
15 | 61:20.55 | 1:03.11 | 276055 | 280790
16 | 62:23.66 | 2:36.67 | 280791 | 292557


Range status and errors

Selected range

Filename C:\Users\Meijin\Desktop\Rip by ALLexxess\Fleetwood Mac\1977 Rumours (4CD + DVD + LP Deluxe Box Set Warner Bros. Records 2013)\Disc 4 More From The Recording Sessions\Fleetwood Mac - Rumours 4.wav

Peak level 100.0 %
Extraction speed 2.5 X
Range quality 99.8 %
Test CRC 03E4C9BF
Copy CRC 03E4C9BF
Copy OK

No errors occurred


AccurateRip summary

Track 1 accurately ripped (confidence 2) [BFE71D3F] (AR v1)
Track 2 accurately ripped (confidence 2) [83574A1F] (AR v1)
Track 3 accurately ripped (confidence 2) [ADC6A077] (AR v1)
Track 4 accurately ripped (confidence 2) [D71DE393] (AR v1)
Track 5 accurately ripped (confidence 2) [29D49323] (AR v1)
Track 6 accurately ripped (confidence 2) [E96BD622] (AR v1)
Track 7 accurately ripped (confidence 2) [D790B24B] (AR v1)
Track 8 accurately ripped (confidence 2) [2391FFA3] (AR v1)
Track 9 accurately ripped (confidence 2) [C3F1EBAE] (AR v1)
Track 10 accurately ripped (confidence 2) [38CE04C6] (AR v1)
Track 11 accurately ripped (confidence 2) [2E8E6AF3] (AR v1)
Track 12 accurately ripped (confidence 2) [3435E225] (AR v1)
Track 13 accurately ripped (confidence 2) [AE53FB84] (AR v1)
Track 14 accurately ripped (confidence 2) [CECEFBEE] (AR v1)
Track 15 accurately ripped (confidence 2) [4BDF0043] (AR v1)
Track 16 accurately ripped (confidence 2) [0A0B4DD1] (AR v1)

All tracks accurately ripped

End of status report

==== Log checksum D6A3E240406CE453ADE30DB4FE3A69813D070ADACA4BEF1BA092E98C2733DD95 ====


[CUETools log; Date: 24.12.2018 15:26:18; Version: 2.1.4]
[AccurateRip ID: 00268e6c-01d4cdeb-df0f3c10] found.
Track [ CRC | V2 ] Status
01 [bfe71d3f|df5bb89d] (005+129/381) Accurately ripped
02 [83574a1f|30d2e9a5] (005+129/383) Accurately ripped
03 [adc6a077|ba596080] (005+130/383) Accurately ripped
04 [d71de393|44571900] (005+130/384) Accurately ripped
05 [29d49323|8f5e891e] (005+129/382) Accurately ripped
06 [e96bd622|7529b8d7] (005+129/383) Accurately ripped
07 [d790b24b|9f41f3a3] (005+130/383) Accurately ripped
08 [2391ffa3|a1214a51] (005+128/381) Accurately ripped
09 [c3f1ebae|338a755d] (005+130/384) Accurately ripped
10 [38ce04c6|4e62a928] (005+130/384) Accurately ripped
11 [2e8e6af3|e4246b6f] (005+128/381) Accurately ripped
12 [3435e225|d5d428a9] (003+129/378) Accurately ripped
13 [ae53fb84|b7b6d490] (004+128/375) Accurately ripped
14 [cecefbee|bf8f245a] (004+127/376) Accurately ripped
15 [4bdf0043|12dbe4b8] (004+129/383) Accurately ripped
16 [0a0b4dd1|19254463] (004+128/374) Accurately ripped
Offsetted by 6:
01 [1cd0794b] (009/381) Accurately ripped
02 [38eb0695] (009/383) Accurately ripped
03 [74a0863b] (009/383) Accurately ripped
04 [61b66977] (009/384) Accurately ripped
05 [29f75b67] (009/382) Accurately ripped
06 [0bee02d8] (009/383) Accurately ripped
07 [59dac721] (009/383) Accurately ripped
08 [b8bf6ba5] (009/381) Accurately ripped
09 [125840fa] (009/384) Accurately ripped
10 [113f7aba] (009/384) Accurately ripped
11 [fa85d1eb] (009/381) Accurately ripped
12 [7f04fe63] (009/378) Accurately ripped
13 [8d48a022] (010/375) Accurately ripped
14 [b14cd8c2] (010/376) Accurately ripped
15 [d8aaf243] (010/383) Accurately ripped
16 [daeec170] (010/374) Accurately ripped
Offsetted by -664:
01 [95b0a80f] (000/381) No match (V2 was not tested)
02 [af79d1c7] (000/383) No match (V2 was not tested)
03 [b794a267] (000/383) No match (V2 was not tested)
04 [ed2ead03] (000/384) No match (V2 was not tested)
05 [7020ab13] (000/382) No match (V2 was not tested)
06 [fe7b2cca] (000/383) No match (V2 was not tested)
07 [84dfb073] (000/383) No match (V2 was not tested)
08 [5144a41b] (000/381) No match (V2 was not tested)
09 [350a617e] (000/384) No match (V2 was not tested)
10 [a7c1b1f6] (000/384) No match (V2 was not tested)
11 [579b3d13] (000/381) No match (V2 was not tested)
12 [32adacad] (000/378) No match (V2 was not tested)
13 [a1e77c8c] (000/375) No match (V2 was not tested)
14 [e5bb859e] (000/376) No match (V2 was not tested)
15 [6e5fb843] (000/383) No match (V2 was not tested)
16 [7ad7f0e8] (000/374) No match (V2 was not tested)
Offsetted by -658:
01 [f29a041b] (000/381) No match (V2 was not tested)
02 [650d8e3d] (000/383) No match (V2 was not tested)
03 [7e6e882b] (000/383) No match (V2 was not tested)
04 [77c732e7] (000/384) No match (V2 was not tested)
05 [70437357] (000/382) No match (V2 was not tested)
06 [20fd5980] (000/383) No match (V2 was not tested)
07 [0729c549] (000/383) No match (V2 was not tested)
08 [e672101d] (000/381) No match (V2 was not tested)
09 [8370b6ca] (000/384) No match (V2 was not tested)
10 [803327ea] (000/384) No match (V2 was not tested)
11 [2392a40b] (000/381) No match (V2 was not tested)
12 [7d7cc8eb] (000/378) No match (V2 was not tested)
13 [80dc212a] (000/375) No match (V2 was not tested)
14 [c8396272] (000/376) No match (V2 was not tested)
15 [fb2baa43] (000/383) No match (V2 was not tested)
16 [38af1744] (000/374) No match (V2 was not tested)
Offsetted by -6:
01 [62fdc133] (000/381) No match (V2 was not tested)
02 [cdc38da9] (000/383) No match (V2 was not tested)
03 [e6ecbab3] (000/383) No match (V2 was not tested)
04 [4c855daf] (000/384) No match (V2 was not tested)
05 [29b1cadf] (000/382) No match (V2 was not tested)
06 [c6e9a96c] (000/383) No match (V2 was not tested)
07 [55469d75] (000/383) No match (V2 was not tested)
08 [8e6493a1] (000/381) No match (V2 was not tested)
09 [758b9662] (000/384) No match (V2 was not tested)
10 [605c8ed2] (000/384) No match (V2 was not tested)
11 [629703fb] (000/381) No match (V2 was not tested)
12 [e966c5e7] (000/378) No match (V2 was not tested)
13 [cf5f56e6] (000/375) No match (V2 was not tested)
14 [ec511f1a] (000/376) No match (V2 was not tested)
15 [bf130e43] (000/383) No match (V2 was not tested)
16 [b2ea71ea] (000/374) No match (V2 was not tested)

Track Peak [ CRC32 ] [W/O NULL] [ LOG ]
– 99,9 [03E4C9BF] [B2F18999] CRC32
01 99,9 [148B6F0D] [16610C7C]
02 88,8 [773E96CB] [05402B9F]
03 93,7 [3599DC6D] [2CCE6518]
04 99,8 [A27120C3] [E9E73C11]
05 86,2 [675F9A08] [AB1A5647]
06 81,8 [94D2105D] [70FAB5E7]
07 99,9 [664D305B] [519FEBC0]
08 99,8 [CE0C1135] [827B3943]
09 93,7 [B32D8F32] [30CE08C2]
10 99,8 [58C9CD8C] [286CD9D8]
11 99,8 [EBB5D0EF] [8A372AB9]
12 99,8 [745D9DA9] [D3472DF1]
13 99,8 [7D1ECB49] [1883893D]
14 85,5 [38AEE62F] [E0678C1B]
15 74,8 [D5CE2E91] [D86C8BD1]
16 95,9 [8ED60788] [C3C1E7BA]


Fleetwood Mac - Rumours (1977) [2013, Deluxe Edition Box Set] Re-up

Tracklist CD4 - Recording Sessions, Roughs & Outtakes:

01. Second Hand News 02:47
02. Dreams 04:21
03. Brushes (Never Going Back Again) 02:50
04. Don't Stop 03:33
05. Go Your Own Way 03:06
06. Songbird 03:11
07. Silver Springs 06:07
08. You Make Loving Fun 04:56
09. Gold Dust Woman #1 05:02
10. Oh Daddy 03:58
11. Think About It 02:55
Early Demos:
12. Never Going Back Again 01:56
13. Planets Of The Universe 03:18
14. Butter Cookie (Keep Me There) 02:11
15. Gold Dust Woman 05:01
16. Doesn't Anything Last 01:10
Jam Sessions:
17. Mic The Screecher 00:59
18. For Duster (The Blues) 04:26

Exact Audio Copy V1.0 beta 3 from 29. August 2011

EAC extraction logfile from 26. March 2013, 14:15

Fleetwood Mac / Rumours 5

Used drive : PLEXTOR BD-R PX-B950SA Adapter: 6 ID: 0

Read mode : Secure
Utilize accurate stream : Yes
Defeat audio cache : Yes
Make use of C2 pointers : No

Read offset correction : 6
Overread into Lead-In and Lead-Out : No
Fill up missing offset samples with silence : Yes
Delete leading and trailing silent blocks : No
Null samples used in CRC calculations : Yes
Used interface : Native Win32 interface for Win NT & 2000

Used output format : Internal WAV Routines
Sample format : 44.100 Hz; 16 Bit; Stereo


TOC of the extracted CD

Track | Start | Length | Start sector | End sector
––––––––––––––––––––––––––––-
1 | 0:00.00 | 2:47.40 | 0 | 12564
2 | 2:47.40 | 4:21.41 | 12565 | 32180
3 | 7:09.06 | 2:50.51 | 32181 | 44981
4 | 9:59.57 | 3:33.29 | 44982 | 60985
5 | 13:33.11 | 3:06.00 | 60986 | 74935
6 | 16:39.11 | 3:11.72 | 74936 | 89332
7 | 19:51.08 | 6:07.74 | 89333 | 116931
8 | 25:59.07 | 4:56.59 | 116932 | 139190
9 | 30:55.66 | 5:02.49 | 139191 | 161889
10 | 35:58.40 | 3:58.64 | 161890 | 179803
11 | 39:57.29 | 2:55.69 | 179804 | 192997
12 | 42:53.23 | 1:56.42 | 192998 | 201739
13 | 44:49.65 | 3:18.15 | 201740 | 216604
14 | 48:08.05 | 2:11.64 | 216605 | 226493
15 | 50:19.69 | 5:01.23 | 226494 | 249091
16 | 55:21.17 | 1:10.56 | 249092 | 254397
17 | 56:31.73 | 0:59.67 | 254398 | 258889
18 | 57:31.65 | 4:26.52 | 258890 | 278891


Range status and errors

Selected range

Filename C:\Users\Meijin\Desktop\Rip by ALLexxess\Fleetwood Mac\1977 Rumours (4CD + DVD + LP Deluxe Box Set Warner Bros. Records 2013)\Disc 5 Recording Sessions, Roughs & Outtakes\Fleetwood Mac - Rumours 5.wav

Peak level 98.8 %
Extraction speed 6.0 X
Range quality 99.9 %
Test CRC B55043AA
Copy CRC B55043AA
Copy OK

No errors occurred


AccurateRip summary

Track 1 cannot be verified as accurate (confidence 200) [C577D5B4], AccurateRip returned [7712775B] (AR v2)
Track 2 cannot be verified as accurate (confidence 200) [32DC3980], AccurateRip returned [396EC383] (AR v2)
Track 3 cannot be verified as accurate (confidence 200) [F10CAD44], AccurateRip returned [BB27C54F] (AR v2)
Track 4 cannot be verified as accurate (confidence 200) [BE923162], AccurateRip returned [D699035B] (AR v2)
Track 5 cannot be verified as accurate (confidence 200) [02381115], AccurateRip returned [D8882E90] (AR v2)
Track 6 cannot be verified as accurate (confidence 200) [CCA38F59], AccurateRip returned [3BAB497D] (AR v2)
Track 7 cannot be verified as accurate (confidence 200) [321D583F], AccurateRip returned [D69FE64B] (AR v2)
Track 8 cannot be verified as accurate (confidence 200) [EFD5621F], AccurateRip returned [3B0C6BC3] (AR v2)
Track 9 cannot be verified as accurate (confidence 200) [F15A6DDA], AccurateRip returned [DAF224CB] (AR v2)
Track 10 cannot be verified as accurate (confidence 200) [CBBB87A5], AccurateRip returned [986B71EB] (AR v2)
Track 11 cannot be verified as accurate (confidence 200) [07E9D136], AccurateRip returned [DBD86D6D] (AR v2)
Track 12 cannot be verified as accurate (confidence 200) [39EAB7DD], AccurateRip returned [C7D6AF14] (AR v2)
Track 13 cannot be verified as accurate (confidence 200) [D2804DF0], AccurateRip returned [584F07DB] (AR v2)
Track 14 cannot be verified as accurate (confidence 200) [0815B29F], AccurateRip returned [2B37FD1E] (AR v2)
Track 15 cannot be verified as accurate (confidence 200) [8147494D], AccurateRip returned [881F9EA8] (AR v2)
Track 16 cannot be verified as accurate (confidence 200) [475EDF05], AccurateRip returned [B63FB742] (AR v2)
Track 17 cannot be verified as accurate (confidence 200) [F1D8B13B], AccurateRip returned [AA356C9D] (AR v2)
Track 18 cannot be verified as accurate (confidence 200) [F0EABBFA], AccurateRip returned [491504CB] (AR v2)

No tracks could be verified as accurate
You may have a different pressing from the one(s) in the database

End of status report

==== Log checksum 1EADE1337D74004107D2D4ACD07F7E9D844F2B2CF2F467E5873F5611F924F0AB ====


[CUETools log; Date: 24.12.2018 15:28:56; Version: 2.1.4]
[AccurateRip ID: 002a99e5-023629d0-eb0e8612] found.
Track [ CRC | V2 ] Status
01 [8eadc038|c577d5b4] (000+014/708) Accurately ripped
02 [3b658c29|32dc3980] (000+014/708) Accurately ripped
03 [e704a9c3|f10cad44] (000+013/710) Accurately ripped
04 [4db038f1|be923162] (000+014/710) Accurately ripped
05 [fb633b62|02381115] (000+014/710) Accurately ripped
06 [c54955d1|cca38f59] (000+014/710) Accurately ripped
07 [c4d8f2fb|321d583f] (000+014/705) Accurately ripped
08 [2385eb22|efd5621f] (000+014/707) Accurately ripped
09 [81706a9e|f15a6dda] (000+014/708) Accurately ripped
10 [79e4991c|cbbb87a5] (000+014/709) Accurately ripped
11 [41e2469f|07e9d136] (000+014/709) Accurately ripped
12 [9368b0b7|39eab7dd] (000+014/706) Accurately ripped
13 [95960718|d2804df0] (000+013/712) Accurately ripped
14 [2b947457|0815b29f] (000+014/708) Accurately ripped
15 [4ba406d1|8147494d] (000+014/703) Accurately ripped
16 [f4373bab|475edf05] (000+014/706) Accurately ripped
17 [762aa6d9|f1d8b13b] (000+014/703) Accurately ripped
18 [db7c8194|f0eabbfa] (000+013/706) Accurately ripped
Offsetted by 6:
01 [d079659c] (002/708) Accurately ripped
02 [5890708f] (002/708) Accurately ripped
03 [601f757a] (002/710) Accurately ripped
04 [04074392] (002/710) Accurately ripped
05 [795a1684] (002/710) Accurately ripped
06 [cb9ec742] (002/710) Accurately ripped
07 [fef67512] (002/705) Accurately ripped
08 [4176f532] (002/707) Accurately ripped
09 [3d2bbac3] (002/708) Accurately ripped
10 [25a04b54] (002/709) Accurately ripped
11 [d35db919] (002/709) Accurately ripped
12 [e2233262] (002/706) Accurately ripped
13 [7ae2408f] (002/712) Accurately ripped
14 [cbf3ffce] (002/708) Accurately ripped
15 [ba31fcbf] (002/703) Accurately ripped
16 [2a2742d9] (002/706) Accurately ripped
17 [7e4ed663] (002/703) Accurately ripped
18 [12224505] (002/706) Accurately ripped
Offsetted by 12:
01 [12450b00] (012/708) Accurately ripped
02 [781c5412] (012/708) Accurately ripped
03 [d94d4118] (012/710) Accurately ripped
04 [ba4a4e2f] (012/710) Accurately ripped
05 [49179ee5] (012/710) Accurately ripped
06 [2a3c38c2] (012/710) Accurately ripped
07 [32846cae] (012/705) Accurately ripped
08 [369492bd] (011/707) Accurately ripped
09 [51375c38] (011/708) Accurately ripped
10 [d159fd92] (011/709) Accurately ripped
11 [c5d1ca84] (012/709) Accurately ripped
12 [3066b400] (012/706) Accurately ripped
13 [602e7a2a] (012/712) Accurately ripped
14 [6c538b21] (012/708) Accurately ripped
15 [28bff2ad] (012/703) Accurately ripped
16 [60174a07] (012/706) Accurately ripped
17 [867305ed] (012/703) Accurately ripped
18 [48c3089a] (012/706) Accurately ripped
Offsetted by 42:
01 [5b3f45f4] (065/708) Accurately ripped
02 [13fcc411] (064/708) Accurately ripped
03 [2d86d19b] (064/710) Accurately ripped
04 [495882b3] (064/710) Accurately ripped
05 [d0cda472] (063/710) Accurately ripped
06 [1cef552f] (065/710) Accurately ripped
07 [cde5da49] (063/705) Accurately ripped
08 [9decdb83] (064/707) Accurately ripped
09 [fcbad4c0] (065/708) Accurately ripped
10 [7222339b] (066/709) Accurately ripped
11 [f31bc687] (065/709) Accurately ripped
12 [b66c3bd9] (063/706) Accurately ripped
13 [daab9c4d] (063/712) Accurately ripped
14 [8e3141a4] (064/708) Accurately ripped
15 [5185c053] (059/703) Accurately ripped
16 [6dc76ded] (062/706) Accurately ripped
17 [af27f39f] (062/703) Accurately ripped
18 [44c6dc9f] (062/706) Accurately ripped
Offsetted by 731:
01 [3418a0fa] (022/708) Accurately ripped
02 [75f96c2d] (022/708) Accurately ripped
03 [3affdc72] (022/710) Accurately ripped
04 [2983a18b] (022/710) Accurately ripped
05 [f20bec79] (021/710) Accurately ripped
06 [4cb5d026] (021/710) Accurately ripped
07 [8e1a8d79] (021/705) Accurately ripped
08 [887e824b] (022/707) Accurately ripped
09 [91f8fa96] (021/708) Accurately ripped
10 [5d2e946f] (021/709) Accurately ripped
11 [e2185043] (021/709) Accurately ripped
12 [5cbb83ff] (021/706) Accurately ripped
13 [888dbbef] (021/712) Accurately ripped
14 [e9dd5cfb] (021/708) Accurately ripped
15 [be339140] (021/703) Accurately ripped
16 [4a47fbba] (021/706) Accurately ripped
17 [00b89c06] (021/703) Accurately ripped
18 [4de82fda] (019/706) Accurately ripped
Offsetted by 737:
01 [75e4465e] (002/708) Accurately ripped
02 [91585a18] (002/708) Accurately ripped
03 [18b66664] (002/710) Accurately ripped
04 [e24ca170] (002/710) Accurately ripped
05 [4429fc8b] (002/710) Accurately ripped
06 [514743e5] (002/710) Accurately ripped
07 [aba12b41] (002/705) Accurately ripped
08 [6a626e57] (002/707) Accurately ripped
09 [4df29198] (002/708) Accurately ripped
10 [08205027] (002/709) Accurately ripped
11 [a3ba942d] (002/709) Accurately ripped
12 [a8d6f8be] (002/706) Accurately ripped
13 [3b5f387b] (002/712) Accurately ripped
14 [858fdfa5] (002/708) Accurately ripped
15 [2cc1872e] (002/703) Accurately ripped
16 [803802e8] (002/706) Accurately ripped
17 [08dccb90] (002/703) Accurately ripped
18 [19f5043d] (002/706) Accurately ripped
Offsetted by -24:
01 [877f2aa8] (000/708) No match
02 [becffec0] (000/708) No match
03 [1416be22] (000/710) No match
04 [74870dff] (000/710) No match
05 [6a5a96e1] (000/710) No match
06 [f978b405] (000/710) No match
07 [accb55d2] (000/705) No match
08 [3f827b6d] (000/707) No match
09 [df973336] (000/708) No match
10 [cb05d07f] (000/709) No match
11 [961f0f9e] (000/709) No match
12 [5333a91c] (000/706) No match (V2 was not tested)
13 [006522a4] (000/712) No match
14 [aa164513] (000/708) No match
15 [916c2f19] (000/703) No match
16 [1c771ef3] (000/706) No match
17 [5599e8b1] (000/703) No match
18 [aa9c0a84] (000/706) No match
Offsetted by 79:
01 [9ba71732] (000/708) No match (V2 was not tested)
02 [2d5a9115] (000/708) No match (V2 was not tested)
03 [7502c022] (000/710) No match (V2 was not tested)
04 [d74f41eb] (000/710) No match (V2 was not tested)
05 [b1276a3f] (000/710) No match (V2 was not tested)
06 [356d5e9d] (000/710) No match (V2 was not tested)
07 [73e0f885] (000/705) No match (V2 was not tested)
08 [999c479a] (000/707) No match (V2 was not tested)
09 [0a0971b6] (000/708) No match (V2 was not tested)
10 [2fadbbd9] (000/709) No match (V2 was not tested)
11 [b9de4813] (000/709) No match (V2 was not tested)
12 [93ef59ad] (000/706) No match (V2 was not tested)
13 [3601b1a5] (000/712) No match (V2 was not tested)
14 [eb29155d] (000/708) No match (V2 was not tested)
15 [25f12ce4] (000/703) No match (V2 was not tested)
16 [0fba44de] (000/706) No match (V2 was not tested)
17 [36b1c372] (000/703) No match (V2 was not tested)
18 [da2caf5f] (000/706) No match (V2 was not tested)
Offsetted by 707:
01 [2cea0b6a] (000/708) No match
02 [01d7b749] (000/708) No match
03 [33044b50] (000/710) No match
04 [46e7a0d9] (000/710) No match
05 [809bd5a6] (000/710) No match
06 [8caedf0f] (000/710) No match
07 [f7cd16fe] (000/705) No match
08 [d6de96f6] (000/707) No match (V2 was not tested)
09 [5d93338c] (000/708) No match (V2 was not tested)
10 [b0fba643] (000/709) No match
11 [6b1741cf] (000/709) No match
12 [2c4dae67] (000/706) No match
13 [beafc9bf] (000/712) No match
14 [79ab5253] (000/708) No match (V2 was not tested)
15 [03fbb988] (000/703) No match
16 [7287df02] (000/706) No match
17 [e027ddde] (000/703) No match
18 [87a57512] (000/706) No match
Offsetted by 719:
01 [b0815632] (000/708) No match
02 [3cff9139] (000/708) No match
03 [57fe5f4e] (000/710) No match
04 [b812a16f] (000/710) No match
05 [24e3f5be] (000/710) No match
06 [190b6d61] (000/710) No match
07 [8e33475f] (000/705) No match
08 [e67bf88b] (000/707) No match (V2 was not tested)
09 [21d8177f] (000/708) No match (V2 was not tested)
10 [071c1d3a] (000/709) No match
11 [97224c9a] (000/709) No match
12 [c45f99ca] (000/706) No match
13 [2356c2d7] (000/712) No match
14 [b20c57a7] (000/708) No match (V2 was not tested)
15 [e117a564] (000/703) No match
16 [de67ed5e] (000/706) No match
17 [f0703cf2] (000/703) No match
18 [b5ce8780] (000/706) No match
Offsetted by 743:
01 [b7afebc2] (000/708) No match
02 [ad2a4827] (000/708) No match
03 [d12ccaa0] (000/710) No match
04 [9b21a133] (000/710) No match
05 [96480c9d] (000/710) No match
06 [d190b7c1] (000/710) No match
07 [82ac2ee3] (000/705) No match
08 [debca3a2] (000/707) No match (V2 was not tested)
09 [005e852f] (000/708) No match (V2 was not tested)
10 [b30a0bf0] (000/709) No match
11 [f9fc9288] (000/709) No match
12 [f4d46d18] (000/706) No match
13 [ee54b507] (000/712) No match
14 [211e624f] (000/708) No match (V2 was not tested)
15 [9b4f7d1c] (000/703) No match
16 [b6280a16] (000/706) No match
17 [1100fb1a] (000/703) No match
18 [e601d8c4] (000/706) No match

Track Peak [ CRC32 ] [W/O NULL] [ LOG ]
– 98,8 [B55043AA] [ECF514C4] CRC32
01 93,9 [829309C2] [A1E33142]
02 98,8 [406FB065] [FC0E9E26]
03 87,4 [8D1613A1] [303A7E5E]
04 98,8 [02DA0618] [40EF4953]
05 98,8 [7803C82E] [8A5F5A28]
06 82,4 [AF64EC0F] [E1316A43]
07 98,8 [5103DF62] [23FA9601]
08 98,8 [E3BCB081] [CB50E0AC]
09 98,5 [84E967EB] [C0DBFBB8]
10 98,8 [A5CF11DD] [EB977C59]
11 90,8 [F2CE528D] [778C00FE]
12 86,2 [765274C7] [FF562C02]
13 90,7 [F130C06D] [2BD7463A]
14 96,1 [A21DFA8B] [63925076]
15 91,1 [5678607C] [CFFB4633]
16 71,6 [8191E03A] [A814F243]
17 39,5 [D401D545] [75F49B05]
18 97,3 [6985FDD5] [BBC1FA80]


Tracklist DVD - "The Rosebum Film" by Michael Collins:

01. World Turning
02. Rhiannon
03. Say You Love Me
04. Go Your Own Way
05. You Make Loving Fun
06. I'm So Afraid

Title: Fleetwood Mac 1977 - Rumours [2013, Box] DVD
Size: 2.04 Gb ( 2 138 952,00 KBytes ) - DVD-5
Enabled regions: 1, 2, 3, 4, 5, 6, 7, 8

VTS_01 :
Play Length: 00:30:04+{00:30:04}
Video: NTSC 4:3 (720x480) VBR
Audio:
English (LinearPCM, 2 ch)
English (Dolby AC3, 6 ch)

VTS_02 :
Play Length: 00:00:07
Video: NTSC 16:9 (720x480) VBR, Auto Letterboxed
Audio:
English (Dolby AC3, 2 ch)
English (Dolby AC3, 2 ch)


Fleetwood Mac - Rumours (1977) [2013, Deluxe Edition Box Set] Re-up

Fleetwood Mac - Rumours (1977) [2013, Deluxe Edition Box Set] Re-up

Fleetwood Mac - Rumours (1977) [2013, Deluxe Edition Box Set] Re-up

All thanks go to ALLexxess

Fleetwood Mac in my Blog

Download Fleetwood Mac - Rumours (1977):