Subcategories

Fleetwood Mac - The Essential (2007)

Posted By: tirexiss
Fleetwood Mac - The Essential (2007)

Fleetwood Mac - The Essential (2007)
EAC | FLAC (tracks+.cue, log) | Covers Included | 01:49:16 | 710 MB
Genre: Blues Rock | Label: Sony BMG | Catalog: 88697105392

This double-CD set may well mislead listeners on two counts. On the one hand, there will be some neophyte listeners expecting to hear the silky pop/rock strains of the Lindsey Buckingham/Stevie Nicks-era Fleetwood Mac. This is, indeed, the original version of the band organized in 1967 by virtuoso blues guitarist/singer Peter Green, in which the latter shared the spotlight with fellow guitarist Jeremy Spencer, and they got no closer to pop/rock than renditions of Howlin' Wolf and B.B. King material. But even for listeners aware of the history of the band represented here, the "essential" will probably require some qualification – Sony/BMG's license on Fleetwood Mac's early library only encompasses the two years of recordings (1967-1969) that they made for Mike Vernon's Blue Horizon label; those recordings, especially the debut album and the singles "Black Magic Woman" and "The Green Manalishi," were hugely popular in England but were little more than cult items in America; most pointedly, they did not include the somewhat more diverse music that this version of the group cut for Warner Bros. in 1969-1971, at the tail-end of Green's tenure with the band. So even those listeners expecting the bluesy side of the group's history may be a little disappointed by the absence of anything here from that portion of their history that was widely distributed – at Blue Horizon, the group tended to plays and record nothing but blues, which ultimately limited even Green's creativity. Having said that, however, it should also be conceded that this set is probably the best overview of the group's Blue Horizon output that one is ever likely to find, containing virtually the entire debut album (a classic in any context) as well as the hit singles they generated, and filled out with the less-inventive but still worth hearing second album, all in state of the art sound. And unlike the six-CD Complete Blue Horizon Sessions set, this double-disc compilation contains only the finished, released masters, cleanly edited with no false starts and other digressions. So even if one already owns Blue Horizon box, this is a worthwhile acquisition. And the makers have also thrown in a handful of superb live tracks – featuring Willie Dixon, Buddy Guy, and Otis Spann from the group's Blues Jam in Chicago album. The annotation is surprisingly thorough, though whoever designed this set should have gone up one font in the type-face, for the benefit of the older listeners to whom this release will primarily appeal. Would-be American purchasers should also note that, because Sony's license on this material is limited to Europe, this set is an import to the United States and, thus, tends to be a bit pricier than the conventional domestic issues in the label's "Essential" series.
AllMusic

Fleetwood Mac - The Essential (2007)

Track List:

CD 1:
01. Black Magic Woman (2:54)
02. Albatross (3:12)
03. Long Grey Mare (2:16)
04. No Place to Go (3:22)
05. Merry Go Round (4:09)
06. Watch Out (4:15)
07. My Baby's Good to Me (2:52)
08. Looking for Somebody (2:52)
09. Coming Home (2:38)
10. World's in a Tangle (5:04)
11. If You Be My Baby n (3:54)
12. Worried Dream (5:24)
13. Trying So Hard to Forget (4:48)
14. Need Your Love Tonight (3:29)
15. I Loved Another Woman (2:57)
16. Love That Burns (5:01)

Exact Audio Copy V1.3 from 2. September 2016

EAC extraction logfile from 5. February 2018, 9:06

Fleetwood Mac / The Essential Fleetwood Mac (Disc 1)

Used drive : ATAPI iHAS124 F Adapter: 1 ID: 0

Read mode : Secure
Utilize accurate stream : Yes
Defeat audio cache : Yes
Make use of C2 pointers : No

Read offset correction : 6
Overread into Lead-In and Lead-Out : No
Fill up missing offset samples with silence : Yes
Delete leading and trailing silent blocks : No
Null samples used in CRC calculations : Yes
Used interface : Native Win32 interface for Win NT & 2000
Gap handling : Appended to previous track

Used output format : User Defined Encoder
Selected bitrate : 1024 kBit/s
Quality : High
Add ID3 tag : No
Command line compressor : C:\Program Files (x86)\Exact Audio Copy\Flac\flac.exe
Additional command line options : -8 -V -T "ARTIST=%artist%" -T "TITLE=%title%" -T "ALBUM=%albumtitle%" -T "DATE=%year%" -T "TRACKNUMBER=%tracknr%" -T "TOTALTRACKS=%numtracks%" -T "GENRE=%genre%" -T "ALBUMARTIST=%albumartist%" -T "ALBUM ARTIST=%albumartist%" -T "COMMENT=EAC Secure Mode, Test & Copy, AccurateRip, FLAC -8" %source%


TOC of the extracted CD

Track | Start | Length | Start sector | End sector
––––––––––––––––––––––––––––-
1 | 0:00.00 | 2:54.09 | 0 | 13058
2 | 2:54.09 | 3:12.68 | 13059 | 27526
3 | 6:07.02 | 2:16.12 | 27527 | 37738
4 | 8:23.14 | 3:22.68 | 37739 | 52956
5 | 11:46.07 | 4:09.65 | 52957 | 71696
6 | 15:55.72 | 4:15.33 | 71697 | 90854
7 | 20:11.30 | 2:52.05 | 90855 | 103759
8 | 23:03.35 | 2:52.41 | 103760 | 116700
9 | 25:56.01 | 2:38.47 | 116701 | 128597
10 | 28:34.48 | 5:04.58 | 128598 | 151455
11 | 33:39.31 | 3:54.19 | 151456 | 169024
12 | 37:33.50 | 5:24.46 | 169025 | 193370
13 | 42:58.21 | 4:48.11 | 193371 | 214981
14 | 47:46.32 | 3:29.44 | 214982 | 230700
15 | 51:16.01 | 2:57.73 | 230701 | 244048
16 | 54:13.74 | 5:01.64 | 244049 | 266687


Track 1

Filename C:\Users\biafr_000\Music\Fleetwood Mac - The Essential Fleetwood Mac (2007) [FLAC]\CD1\01 - Black Magic Woman.wav

Pre-gap length 0:00:02.00

Peak level 97.7 %
Extraction speed 5.2 X
Track quality 100.0 %
Test CRC 657DBED2
Copy CRC 657DBED2
Accurately ripped (confidence 8) [430C26D5] (AR v2)
Copy OK

Track 2

Filename C:\Users\biafr_000\Music\Fleetwood Mac - The Essential Fleetwood Mac (2007) [FLAC]\CD1\02 - Albatross.wav

Pre-gap length 0:00:02.52

Peak level 97.7 %
Extraction speed 4.6 X
Track quality 99.9 %
Test CRC 6A16584C
Copy CRC 6A16584C
Accurately ripped (confidence 8) [3D419EED] (AR v2)
Copy OK

Track 3

Filename C:\Users\biafr_000\Music\Fleetwood Mac - The Essential Fleetwood Mac (2007) [FLAC]\CD1\03 - Long Grey Mare.wav

Pre-gap length 0:00:03.09

Peak level 97.7 %
Extraction speed 5.7 X
Track quality 100.0 %
Test CRC 3E11E2DD
Copy CRC 3E11E2DD
Accurately ripped (confidence 8) [45822521] (AR v2)
Copy OK

Track 4

Filename C:\Users\biafr_000\Music\Fleetwood Mac - The Essential Fleetwood Mac (2007) [FLAC]\CD1\04 - No Place To Go.wav

Pre-gap length 0:00:03.06

Peak level 97.7 %
Extraction speed 6.5 X
Track quality 100.0 %
Test CRC 0B151C2E
Copy CRC 0B151C2E
Accurately ripped (confidence 8) [A884F4B0] (AR v2)
Copy OK

Track 5

Filename C:\Users\biafr_000\Music\Fleetwood Mac - The Essential Fleetwood Mac (2007) [FLAC]\CD1\05 - Merry Go Round.wav

Pre-gap length 0:00:02.59

Peak level 97.7 %
Extraction speed 7.1 X
Track quality 100.0 %
Test CRC 6CDC89F0
Copy CRC 6CDC89F0
Accurately ripped (confidence 8) [0446E7E2] (AR v2)
Copy OK

Track 6

Filename C:\Users\biafr_000\Music\Fleetwood Mac - The Essential Fleetwood Mac (2007) [FLAC]\CD1\06 - Watch Out.wav

Pre-gap length 0:00:02.60

Peak level 93.4 %
Extraction speed 7.5 X
Track quality 100.0 %
Test CRC 37212B70
Copy CRC 37212B70
Accurately ripped (confidence 8) [6DEEA699] (AR v2)
Copy OK

Track 7

Filename C:\Users\biafr_000\Music\Fleetwood Mac - The Essential Fleetwood Mac (2007) [FLAC]\CD1\07 - My Baby's Good To Me.wav

Pre-gap length 0:00:02.47

Peak level 97.7 %
Extraction speed 7.4 X
Track quality 100.0 %
Test CRC F1A43DA8
Copy CRC F1A43DA8
Accurately ripped (confidence 8) [E4D2941A] (AR v2)
Copy OK

Track 8

Filename C:\Users\biafr_000\Music\Fleetwood Mac - The Essential Fleetwood Mac (2007) [FLAC]\CD1\08 - Looking For Somebody.wav

Pre-gap length 0:00:02.56

Peak level 97.7 %
Extraction speed 7.7 X
Track quality 100.0 %
Test CRC 31F12A42
Copy CRC 31F12A42
Accurately ripped (confidence 8) [66572266] (AR v2)
Copy OK

Track 9

Filename C:\Users\biafr_000\Music\Fleetwood Mac - The Essential Fleetwood Mac (2007) [FLAC]\CD1\09 - Coming Home.wav

Pre-gap length 0:00:02.56

Peak level 97.7 %
Extraction speed 7.8 X
Track quality 100.0 %
Test CRC 654321E5
Copy CRC 654321E5
Accurately ripped (confidence 8) [36DCD75D] (AR v2)
Copy OK

Track 10

Filename C:\Users\biafr_000\Music\Fleetwood Mac - The Essential Fleetwood Mac (2007) [FLAC]\CD1\10 - Worlds In A Tangle.wav

Peak level 88.5 %
Extraction speed 7.5 X
Track quality 99.9 %
Test CRC 2DA40B1C
Copy CRC 2DA40B1C
Accurately ripped (confidence 8) [A3BC9211] (AR v2)
Copy OK

Track 11

Filename C:\Users\biafr_000\Music\Fleetwood Mac - The Essential Fleetwood Mac (2007) [FLAC]\CD1\11 - If You Be My Baby.wav

Pre-gap length 0:00:03.22

Peak level 97.7 %
Extraction speed 8.9 X
Track quality 100.0 %
Test CRC 06BF9A8E
Copy CRC 06BF9A8E
Accurately ripped (confidence 8) [C8C26B84] (AR v2)
Copy OK

Track 12

Filename C:\Users\biafr_000\Music\Fleetwood Mac - The Essential Fleetwood Mac (2007) [FLAC]\CD1\12 - Worried Dream.wav

Pre-gap length 0:00:02.58

Peak level 97.7 %
Extraction speed 9.6 X
Track quality 100.0 %
Test CRC 3574920C
Copy CRC 3574920C
Accurately ripped (confidence 8) [4A5C94CC] (AR v2)
Copy OK

Track 13

Filename C:\Users\biafr_000\Music\Fleetwood Mac - The Essential Fleetwood Mac (2007) [FLAC]\CD1\13 - Trying So Hard To Forget.wav

Pre-gap length 0:00:02.56

Peak level 97.7 %
Extraction speed 8.3 X
Track quality 99.9 %
Test CRC DB7AAC3C
Copy CRC DB7AAC3C
Accurately ripped (confidence 8) [367BF26D] (AR v2)
Copy OK

Track 14

Filename C:\Users\biafr_000\Music\Fleetwood Mac - The Essential Fleetwood Mac (2007) [FLAC]\CD1\14 - Need Your Love Tonight.wav

Pre-gap length 0:00:03.12

Peak level 77.5 %
Extraction speed 9.7 X
Track quality 100.0 %
Test CRC 92394574
Copy CRC 92394574
Accurately ripped (confidence 8) [670704BC] (AR v2)
Copy OK

Track 15

Filename C:\Users\biafr_000\Music\Fleetwood Mac - The Essential Fleetwood Mac (2007) [FLAC]\CD1\15 - I Loved Another Woman.wav

Pre-gap length 0:00:02.54

Peak level 77.4 %
Extraction speed 7.6 X
Track quality 99.9 %
Test CRC 8421CB22
Copy CRC 8421CB22
Accurately ripped (confidence 8) [8164EB74] (AR v2)
Copy OK

Track 16

Filename C:\Users\biafr_000\Music\Fleetwood Mac - The Essential Fleetwood Mac (2007) [FLAC]\CD1\16 - Love That Burns.wav

Pre-gap length 0:00:02.66

Peak level 87.0 %
Extraction speed 10.5 X
Track quality 100.0 %
Test CRC 4D77261E
Copy CRC 4D77261E
Accurately ripped (confidence 8) [DC45CBD8] (AR v2)
Copy OK


All tracks accurately ripped

No errors occurred

End of status report

–– CUETools DB Plugin V2.1.6

[CTDB TOCID: YRDYP5b.end40FvAj6R0YeKwTQ8-] found
Submit result: YRDYP5b.end40FvAj6R0YeKwTQ8- has been confirmed
Track | CTDB Status
1 | (27/27) Accurately ripped
2 | (27/27) Accurately ripped
3 | (27/27) Accurately ripped
4 | (27/27) Accurately ripped
5 | (27/27) Accurately ripped
6 | (27/27) Accurately ripped
7 | (27/27) Accurately ripped
8 | (27/27) Accurately ripped
9 | (27/27) Accurately ripped
10 | (27/27) Accurately ripped
11 | (27/27) Accurately ripped
12 | (27/27) Accurately ripped
13 | (27/27) Accurately ripped
14 | (27/27) Accurately ripped
15 | (27/27) Accurately ripped
16 | (27/27) Accurately ripped


==== Log checksum C0C313F564566331E9E1F18F3B6490ADFDD5BAA4027CA3017E0871DC72D0D1AE ====

CD 2:
01. Dust My Broom (2:54)
02. Rollin' Man (2:54)
03. Lazy Poker Blues (2:37)
04. I Believe My Time Ain't Long (2:57)
05. Shake Your Money Maker (2:57)
06. Cold Black Night (3:17)
07. Got to Move (3:21)
08. Stop Messin' Around (2:22)
09. Rockin' Boogie (3:49)
10. Talk with You (3:26)
11. Doctor Brown (3:46)
12. Jigsaw Puzzle Blues (1:36)
13. Like Crying (2:31)
14. The World Keep on Turning (2:30)
15. My Heart Beat Like a Hammer (2:59)
16. Need Your Love So Bad / John (6:13)

Exact Audio Copy V1.3 from 2. September 2016

EAC extraction logfile from 5. February 2018, 9:28

Fleetwood Mac / The Essential Fleetwood Mac (Disc 2)

Used drive : ATAPI iHAS124 F Adapter: 1 ID: 0

Read mode : Secure
Utilize accurate stream : Yes
Defeat audio cache : Yes
Make use of C2 pointers : No

Read offset correction : 6
Overread into Lead-In and Lead-Out : No
Fill up missing offset samples with silence : Yes
Delete leading and trailing silent blocks : No
Null samples used in CRC calculations : Yes
Used interface : Native Win32 interface for Win NT & 2000
Gap handling : Appended to previous track

Used output format : User Defined Encoder
Selected bitrate : 1024 kBit/s
Quality : High
Add ID3 tag : No
Command line compressor : C:\Program Files (x86)\Exact Audio Copy\Flac\flac.exe
Additional command line options : -8 -V -T "ARTIST=%artist%" -T "TITLE=%title%" -T "ALBUM=%albumtitle%" -T "DATE=%year%" -T "TRACKNUMBER=%tracknr%" -T "TOTALTRACKS=%numtracks%" -T "GENRE=%genre%" -T "ALBUMARTIST=%albumartist%" -T "ALBUM ARTIST=%albumartist%" -T "COMMENT=EAC Secure Mode, Test & Copy, AccurateRip, FLAC -8" %source%


TOC of the extracted CD

Track | Start | Length | Start sector | End sector
––––––––––––––––––––––––––––-
1 | 0:00.00 | 2:54.65 | 0 | 13114
2 | 2:54.65 | 2:54.69 | 13115 | 26233
3 | 5:49.59 | 2:37.06 | 26234 | 38014
4 | 8:26.65 | 2:57.02 | 38015 | 51291
5 | 11:23.67 | 2:57.35 | 51292 | 64601
6 | 14:21.27 | 3:17.67 | 64602 | 79443
7 | 17:39.19 | 3:21.13 | 79444 | 94531
8 | 21:00.32 | 2:22.25 | 94532 | 105206
9 | 23:22.57 | 3:49.45 | 105207 | 122426
10 | 27:12.27 | 3:26.07 | 122427 | 137883
11 | 30:38.34 | 3:46.70 | 137884 | 154903
12 | 34:25.29 | 1:36.25 | 154904 | 162128
13 | 36:01.54 | 2:31.15 | 162129 | 173468
14 | 38:32.69 | 2:30.62 | 173469 | 184780
15 | 41:03.56 | 2:59.56 | 184781 | 198261
16 | 44:03.37 | 6:13.38 | 198262 | 226274


Track 1

Filename C:\Users\biafr_000\Music\Fleetwood Mac - The Essential Fleetwood Mac (2007) [FLAC]\CD2\01 - Dust My Broom.wav

Pre-gap length 0:00:02.00

Peak level 97.7 %
Extraction speed 4.7 X
Track quality 100.0 %
Test CRC F17B63AD
Copy CRC F17B63AD
Track not present in AccurateRip database
Copy OK

Track 2

Filename C:\Users\biafr_000\Music\Fleetwood Mac - The Essential Fleetwood Mac (2007) [FLAC]\CD2\02 - Rollin' Man.wav

Pre-gap length 0:00:02.67

Peak level 97.7 %
Extraction speed 4.1 X
Track quality 99.9 %
Test CRC 92CBC383
Copy CRC 92CBC383
Track not present in AccurateRip database
Copy OK

Track 3

Filename C:\Users\biafr_000\Music\Fleetwood Mac - The Essential Fleetwood Mac (2007) [FLAC]\CD2\03 - Lazy Poker Blues.wav

Pre-gap length 0:00:02.65

Peak level 97.7 %
Extraction speed 5.3 X
Track quality 100.0 %
Test CRC DB5B8FBD
Copy CRC DB5B8FBD
Track not present in AccurateRip database
Copy OK

Track 4

Filename C:\Users\biafr_000\Music\Fleetwood Mac - The Essential Fleetwood Mac (2007) [FLAC]\CD2\04 - I Believe My Time Ain't Long.wav

Pre-gap length 0:00:02.73

Peak level 97.7 %
Extraction speed 5.8 X
Track quality 100.0 %
Test CRC D47E9B4A
Copy CRC D47E9B4A
Track not present in AccurateRip database
Copy OK

Track 5

Filename C:\Users\biafr_000\Music\Fleetwood Mac - The Essential Fleetwood Mac (2007) [FLAC]\CD2\05 - Shake Your Money Maker.wav

Pre-gap length 0:00:02.69

Peak level 87.0 %
Extraction speed 6.1 X
Track quality 100.0 %
Test CRC 7BFB2EFB
Copy CRC 7BFB2EFB
Track not present in AccurateRip database
Copy OK

Track 6

Filename C:\Users\biafr_000\Music\Fleetwood Mac - The Essential Fleetwood Mac (2007) [FLAC]\CD2\06 - Cold Black Night.wav

Pre-gap length 0:00:02.53

Peak level 87.0 %
Extraction speed 5.3 X
Track quality 99.9 %
Test CRC 40F57BAF
Copy CRC 40F57BAF
Track not present in AccurateRip database
Copy OK

Track 7

Filename C:\Users\biafr_000\Music\Fleetwood Mac - The Essential Fleetwood Mac (2007) [FLAC]\CD2\07 - Got To Move.wav

Pre-gap length 0:00:02.61

Peak level 86.9 %
Extraction speed 5.4 X
Track quality 99.9 %
Test CRC D6F44240
Copy CRC D6F44240
Track not present in AccurateRip database
Copy OK

Track 8

Filename C:\Users\biafr_000\Music\Fleetwood Mac - The Essential Fleetwood Mac (2007) [FLAC]\CD2\08 - Stop Messin' Around.wav

Pre-gap length 0:00:02.53

Peak level 97.7 %
Extraction speed 6.6 X
Track quality 100.0 %
Test CRC 524B52F8
Copy CRC 524B52F8
Track not present in AccurateRip database
Copy OK

Track 9

Filename C:\Users\biafr_000\Music\Fleetwood Mac - The Essential Fleetwood Mac (2007) [FLAC]\CD2\09 - Rockin' Boogie.wav

Pre-gap length 0:00:02.56

Peak level 97.7 %
Extraction speed 7.5 X
Track quality 100.0 %
Test CRC 65776FFD
Copy CRC 65776FFD
Track not present in AccurateRip database
Copy OK

Track 10

Filename C:\Users\biafr_000\Music\Fleetwood Mac - The Essential Fleetwood Mac (2007) [FLAC]\CD2\10 - Talk With You.wav

Pre-gap length 0:00:02.57

Peak level 87.9 %
Extraction speed 7.7 X
Track quality 100.0 %
Test CRC ABDF2525
Copy CRC ABDF2525
Track not present in AccurateRip database
Copy OK

Track 11

Filename C:\Users\biafr_000\Music\Fleetwood Mac - The Essential Fleetwood Mac (2007) [FLAC]\CD2\11 - Doctor Brown.wav

Pre-gap length 0:00:02.66

Peak level 86.9 %
Extraction speed 8.0 X
Track quality 100.0 %
Test CRC 78471B06
Copy CRC 78471B06
Track not present in AccurateRip database
Copy OK

Track 12

Filename C:\Users\biafr_000\Music\Fleetwood Mac - The Essential Fleetwood Mac (2007) [FLAC]\CD2\12 - Jigsaw Puzzle Blues.wav

Pre-gap length 0:00:02.70

Peak level 97.7 %
Extraction speed 6.9 X
Track quality 100.0 %
Test CRC 7CF19DAE
Copy CRC 7CF19DAE
Track not present in AccurateRip database
Copy OK

Track 13

Filename C:\Users\biafr_000\Music\Fleetwood Mac - The Essential Fleetwood Mac (2007) [FLAC]\CD2\13 - Like Crying.wav

Pre-gap length 0:00:02.67

Peak level 97.7 %
Extraction speed 7.9 X
Track quality 100.0 %
Test CRC 87BAA6C1
Copy CRC 87BAA6C1
Track not present in AccurateRip database
Copy OK

Track 14

Filename C:\Users\biafr_000\Music\Fleetwood Mac - The Essential Fleetwood Mac (2007) [FLAC]\CD2\14 - The World Keep On Turning.wav

Pre-gap length 0:00:02.55

Peak level 97.7 %
Extraction speed 8.0 X
Track quality 100.0 %
Test CRC 39B10449
Copy CRC 39B10449
Track not present in AccurateRip database
Copy OK

Track 15

Filename C:\Users\biafr_000\Music\Fleetwood Mac - The Essential Fleetwood Mac (2007) [FLAC]\CD2\15 - My Heart Beat Like A Hammer.wav

Pre-gap length 0:00:03.04

Peak level 87.0 %
Extraction speed 8.5 X
Track quality 100.0 %
Test CRC 71FA7626
Copy CRC 71FA7626
Track not present in AccurateRip database
Copy OK

Track 16

Filename C:\Users\biafr_000\Music\Fleetwood Mac - The Essential Fleetwood Mac (2007) [FLAC]\CD2\16 - Need Your Love So Bad.wav

Pre-gap length 0:00:02.60

Peak level 97.7 %
Extraction speed 8.4 X
Track quality 99.9 %
Test CRC 1EDB4E55
Copy CRC 1EDB4E55
Track not present in AccurateRip database
Copy OK


None of the tracks are present in the AccurateRip database

No errors occurred

End of status report

–– CUETools DB Plugin V2.1.6

[CTDB TOCID: o1gd2Si7a57TYH59BX7b7Aq.POg-] found
Submit result: o1gd2Si7a57TYH59BX7b7Aq.POg- has been confirmed
Track | CTDB Status
1 | (30/30) Accurately ripped
2 | (30/30) Accurately ripped
3 | (30/30) Accurately ripped
4 | (30/30) Accurately ripped
5 | (30/30) Accurately ripped
6 | (30/30) Accurately ripped
7 | (30/30) Accurately ripped
8 | (30/30) Accurately ripped
9 | (30/30) Accurately ripped
10 | (30/30) Accurately ripped
11 | (30/30) Accurately ripped
12 | (30/30) Accurately ripped
13 | (30/30) Accurately ripped
14 | (29/30) Accurately ripped
15 | (30/30) Accurately ripped
16 | (30/30) Accurately ripped


==== Log checksum 1D0C84BC717B0FE1C1F6D609DDA646ED0E21072BA3695ED0495E7CE9D34BDC64 ====

Thanks to the Original ripper (unknown)!

Download: