Subcategories

Flight - Incredible Journey (1976)

Posted By: v3122
Flight - Incredible Journey (1976)

Flight - Incredible Journey (1976)
EAC | Flac(Image) + Cue + Log & iPod M4A(Tracks) & MP3 CBR 320Kbps
2013 | Eastworld Recordings, EW0117CD | ~ 260 or 272 or 89 Mb | Scans(jpg, 300dpi) Included
Progressive Rock / Jazz Fusion

Kind of like ELP and very early Chicago having a VIOLENT head on collision, throw in a little RTF. Deadly serious musicianship and over-the-top hilariously goofy lyrics sung in kind of a Greg Lake voice (courtesy of trumpeter/mastermind Pat Vidas). Oddly enjoyable in its own hilariously over-the-top way.

by TheOwl, rateyourmusic
Tracklist:

01. Music is (6:49)
02. 1929 (5:38)
03. First impression (3:39)
04. Mystery man (3:21)
05. 2003 (5:42)
06. Visions of a dream (3:41)
07. The sands of time (4:20)
08. Rock'n'roll star (3:51)

Exact Audio Copy V1.0 beta 3 from 29. August 2011

EAC extraction logfile from 21. June 2013, 20:21

Flight / Incredible Journey

Used drive : ATAPI iHAS324 Y Adapter: 4 ID: 0

Read mode : Secure
Utilize accurate stream : Yes
Defeat audio cache : Yes
Make use of C2 pointers : No

Read offset correction : 48
Overread into Lead-In and Lead-Out : No
Fill up missing offset samples with silence : Yes
Delete leading and trailing silent blocks : No
Null samples used in CRC calculations : Yes
Used interface : Native Win32 interface for Win NT & 2000
Gap handling : Appended to previous track

Used output format : User Defined Encoder
Selected bitrate : 896 kBit/s
Quality : High
Add ID3 tag : No
Command line compressor : C:\Program Files\Exact Audio Copy\flac.exe
Additional command line options : -8 -V -T "ARTIST=%artist%" -T "TITLE=%title%" -T "ALBUM=%albumtitle%" -T "DATE=%year%" -T "TRACKNUMBER=%tracknr%" -T "GENRE=%genre%" -T "PERFORMER=%albuminterpret%" -T "COMPOSER=%composer%" %haslyrics%–tag-from-file=LYRICS="%lyricsfile%"%haslyrics% -T "ALBUMARTIST=%albumartist%" -T "DISCNUMBER=%cdnumber%" -T "TOTALDISCS=%totalcds%" -T "TOTALTRACKS=%numtracks%" -T "COMMENT=%comment%" %source% -o %dest%


TOC of the extracted CD

Track | Start | Length | Start sector | End sector
––––––––––––––––––––––––––––-
1 | 0:00.00 | 6:49.69 | 0 | 30743
2 | 6:49.69 | 5:38.19 | 30744 | 56112
3 | 12:28.13 | 3:39.05 | 56113 | 72542
4 | 16:07.18 | 3:21.52 | 72543 | 87669
5 | 19:28.70 | 5:42.55 | 87670 | 113374
6 | 25:11.50 | 3:41.03 | 113375 | 129952
7 | 28:52.53 | 4:20.29 | 129953 | 149481
8 | 33:13.07 | 3:51.49 | 149482 | 166855


Track 1

Filename C:\EAC\01 - Music Is.wav

Pre-gap length 0:00:02.00

Peak level 99.9 %
Extraction speed 2.6 X
Track quality 100.0 %
Test CRC B01C6245
Copy CRC B01C6245
Track not present in AccurateRip database
Copy OK

Track 2

Filename C:\EAC\02 - 1929.wav

Peak level 99.9 %
Extraction speed 3.0 X
Track quality 100.0 %
Test CRC 9CF9FDC5
Copy CRC 9CF9FDC5
Track not present in AccurateRip database
Copy OK

Track 3

Filename C:\EAC\03 - First Impression.wav

Peak level 99.9 %
Extraction speed 3.1 X
Track quality 100.0 %
Test CRC CB660A57
Copy CRC CB660A57
Track not present in AccurateRip database
Copy OK

Track 4

Filename C:\EAC\04 - Mystery Man.wav

Peak level 99.9 %
Extraction speed 3.2 X
Track quality 100.0 %
Test CRC 737B9387
Copy CRC 737B9387
Track not present in AccurateRip database
Copy OK

Track 5

Filename C:\EAC\05 - 2003.wav

Peak level 99.9 %
Extraction speed 3.7 X
Track quality 100.0 %
Test CRC 723DD1FE
Copy CRC 723DD1FE
Track not present in AccurateRip database
Copy OK

Track 6

Filename C:\EAC\06 - Visions Of A Dream.wav

Peak level 99.9 %
Extraction speed 3.7 X
Track quality 100.0 %
Test CRC 2F225E3D
Copy CRC 2F225E3D
Track not present in AccurateRip database
Copy OK

Track 7

Filename C:\EAC\07 - The Sands Of Time.wav

Peak level 99.9 %
Extraction speed 4.0 X
Track quality 100.0 %
Test CRC DF4708F7
Copy CRC DF4708F7
Track not present in AccurateRip database
Copy OK

Track 8

Filename C:\EAC\08 - Rock 'N' Roll Star.wav

Peak level 99.9 %
Extraction speed 4.1 X
Track quality 100.0 %
Test CRC 6FFADECC
Copy CRC 6FFADECC
Track not present in AccurateRip database
Copy OK


None of the tracks are present in the AccurateRip database

No errors occurred

End of status report

foobar2000 1.2.4 / Dynamic Range Meter 1.1.1
log date: 2013-07-29 21:28:43

––––––––––––––––––––––––––––––––––––––––
Analyzed: Flight / Incredible Journey
––––––––––––––––––––––––––––––––––––––––

DR Peak RMS Duration Track
––––––––––––––––––––––––––––––––––––––––
DR9 -0.01 dB -10.43 dB 6:50 01-Music Is
DR9 -0.01 dB -10.46 dB 5:38 02-1929
DR9 -0.01 dB -10.38 dB 3:39 03-First Impression
DR8 -0.01 dB -10.14 dB 3:22 04-Mystery Man
DR8 -0.01 dB -9.02 dB 5:43 05-2003
DR8 -0.01 dB -8.89 dB 3:41 06-Visions Of A Dream
DR9 -0.01 dB -10.78 dB 4:20 07-The Sands Of Time
DR8 -0.01 dB -9.46 dB 3:52 08-Rock 'N' Roll Star
––––––––––––––––––––––––––––––––––––––––

Number of tracks: 8
Official DR value: DR8

Samplerate: 44100 Hz
Channels: 2
Bits per sample: 16
Bitrate: 946 kbps
Codec: FLAC

Musicians:

Pat Vidas (brass, lead vocals),
Ted Karczewski (electric guitar, acoustic guitar),
John Ray (acoustic guitar, bass),
Russell A Dawber Jr (drums, percussion),
Jim Michael "Fizzwah" Yaeger (keyboards),
John DeNicola (bass),
Steve Shebar (drums)

Flight - Incredible Journey (1976)

All thanks go to kotetsu29292929

Download Flight - Incredible Journey (1976):