Subcategories

Fools Garden - High Times: The Best Of Fools Garden (2009)

Posted By: popsakov
Fools Garden - High Times: The Best Of Fools Garden (2009)

Fools Garden - High Times: The Best Of Fools Garden (2009)
EAC Rip | FLAC (Img) + Cue + Log ~ 396 Mb | MP3 CBR320 ~ 132 Mb
Full Scans ~ 56 Mb | 00:54:46 | RAR 5% Recovery
BMG / Ladybird Music #88697586962 / G010001852960Z
Pop Rock / Alternative Rock / Indie Pop

High Times – The Best of Fools Garden is a best-of compilation album by German pop band Fools Garden, released on October 2, 2009. It features 14 tracks taken from the band's back catalogue, plus one new recording. Ten of the tracks were released in the past as singles (eleven if counting the new track and single, "High Time"). The compilation doesn't include any song from band's first two albums and omits eight of their later singles, such as "Pieces", "It Can Happen", "Happy", "In the Name", "Closer", "Man of Devotion", "Does Anybody Know?" and "Cold". The songs "Lemon Tree", "Wild Days" and "Suzy" have been rerecorded for this compilation.

***************

Fools Garden - High Times: The Best Of Fools Garden (2009)

Track List:

01. Lemon Tree 2009 [3:08]
02. Wild Days 2009 [3:29]
03. Probably [2:51]
04. Why did she go [3:24]
05. Rainy Day [3:12]
06. Suzy 2009 [4:02]
07. Dreaming [3:39]
08. Welcome Sun [4:25]
09. Count on me [3:35]
10. Comedy Song [3:05]
11. Life [4:34]
12. I got a Ticket [3:39]
13. Home [4:38]
14. Million Dollar Baby [3:19]
15. High Time [3:46]

Exact Audio Copy V1.3 from 2. September 2016

EAC extraction logfile from 10. November 2019, 15:54

Fools Garden / High Times - The Best Of

Used drive : ATAPI iHAS122 C Adapter: 1 ID: 0

Read mode : Secure
Utilize accurate stream : Yes
Defeat audio cache : Yes
Make use of C2 pointers : No

Read offset correction : 6
Overread into Lead-In and Lead-Out : No
Fill up missing offset samples with silence : Yes
Delete leading and trailing silent blocks : No
Null samples used in CRC calculations : Yes
Used interface : Native Win32 interface for Win NT & 2000

Used output format : Internal WAV Routines
Sample format : 44.100 Hz; 16 Bit; Stereo


TOC of the extracted CD

Track | Start | Length | Start sector | End sector
––––––––––––––––––––––––––––-
1 | 0:00.00 | 3:07.63 | 0 | 14087
2 | 3:07.63 | 3:29.00 | 14088 | 29762
3 | 6:36.63 | 2:50.41 | 29763 | 42553
4 | 9:27.29 | 3:24.00 | 42554 | 57853
5 | 12:51.29 | 3:12.34 | 57854 | 72287
6 | 16:03.63 | 4:02.00 | 72288 | 90437
7 | 20:05.63 | 3:39.00 | 90438 | 106862
8 | 23:44.63 | 4:24.50 | 106863 | 126712
9 | 28:09.38 | 3:35.25 | 126713 | 142862
10 | 31:44.63 | 3:05.00 | 142863 | 156737
11 | 34:49.63 | 4:34.00 | 156738 | 177287
12 | 39:23.63 | 3:39.00 | 177288 | 193712
13 | 43:02.63 | 4:38.00 | 193713 | 214562
14 | 47:40.63 | 3:19.00 | 214563 | 229487
15 | 50:59.63 | 3:46.14 | 229488 | 246451


Range status and errors

Selected range

Filename C:\Users\44740\Desktop\Fools Garden - High Times - The Best Of.wav

Peak level 98.9 %
Extraction speed 8.4 X
Range quality 100.0 %
Test CRC AC6551EF
Copy CRC AC6551EF
Copy OK

No errors occurred


AccurateRip summary

Track 1 accurately ripped (confidence 8) [FD45DD46] (AR v2)
Track 2 accurately ripped (confidence 7) [41C5F3BC] (AR v2)
Track 3 accurately ripped (confidence 7) [62C26128] (AR v2)
Track 4 accurately ripped (confidence 7) [EA366387] (AR v2)
Track 5 accurately ripped (confidence 7) [D3F4CBFE] (AR v2)
Track 6 accurately ripped (confidence 7) [8B992F8F] (AR v2)
Track 7 accurately ripped (confidence 7) [2F7A57B2] (AR v2)
Track 8 accurately ripped (confidence 7) [F35344C3] (AR v2)
Track 9 accurately ripped (confidence 7) [3C5B2193] (AR v2)
Track 10 accurately ripped (confidence 7) [A9761A58] (AR v2)
Track 11 accurately ripped (confidence 7) [905CBCAD] (AR v2)
Track 12 accurately ripped (confidence 7) [717B1EB2] (AR v2)
Track 13 accurately ripped (confidence 7) [7B590C80] (AR v2)
Track 14 accurately ripped (confidence 7) [7FAE1BCD] (AR v2)
Track 15 accurately ripped (confidence 7) [1D122630] (AR v2)

All tracks accurately ripped

End of status report

–– CUETools DB Plugin V2.1.6

[CTDB TOCID: 9IgKVWeFBkysBVpVXMKsQ8k5MPI-] found
Submit result: already submitted
Track | CTDB Status
1 | (32/33) Accurately ripped
2 | (32/33) Accurately ripped
3 | (32/33) Accurately ripped
4 | (32/33) Accurately ripped
5 | (32/33) Accurately ripped
6 | (32/33) Accurately ripped
7 | (32/33) Accurately ripped
8 | (32/33) Accurately ripped
9 | (32/33) Accurately ripped
10 | (32/33) Accurately ripped
11 | (32/33) Accurately ripped
12 | (32/33) Accurately ripped
13 | (32/33) Accurately ripped
14 | (32/33) Accurately ripped
15 | (32/33) Accurately ripped


==== Log checksum CCA077C730B498D54068C0B127F0C98A4DDF079479DE1F7483183D5DDFA4C463 ====

[CUETools log; Date: 11.11.2019 16:25:14; Version: 2.1.6]
[CTDB TOCID: 9IgKVWeFBkysBVpVXMKsQ8k5MPI-] found.
Track | CTDB Status
1 | (32/33) Accurately ripped
2 | (32/33) Accurately ripped
3 | (32/33) Accurately ripped
4 | (32/33) Accurately ripped
5 | (32/33) Accurately ripped
6 | (32/33) Accurately ripped
7 | (32/33) Accurately ripped
8 | (32/33) Accurately ripped
9 | (32/33) Accurately ripped
10 | (32/33) Accurately ripped
11 | (32/33) Accurately ripped
12 | (32/33) Accurately ripped
13 | (32/33) Accurately ripped
14 | (32/33) Accurately ripped
15 | (32/33) Accurately ripped
[AccurateRip ID: 001d0462-014d0d9e-e40cd60f] found.
Track [ CRC | V2 ] Status
01 [52d7a3a3|fd45dd46] (02+08/10) Accurately ripped
02 [6e821be7|41c5f3bc] (00+07/07) Accurately ripped
03 [c6a592f6|62c26128] (00+07/07) Accurately ripped
04 [2e85b57a|ea366387] (00+07/07) Accurately ripped
05 [22d38c9c|d3f4cbfe] (00+07/07) Accurately ripped
06 [5560ff51|8b992f8f] (00+07/07) Accurately ripped
07 [bcbcb184|2f7a57b2] (00+07/07) Accurately ripped
08 [9a814334|f35344c3] (00+07/07) Accurately ripped
09 [e7c2b944|3c5b2193] (00+07/07) Accurately ripped
10 [6bf14cfd|a9761a58] (00+07/07) Accurately ripped
11 [84af13e1|905cbcad] (00+07/07) Accurately ripped
12 [99cecbee|717b1eb2] (00+07/07) Accurately ripped
13 [7f102d24|7b590c80] (00+07/07) Accurately ripped
14 [4117dd97|7fae1bcd] (00+07/07) Accurately ripped
15 [6bd58811|1d122630] (00+07/07) Accurately ripped

Track Peak [ CRC32 ] [W/O NULL] [ LOG ]
– 98,9 [AC6551EF] [3D6C79E3] CRC32
01 96,6 [57BCD34A] [A2F50B1E]
02 97,2 [8432D400] [6A3BB514]
03 96,6 [29B83B75] [34342EB9]
04 96,3 [174186C0] [49AF667E]
05 85,8 [BEDCB860] [A4F7BA3C]
06 98,9 [8F1273B4] [9DDB0964]
07 89,2 [3CC4A5D5] [6915C3BA]
08 96,3 [7AD77D50] [F0B856AB]
09 96,5 [FC1176B2] [C0BA5C04]
10 96,6 [524935BF] [FEBC7BF6]
11 86,1 [0BA4DF07] [0E3721B4]
12 92,2 [307AB4E6] [B056DCE2]
13 81,9 [9D4E7FB2] [D926C485]
14 98,8 [8753A896] [1EE60205]
15 97,6 [0E3578BE] [871141D9]

Fools Garden - High Times: The Best Of Fools Garden (2009)


All thanks go to London

>>> "Fools Garden" in my Blog <<<

DOWNLOAD: