Subcategories

Foreigner - Hot Blooded And Other Hits (2004)

Posted By: popsakov
Foreigner - Hot Blooded And Other Hits (2004)

Foreigner - Hot Blooded And Other Hits (2004)
EAC Rip | FLAC (Img) + Cue + Log ~ 278 Mb | MP3 CBR320 ~ 106 Mb
Scans Included (JPG, 600 dpi) | RAR 5% Recovery
Classic Rock / Hard Rock / Pop Rock / Arena Rock
Rhino / Atlantic #OPCD 8396 / Flashback Records #R2 78137

A short yet relatively sweet Foreigner compilation, Hot Blooded and Other Hits features the title track plus the group's four other biggest hits – "Urgent," "Jukebox Hero," "Cold as Ice," and "Waiting for a Girl Like You." The balance of the disc consists of well-regarded album tracks, none of them the cream of the crop but not bad for a budget-label collection (and they are the original hits). ~ All Music

***************

Foreigner - Hot Blooded And Other Hits (2004)

Track List:

01. Hot Blooded [0:03:06.13]
02. Urgent [0:04:22.66]
03. That was Yesterday [0:03:50.53]
04. Reaction to Action [0:03:32.63]
05. Jukebox Hero [0:04:05.17]
06. Cold as Ice [0:03:21.51]
07. Women [0:03:26.59]
08. Say You Will [0:04:15.49]
09. Girl on the Moon [0:03:52.32]
10. Waiting for a Girl Like You [0:04:34.74]

Exact Audio Copy V1.3 from 2. September 2016

EAC extraction logfile from 26. April 2018, 18:31

Foreigner / Hot Blooded and other Hits

Used drive : ATAPI iHAS124 D Adapter: 0 ID: 2

Read mode : Secure
Utilize accurate stream : Yes
Defeat audio cache : Yes
Make use of C2 pointers : No

Read offset correction : 6
Overread into Lead-In and Lead-Out : No
Fill up missing offset samples with silence : Yes
Delete leading and trailing silent blocks : No
Null samples used in CRC calculations : Yes
Used interface : Installed external ASPI interface

Used output format : User Defined Encoder
Selected bitrate : 1024 kBit/s
Quality : High
Add ID3 tag : No
Command line compressor : C:\Program Files (x86)\Exact Audio Copy\Flac\flac.exe
Additional command line options : -6 -V -T "ARTIST=%artist%" -T "TITLE=%title%" -T "ALBUM=%albumtitle%" -T "DATE=%year%" -T "TRACKNUMBER=%tracknr%" -T "GENRE=%genre%" -T "COMMENT=%comment%" -T "BAND=%albuminterpret%" -T "ALBUMARTIST=%albuminterpret%" -T "COMPOSER=%composer%" %haslyrics%–tag-from-file=LYRICS="%lyricsfile%"%haslyrics% -T "DISCNUMBER=%cdnumber%" -T "TOTALDISCS=%totalcds%" -T "TOTALTRACKS=%numtracks%" %hascover%–picture="%coverfile%"%hascover% %source% -o %dest%


TOC of the extracted CD

Track | Start | Length | Start sector | End sector
––––––––––––––––––––––––––––-
1 | 0:00.00 | 3:06.13 | 0 | 13962
2 | 3:06.13 | 4:22.66 | 13963 | 33678
3 | 7:29.04 | 3:50.53 | 33679 | 50981
4 | 11:19.57 | 3:32.63 | 50982 | 66944
5 | 14:52.45 | 4:05.17 | 66945 | 85336
6 | 18:57.62 | 3:21.51 | 85337 | 100462
7 | 22:19.38 | 3:26.59 | 100463 | 115971
8 | 25:46.22 | 4:15.49 | 115972 | 135145
9 | 30:01.71 | 3:52.32 | 135146 | 152577
10 | 33:54.28 | 4:34.74 | 152578 | 173201


Range status and errors

Selected range

Filename C:\mm\Foreigner\2004 - Hot Blooded And Other Hits [OPCD 8396]\Foreigner - Hot Blooded and other Hits.wav

Peak level 77.0 %
Extraction speed 1.6 X
Range quality 100.0 %
Test CRC B0CE1571
Copy CRC B0CE1571
Copy OK

No errors occurred

End of status report

–– CUETools DB Plugin V2.1.6

[CTDB TOCID: thByDZjMkOGFd7xY5vesB4325eI-] found
Submit result: thByDZjMkOGFd7xY5vesB4325eI- has been confirmed
Track | CTDB Status
1 | (63/66) Accurately ripped
2 | (64/66) Accurately ripped
3 | (65/66) Accurately ripped
4 | (65/66) Accurately ripped
5 | (65/66) Accurately ripped
6 | (65/66) Accurately ripped
7 | (64/66) Accurately ripped
8 | (64/66) Accurately ripped
9 | (64/66) Accurately ripped
10 | (63/66) Accurately ripped

foobar2000 1.3.16 / Dynamic Range Meter 1.1.1
log date: 2018-04-29 19:57:57

––––––––––––––––––––––––––––––––––––––––
Analyzed: Foreigner / Hot Blooded and other Hits
––––––––––––––––––––––––––––––––––––––––

DR Peak RMS Duration Track
––––––––––––––––––––––––––––––––––––––––
DR9 -2.34 dB -12.79 dB 3:06 01-Hot Blooded
DR8 -2.31 dB -11.92 dB 4:23 02-Urgent
DR7 -2.33 dB -12.12 dB 3:51 03-That was Yesterday
DR9 -2.35 dB -13.59 dB 3:33 04-Reaction to Action
DR7 -2.33 dB -11.80 dB 4:05 05-Jukebox Hero
DR10 -2.49 dB -15.53 dB 3:22 06-Cold as Ice
DR9 -2.28 dB -14.04 dB 3:27 07-Women
DR8 -2.26 dB -12.06 dB 4:16 08-Say You Will
DR8 -2.68 dB -12.44 dB 3:52 09-Girl on the Moon
DR8 -2.32 dB -12.40 dB 4:35 10-Waiting for a Girl Like You
––––––––––––––––––––––––––––––––––––––––

Number of tracks: 10
Official DR value: DR8

Samplerate: 44100 Hz
Channels: 2
Bits per sample: 16
Bitrate: 915 kbps
Codec: FLAC
================================================================================

[CUETools log; Date: 29.04.2018 20:01:56; Version: 2.1.6]
[CTDB TOCID: thByDZjMkOGFd7xY5vesB4325eI-] found.
Track | CTDB Status
1 | (64/67) Accurately ripped
2 | (65/67) Accurately ripped
3 | (66/67) Accurately ripped
4 | (66/67) Accurately ripped
5 | (66/67) Accurately ripped
6 | (66/67) Accurately ripped
7 | (65/67) Accurately ripped
8 | (65/67) Accurately ripped
9 | (65/67) Accurately ripped
10 | (64/67) Accurately ripped
[AccurateRip ID: 000e2a0b-0071ccb4-8109050a] found.
Track [ CRC | V2 ] Status
01 [d6fe51ad|43798531] (24+25/49) Accurately ripped
02 [4c59c5ce|80f34cf7] (24+27/51) Accurately ripped
03 [2300ec7b|c944173e] (24+25/49) Accurately ripped
04 [988b9447|a2406750] (24+25/49) Accurately ripped
05 [a0aa4187|f9325958] (24+25/49) Accurately ripped
06 [a9035dcc|c0cb8aed] (24+25/49) Accurately ripped
07 [5e7f57d7|1b108494] (24+25/49) Accurately ripped
08 [bfd00ac4|b8a9dcd2] (24+25/49) Accurately ripped
09 [cf3e0989|113dcf17] (24+25/49) Accurately ripped
10 [403b235a|bfb3258d] (23+25/48) Accurately ripped

Track Peak [ CRC32 ] [W/O NULL] [ LOG ]
– 77,0 [B0CE1571] [599C8953] CRC32
01 76,4 [5742DA4A] [5EF9B523]
02 76,6 [5942EAB2] [0E1A7599]
03 76,5 [26605433] [957FF6EB]
04 76,2 [FE9806F7] [B2E7E4F9]
05 76,5 [02642F8B] [155E6380]
06 75,1 [FD56B516] [95154A17]
07 76,9 [047EF810] [DD75A123]
08 77,0 [35E831F6] [854C7873]
09 73,4 [4C134A4F] [04346089]
10 76,5 [20BC628D] [BDB6E967]

Foreigner - Hot Blooded And Other Hits (2004)

All thanks go to sergych

>>> Foreigner in my Blog <<<

Download from icerbox.com: