Subcategories

Foreigner – The Complete Atlantic Studio Albums 1977-1991 [2014, 7CD Box-Set]

Posted By: v3122
Foreigner – The Complete Atlantic Studio Albums 1977-1991 [2014, 7CD Box-Set]

Foreigner – The Complete Atlantic Studio Albums 1977-1991
EAC | Flac(Image) + Cue + Log & MP3 CBR 320Kbps
7CD | Atlantic, 8122795829 | ~ 2328 or 805 Mb | Scans(jpg, 600dpi) -> 220 Mb
Hard Rock / AOR

Foreigner achieved massive success on a global scale during the Seventies and Eighties thanks to a long list of hit singles and sold-out tours. Today, the group's sales exceed 80 million records, a figure that places Foreigner among the best-selling bands of all time. Their classic songs continue to resonate with fans in the modern era, having just recently received RIAA gold and platinum awards for digital sales on six of their iconic rock anthems.

Rhino celebrates the band's prolific tenure with Atlantic Records with a seven-disc collection that brings together Foreigner's first seven studio albums, as well as a number of bonus tracks.

Presented in a clamshell box, the collection retraces the group's history at Atlantic Records between 1977 and 1991 and features 80 tracks, including nine Top 10 hits. The set includes: Foreigner (1977), Double Vision (1978), Head Games (1979), 4 (1981), Agent Provocateur (1984), Inside Information (1987) and Unusual Heat (1991).

The remarkable number of instantly recognizable Top 40 hits included in this set is truly impressive and a reminder of why Foreigner has sold so many records: "Feels Like the First Time" and "Cold As Ice" from the band s 5x-platinum self-titled debut; "Hot Blooded" from the 6x-platinum Double Vision; "Dirty White Boy" from the 5x-platinum Head Games; "Waiting For A Girl Like You" and "Urgent" from the 6x-platinum 4; "I Want To Know What Love Is" from the 3x-platinum Agent Provocateur; and "Say You Will" and "I Don t Want To Live Without You" from the platinum Inside Information.

Beyond the studio albums, The Complete Atlantic Studio Albums 1977-1991 also features every bonus track from the 2002 deluxe editions of the band s first four albums. Among the many standouts are the demo of "Feels Like The First Time," a live version of "Hot Blooded," and a "nearly unplugged" version of "Waiting For A Girl Like You."

~ amazon
Foreigner – The Complete Atlantic Studio Albums 1977-1991:

Foreigner – The Complete Atlantic Studio Albums 1977-1991 [2014, 7CD Box-Set]

CD01: Foreigner – Foreigner (1977)
EAC | Flac(Image) + Cue + Log & MP3 CBR 320Kbps
Atlantic, 8122795829-1 | ~ 382 or 132 Mb
Hard Rock / AOR

Although punk rock's furious revolution threatened to overthrow rock's old guard in 1977, bands like Foreigner came along and proved that there was plenty of room in the marketplace for both the violent, upstart minimalism of punk and the airbrushed slickness of what would be called "arena rock." Along with Boston, Journey, Heart, and others, Foreigner celebrated professionalism over raw emotion. And, looking back, it's easy to see why they sold millions; not everyone in the world was pissed off, dissatisfied with the economy, or even necessarily looking for a change. In fact, for most suburban American teens, Foreigner's immaculate rock sound was the perfect soundtrack for cruising through well-manicured neighborhoods in their Chevy Novas. The album spawned some of the biggest FM hits of 1977, including the anthemic "Feels Like the First Time" and "Cold as Ice," both of which were anchored – like most of Foreigner's songs – by the muscular but traditional riffing of guitarist Mick Jones, the soaring vocals of Lou Gramm, and the state-of-the-art rock production values of the day, which allowed the band to sound hard but polished. As pure rock craftsmanship goes, Foreigner was as good as it got in the late '70s.

by Andy Hinds, AMG
Tracklist:

01. Feels Like The First Time [0:03:53.45]
02. Cold As Ice [0:03:23.65]
03. Starrider [0:04:03.32]
04. Headknocker [0:03:05.25]
05. The Damage Is Done [0:04:19.30]
06. Long, Long Way From Home [0:02:55.33]
07. Woman Oh Woman [0:03:53.00]
08. At War With The World [0:04:26.40]
09. Fool For You Anyway [0:04:17.22]
10. I Need You [0:05:18.18]
11. Feels Like The First Time (Demo) [0:03:40.20]
12. Woman Oh Woman (Demo) [0:04:14.40]
13. At War With The World (Demo) [0:05:00.30]
14. Take Me To Your Leader (Demo) [0:03:40.17]

Exact Audio Copy V1.0 beta 3 from 29. August 2011

EAC extraction logfile from 27. October 2014, 16:15

Foreigner / Foreigner

Used drive : PLEXTOR DVDR PX-L890SA Adapter: 2 ID: 1

Read mode : Secure
Utilize accurate stream : Yes
Defeat audio cache : Yes
Make use of C2 pointers : No

Read offset correction : 6
Overread into Lead-In and Lead-Out : No
Fill up missing offset samples with silence : Yes
Delete leading and trailing silent blocks : No
Null samples used in CRC calculations : Yes
Used interface : Native Win32 interface for Win NT & 2000
Gap handling : Appended to previous track

Used output format : User Defined Encoder
Selected bitrate : 768 kBit/s
Quality : High
Add ID3 tag : No
Command line compressor : G:\Program Files\Exact Audio Copy\FLAC\FLAC.EXE
Additional command line options : -V -8 -T "Genre=%genre%" -T "Artist=%artist%" -T "Title=%title%" -T "Album=%albumtitle%" -T "Date=%year%" -T "Tracknumber=%tracknr%" -T "Comment=%comment%" %source%


TOC of the extracted CD

Track | Start | Length | Start sector | End sector
––––––––––––––––––––––––––––-
1 | 0:00.00 | 3:53.45 | 0 | 17519
2 | 3:53.45 | 3:23.65 | 17520 | 32809
3 | 7:17.35 | 4:03.32 | 32810 | 51066
4 | 11:20.67 | 3:05.25 | 51067 | 64966
5 | 14:26.17 | 4:19.30 | 64967 | 84421
6 | 18:45.47 | 2:55.33 | 84422 | 97579
7 | 21:41.05 | 3:53.00 | 97580 | 115054
8 | 25:34.05 | 4:26.40 | 115055 | 135044
9 | 30:00.45 | 4:17.22 | 135045 | 154341
10 | 34:17.67 | 5:18.18 | 154342 | 178209
11 | 39:36.10 | 3:40.20 | 178210 | 194729
12 | 43:16.30 | 4:14.40 | 194730 | 213819
13 | 47:30.70 | 5:00.30 | 213820 | 236349
14 | 52:31.25 | 3:40.17 | 236350 | 252866


Track 1

Filename H:\MUSIC\Foreigner\1977. Foreigner - Foreigner (Atlantic 8122795829-1, EU)\01. Feels Like The First Time.wav

Pre-gap length 0:00:02.00

Peak level 97.2 %
Extraction speed 3.4 X
Track quality 100.0 %
Test CRC 6C13F97D
Copy CRC 6C13F97D
Cannot be verified as accurate (confidence 21) [0A734A53], AccurateRip returned [F406795C] (AR v2)
Copy OK

Track 2

Filename H:\MUSIC\Foreigner\1977. Foreigner - Foreigner (Atlantic 8122795829-1, EU)\02. Cold As Ice.wav

Pre-gap length 0:00:01.05

Peak level 97.2 %
Extraction speed 2.9 X
Track quality 99.9 %
Test CRC 972B793F
Copy CRC 972B793F
Cannot be verified as accurate (confidence 21) [23FA73D7], AccurateRip returned [A86A8AD6] (AR v2)
Copy OK

Track 3

Filename H:\MUSIC\Foreigner\1977. Foreigner - Foreigner (Atlantic 8122795829-1, EU)\03. Starrider.wav

Pre-gap length 0:00:03.43

Peak level 97.2 %
Extraction speed 4.2 X
Track quality 100.0 %
Test CRC 0268568F
Copy CRC 0268568F
Cannot be verified as accurate (confidence 21) [845C6561], AccurateRip returned [D1D3CE7F] (AR v2)
Copy OK

Track 4

Filename H:\MUSIC\Foreigner\1977. Foreigner - Foreigner (Atlantic 8122795829-1, EU)\04. Headknocker.wav

Pre-gap length 0:00:01.72

Peak level 97.2 %
Extraction speed 4.3 X
Track quality 100.0 %
Test CRC 4E5283E1
Copy CRC 4E5283E1
Cannot be verified as accurate (confidence 21) [1912306B], AccurateRip returned [797E4D30] (AR v2)
Copy OK

Track 5

Filename H:\MUSIC\Foreigner\1977. Foreigner - Foreigner (Atlantic 8122795829-1, EU)\05. The Damage Is Done.wav

Pre-gap length 0:00:05.22

Peak level 97.2 %
Extraction speed 4.8 X
Track quality 100.0 %
Test CRC B2AB101D
Copy CRC B2AB101D
Cannot be verified as accurate (confidence 21) [272C15FA], AccurateRip returned [5C0412BC] (AR v2)
Copy OK

Track 6

Filename H:\MUSIC\Foreigner\1977. Foreigner - Foreigner (Atlantic 8122795829-1, EU)\06. Long, Long Way From Home.wav

Pre-gap length 0:00:02.52

Peak level 97.2 %
Extraction speed 4.7 X
Track quality 100.0 %
Test CRC 896E9171
Copy CRC 896E9171
Cannot be verified as accurate (confidence 21) [5DA735C7], AccurateRip returned [9E73BEF7] (AR v2)
Copy OK

Track 7

Filename H:\MUSIC\Foreigner\1977. Foreigner - Foreigner (Atlantic 8122795829-1, EU)\07. Woman Oh Woman.wav

Peak level 97.2 %
Extraction speed 5.1 X
Track quality 100.0 %
Test CRC 93A79B41
Copy CRC 93A79B41
Cannot be verified as accurate (confidence 21) [BB7C1A20], AccurateRip returned [6398758A] (AR v2)
Copy OK

Track 8

Filename H:\MUSIC\Foreigner\1977. Foreigner - Foreigner (Atlantic 8122795829-1, EU)\08. At War With The World.wav

Pre-gap length 0:00:04.58

Peak level 97.2 %
Extraction speed 5.5 X
Track quality 100.0 %
Test CRC 6683DDFF
Copy CRC 6683DDFF
Cannot be verified as accurate (confidence 21) [17A29E25], AccurateRip returned [FC7159D9] (AR v2)
Copy OK

Track 9

Filename H:\MUSIC\Foreigner\1977. Foreigner - Foreigner (Atlantic 8122795829-1, EU)\09. Fool For You Anyway.wav

Pre-gap length 0:00:03.60

Peak level 97.2 %
Extraction speed 4.7 X
Track quality 99.9 %
Test CRC 7D8D0ECA
Copy CRC 7D8D0ECA
Cannot be verified as accurate (confidence 21) [06A1FC0A], AccurateRip returned [4B3A317E] (AR v2)
Copy OK

Track 10

Filename H:\MUSIC\Foreigner\1977. Foreigner - Foreigner (Atlantic 8122795829-1, EU)\10. I Need You.wav

Peak level 97.2 %
Extraction speed 6.3 X
Track quality 100.0 %
Test CRC ACDD98D7
Copy CRC ACDD98D7
Cannot be verified as accurate (confidence 21) [3BC1D137], AccurateRip returned [E2E12F3E] (AR v2)
Copy OK

Track 11

Filename H:\MUSIC\Foreigner\1977. Foreigner - Foreigner (Atlantic 8122795829-1, EU)\11. Feels Like The First Time (Demo).wav

Pre-gap length 0:00:05.33

Peak level 97.2 %
Extraction speed 6.2 X
Track quality 100.0 %
Test CRC CEA1FA28
Copy CRC CEA1FA28
Cannot be verified as accurate (confidence 19) [6D878A82], AccurateRip returned [A10ACEA0] (AR v2)
Copy OK

Track 12

Filename H:\MUSIC\Foreigner\1977. Foreigner - Foreigner (Atlantic 8122795829-1, EU)\12. Woman Oh Woman (Demo).wav

Pre-gap length 0:00:02.60

Peak level 97.2 %
Extraction speed 6.4 X
Track quality 100.0 %
Test CRC 3C5EBF8B
Copy CRC 3C5EBF8B
Cannot be verified as accurate (confidence 20) [3FF003EE], AccurateRip returned [C3A66D7D] (AR v2)
Copy OK

Track 13

Filename H:\MUSIC\Foreigner\1977. Foreigner - Foreigner (Atlantic 8122795829-1, EU)\13. At War With The World (Demo).wav

Peak level 97.2 %
Extraction speed 6.9 X
Track quality 100.0 %
Test CRC FB785F0C
Copy CRC FB785F0C
Cannot be verified as accurate (confidence 19) [E5A4E38E], AccurateRip returned [D9493B95] (AR v2)
Copy OK

Track 14

Filename H:\MUSIC\Foreigner\1977. Foreigner - Foreigner (Atlantic 8122795829-1, EU)\14. Take Me To Your Leader (Demo).wav

Pre-gap length 0:00:01.20

Peak level 97.2 %
Extraction speed 6.8 X
Track quality 100.0 %
Test CRC BC04A054
Copy CRC BC04A054
Cannot be verified as accurate (confidence 19) [1F2E44C5], AccurateRip returned [A6E1A738] (AR v2)
Copy OK


No tracks could be verified as accurate
You may have a different pressing from the one(s) in the database

No errors occurred

End of status report

foobar2000 1.2.9 / Dynamic Range Meter 1.1.1
log date: 2014-10-28 12:15:43

––––––––––––––––––––––––––––––––––––––––
Analyzed: Foreigner / Foreigner
––––––––––––––––––––––––––––––––––––––––

DR Peak RMS Duration Track
––––––––––––––––––––––––––––––––––––––––
DR9 -0.24 dB -11.73 dB 3:54 01-Feels Like The First Time
DR8 -0.24 dB -11.50 dB 3:24 02-Cold As Ice
DR9 -0.24 dB -12.47 dB 4:03 03-Starrider
DR8 -0.24 dB -10.77 dB 3:05 04-Headknocker
DR8 -0.24 dB -11.32 dB 4:19 05-The Damage Is Done
DR8 -0.24 dB -10.71 dB 2:55 06-Long, Long Way From Home
DR11 -0.24 dB -13.43 dB 3:53 07-Woman Oh Woman
DR8 -0.24 dB -11.01 dB 4:27 08-At War With The World
DR9 -0.24 dB -11.64 dB 4:17 09-Fool For You Anyway
DR7 -0.24 dB -9.72 dB 5:18 10-I Need You
DR8 -0.24 dB -11.04 dB 3:40 11-Feels Like The First Time (Demo)
DR10 -0.24 dB -13.02 dB 4:15 12-Woman Oh Woman (Demo)
DR10 -0.24 dB -12.50 dB 5:00 13-At War With The World (Demo)
DR11 -0.24 dB -13.69 dB 3:40 14-Take Me To Your Leader (Demo)
––––––––––––––––––––––––––––––––––––––––

Number of tracks: 14
Official DR value: DR9

Samplerate: 44100 Hz
Channels: 2
Bits per sample: 16
Bitrate: 924 kbps
Codec: FLAC

[CUETools log; Date: 28.10.2014 12:17:51; Version: 2.1.4]
[CTDB TOCID: gUhFtUaZKCBe2QKyC0wjCdFDf9s-] found.
Track | CTDB Status
1 | (16/16) Accurately ripped
2 | (16/16) Accurately ripped
3 | (16/16) Accurately ripped
4 | (16/16) Accurately ripped
5 | (16/16) Accurately ripped
6 | (16/16) Accurately ripped
7 | (16/16) Accurately ripped
8 | (16/16) Accurately ripped
9 | (16/16) Accurately ripped
10 | (16/16) Accurately ripped
11 | (16/16) Accurately ripped
12 | (15/16) Accurately ripped
13 | (16/16) Accurately ripped
14 | (16/16) Accurately ripped
[AccurateRip ID: 001be7b1-012cc072-c70d2b0e] found.
Track [ CRC | V2 ] Status
01 [6edef2b4|0a734a53] (00+00/50) No match
02 [a9678a85|23fa73d7] (00+00/49) No match
03 [4c939802|845c6561] (00+00/49) No match
04 [8021682b|1912306b] (00+00/49) No match
05 [d6d213df|272c15fa] (00+00/48) No match
06 [d0ddfe99|5da735c7] (00+00/49) No match
07 [a3128b3c|bb7c1a20] (00+00/48) No match
08 [0833da4b|17a29e25] (00+00/49) No match
09 [7912d8e5|06a1fc0a] (00+00/50) No match
10 [2c75e4e8|3bc1d137] (00+00/49) No match
11 [b9fba53b|6d878a82] (00+00/46) No match
12 [50a959c7|3ff003ee] (00+00/48) No match
13 [14a511d9|e5a4e38e] (00+00/47) No match
14 [d9d1b0e4|1f2e44c5] (00+00/47) No match
Offsetted by -670:
01 [d7b6b8b8] (06/50) Accurately ripped
02 [63a87d9d] (06/49) Accurately ripped
03 [e99e926a] (06/49) Accurately ripped
04 [eec45319] (06/49) Accurately ripped
05 [a6111b6b] (06/48) Accurately ripped
06 [76ea1f5f] (06/49) Accurately ripped
07 [7e6aa0e8] (06/48) Accurately ripped
08 [94118275] (06/49) Accurately ripped
09 [ccbdcb8d] (06/50) Accurately ripped
10 [a34cc7a0] (06/49) Accurately ripped
11 [c2905197] (06/46) Accurately ripped
12 [2a7d6d69] (06/48) Accurately ripped
13 [3abf43c9] (06/47) Accurately ripped
14 [a1c82388] (06/47) Accurately ripped
Offsetted by -6:
01 [569784e8] (20/50) Accurately ripped
02 [2c37fabd] (19/49) Accurately ripped
03 [981bb74a] (19/49) Accurately ripped
04 [df1d8441] (19/49) Accurately ripped
05 [099581fb] (18/48) Accurately ripped
06 [1040aea7] (19/49) Accurately ripped
07 [4955d0f8] (18/48) Accurately ripped
08 [eae34e6d] (19/49) Accurately ripped
09 [bb8ad36d] (20/50) Accurately ripped
10 [d10f2040] (19/49) Accurately ripped
11 [ebbb41e7] (18/46) Accurately ripped
12 [c3a66d7d] (20/48) Accurately ripped
13 [d9493b95] (19/47) Accurately ripped
14 [a6e1a738] (19/47) Accurately ripped

Track Peak [ CRC32 ] [W/O NULL] [ LOG ]
– 97,2 [CB41C64C] [E66126D1]
01 97,2 [6C13F97D] [8E53B552] CRC32
02 97,2 [972B793F] [4C197B8E] CRC32
03 97,2 [0268568F] [90C2ECD8] CRC32
04 97,2 [4E5283E1] [86682BA7] CRC32
05 97,2 [B2AB101D] [ED6EAE9E] CRC32
06 97,2 [896E9171] [E362313C] CRC32
07 97,2 [93A79B41] [5CEC0338] CRC32
08 97,2 [6683DDFF] [2DB106DF] CRC32
09 97,2 [7D8D0ECA] [71063907] CRC32
10 97,2 [ACDD98D7] [56EA7A10] CRC32
11 97,2 [CEA1FA28] [91E125B9] CRC32
12 97,2 [3C5EBF8B] [56C32552] CRC32
13 97,2 [FB785F0C] [8AABA469] CRC32
14 97,2 [BC04A054] [66D242CE] CRC32

===========

Foreigner – The Complete Atlantic Studio Albums 1977-1991 [2014, 7CD Box-Set]

CD02: Foreigner – Double Vision (1978)
EAC | Flac(Image) + Cue + Log & MP3 CBR 320Kbps
Atlantic, 8122795829-2 | ~ 366 or 123 Mb
Hard Rock / AOR

Foreigner promptly followed up its blockbuster debut with the equally successful Double Vision LP in 1978, which featured the FM mega-hits "Hot Blooded" and the driving title track. Opting not to mess with a good formula, the band wisely sticks to the polished hard rock sound that made its first record such a hit. Aside from the big singles, other highlights include the swaggering "Love Has Taken Its Toll" and the more restrained "Blue Morning, Blue Day." As always, Lou Gramm's impeccable rock vocals lead the way, supported by Mick Jones' tasteful, arena-sized guitar riffs

by Andy Hinds, AMG
Tracklist:

01. Hot Blooded [0:04:28.52]
02. Blue Morning, Blue Day [0:03:12.73]
03. You're All I Am [0:03:24.60]
04. Back Where You Belong [0:03:15.55]
05. Love Has Taken Its Toll [0:03:31.52]
06. Double Vision [0:03:44.40]
07. Tramontane (Instrumental) [0:03:56.23]
08. I Have Waited So Long [0:04:07.00]
09. Lonely Children [0:03:37.12]
10. Spellbinder [0:04:55.45]
11. Hot Blooded (Live) [0:06:57.58]
12. Love Maker (Live) [0:06:48.72]

Exact Audio Copy V1.0 beta 3 from 29. August 2011

EAC extraction logfile from 27. October 2014, 16:40

Foreigner / The Complete Atlantic Studio Albums (CD 2 - Double Vision)

Used drive : PLEXTOR DVDR PX-L890SA Adapter: 2 ID: 1

Read mode : Secure
Utilize accurate stream : Yes
Defeat audio cache : Yes
Make use of C2 pointers : No

Read offset correction : 6
Overread into Lead-In and Lead-Out : No
Fill up missing offset samples with silence : Yes
Delete leading and trailing silent blocks : No
Null samples used in CRC calculations : Yes
Used interface : Native Win32 interface for Win NT & 2000
Gap handling : Appended to previous track

Used output format : User Defined Encoder
Selected bitrate : 768 kBit/s
Quality : High
Add ID3 tag : No
Command line compressor : G:\Program Files\Exact Audio Copy\FLAC\FLAC.EXE
Additional command line options : -V -8 -T "Genre=%genre%" -T "Artist=%artist%" -T "Title=%title%" -T "Album=%albumtitle%" -T "Date=%year%" -T "Tracknumber=%tracknr%" -T "Comment=%comment%" %source%


TOC of the extracted CD

Track | Start | Length | Start sector | End sector
––––––––––––––––––––––––––––-
1 | 0:00.00 | 4:28.52 | 0 | 20151
2 | 4:28.52 | 3:12.73 | 20152 | 34624
3 | 7:41.50 | 3:24.60 | 34625 | 49984
4 | 11:06.35 | 3:15.55 | 49985 | 64664
5 | 14:22.15 | 3:31.52 | 64665 | 80541
6 | 17:53.67 | 3:44.40 | 80542 | 97381
7 | 21:38.32 | 3:56.23 | 97382 | 115104
8 | 25:34.55 | 4:07.00 | 115105 | 133629
9 | 29:41.55 | 3:37.12 | 133630 | 149916
10 | 33:18.67 | 4:55.45 | 149917 | 172086
11 | 38:14.37 | 6:57.58 | 172087 | 203419
12 | 45:12.20 | 6:48.72 | 203420 | 234091


Track 1

Filename H:\MUSIC\Foreigner\1978. Foreigner - Double Vision (Atlantic 8122795829-2, EU)\01. Hot Blooded.wav

Pre-gap length 0:00:02.00

Peak level 93.5 %
Extraction speed 3.4 X
Track quality 100.0 %
Test CRC 2D28FE11
Copy CRC 2D28FE11
Cannot be verified as accurate (confidence 28) [B5EF6605], AccurateRip returned [BACD8EBA] (AR v2)
Copy OK

Track 2

Filename H:\MUSIC\Foreigner\1978. Foreigner - Double Vision (Atlantic 8122795829-2, EU)\02. Blue Morning, Blue Day.wav

Peak level 93.5 %
Extraction speed 3.7 X
Track quality 100.0 %
Test CRC A687A0C0
Copy CRC A687A0C0
Cannot be verified as accurate (confidence 28) [8A199AC4], AccurateRip returned [61323B5B] (AR v2)
Copy OK

Track 3

Filename H:\MUSIC\Foreigner\1978. Foreigner - Double Vision (Atlantic 8122795829-2, EU)\03. You're All I Am.wav

Pre-gap length 0:00:02.27

Peak level 93.5 %
Extraction speed 4.0 X
Track quality 100.0 %
Test CRC C6A229BF
Copy CRC C6A229BF
Cannot be verified as accurate (confidence 28) [A1E3F888], AccurateRip returned [075A7F25] (AR v2)
Copy OK

Track 4

Filename H:\MUSIC\Foreigner\1978. Foreigner - Double Vision (Atlantic 8122795829-2, EU)\04. Back Where You Belong.wav

Pre-gap length 0:00:01.33

Peak level 93.5 %
Extraction speed 4.2 X
Track quality 100.0 %
Test CRC 4E03EF3B
Copy CRC 4E03EF3B
Cannot be verified as accurate (confidence 28) [29540446], AccurateRip returned [6CC3C73F] (AR v2)
Copy OK

Track 5

Filename H:\MUSIC\Foreigner\1978. Foreigner - Double Vision (Atlantic 8122795829-2, EU)\05. Love Has Taken Its Toll.wav

Peak level 93.5 %
Extraction speed 4.5 X
Track quality 100.0 %
Test CRC 984E6560
Copy CRC 984E6560
Cannot be verified as accurate (confidence 28) [2DAA64C4], AccurateRip returned [42B794FB] (AR v2)
Copy OK

Track 6

Filename H:\MUSIC\Foreigner\1978. Foreigner - Double Vision (Atlantic 8122795829-2, EU)\06. Double Vision.wav

Pre-gap length 0:00:01.72

Peak level 93.5 %
Extraction speed 4.8 X
Track quality 100.0 %
Test CRC FF352FE8
Copy CRC FF352FE8
Cannot be verified as accurate (confidence 28) [5BE6446C], AccurateRip returned [6EEC7291] (AR v2)
Copy OK

Track 7

Filename H:\MUSIC\Foreigner\1978. Foreigner - Double Vision (Atlantic 8122795829-2, EU)\07. Tramontane (Instrumental).wav

Peak level 93.5 %
Extraction speed 5.1 X
Track quality 100.0 %
Test CRC B783167A
Copy CRC B783167A
Cannot be verified as accurate (confidence 28) [E44B6F39], AccurateRip returned [E0EF75FD] (AR v2)
Copy OK

Track 8

Filename H:\MUSIC\Foreigner\1978. Foreigner - Double Vision (Atlantic 8122795829-2, EU)\08. I Have Waited So Long.wav

Peak level 93.5 %
Extraction speed 4.4 X
Track quality 99.9 %
Test CRC 1E2FC2CB
Copy CRC 1E2FC2CB
Cannot be verified as accurate (confidence 28) [D3D0A973], AccurateRip returned [2D68B35E] (AR v2)
Copy OK

Track 9

Filename H:\MUSIC\Foreigner\1978. Foreigner - Double Vision (Atlantic 8122795829-2, EU)\09. Lonely Children.wav

Peak level 93.5 %
Extraction speed 5.4 X
Track quality 100.0 %
Test CRC BB84A13B
Copy CRC BB84A13B
Cannot be verified as accurate (confidence 28) [BA21D024], AccurateRip returned [8050132E] (AR v2)
Copy OK

Track 10

Filename H:\MUSIC\Foreigner\1978. Foreigner - Double Vision (Atlantic 8122795829-2, EU)\10. Spellbinder.wav

Pre-gap length 0:00:02.05

Peak level 93.5 %
Extraction speed 5.9 X
Track quality 100.0 %
Test CRC C9EB3438
Copy CRC C9EB3438
Cannot be verified as accurate (confidence 28) [010A3CB3], AccurateRip returned [9F59CB67] (AR v2)
Copy OK

Track 11

Filename H:\MUSIC\Foreigner\1978. Foreigner - Double Vision (Atlantic 8122795829-2, EU)\11. Hot Blooded (Live).wav

Pre-gap length 0:00:06.00

Peak level 93.5 %
Extraction speed 6.5 X
Track quality 100.0 %
Test CRC EB3F59EA
Copy CRC EB3F59EA
Cannot be verified as accurate (confidence 29) [A3855E9B], AccurateRip returned [248D627B] (AR v2)
Copy OK

Track 12

Filename H:\MUSIC\Foreigner\1978. Foreigner - Double Vision (Atlantic 8122795829-2, EU)\12. Love Maker (Live).wav

Pre-gap length 0:00:01.08

Peak level 96.1 %
Extraction speed 6.9 X
Track quality 100.0 %
Test CRC 5C173F4C
Copy CRC 5C173F4C
Cannot be verified as accurate (confidence 29) [127B7482], AccurateRip returned [962930CE] (AR v2)
Copy OK


No tracks could be verified as accurate
You may have a different pressing from the one(s) in the database

No errors occurred

End of status report

foobar2000 1.2.9 / Dynamic Range Meter 1.1.1
log date: 2014-10-28 12:16:02

––––––––––––––––––––––––––––––––––––––––
Analyzed: Foreigner / The Complete Atlantic Studio Albums (CD 2 - Double Vision)
––––––––––––––––––––––––––––––––––––––––

DR Peak RMS Duration Track
––––––––––––––––––––––––––––––––––––––––
DR8 -0.58 dB -9.90 dB 4:29 01-Hot Blooded
DR8 -0.58 dB -10.32 dB 3:13 02-Blue Morning, Blue Day
DR9 -0.58 dB -12.92 dB 3:25 03-You're All I Am
DR9 -0.58 dB -12.29 dB 3:16 04-Back Where You Belong
DR10 -0.58 dB -12.51 dB 3:32 05-Love Has Taken Its Toll
DR8 -0.58 dB -10.78 dB 3:45 06-Double Vision
DR8 -0.58 dB -10.84 dB 3:56 07-Tramontane (Instrumental)
DR9 -0.58 dB -12.04 dB 4:07 08-I Have Waited So Long
DR7 -0.58 dB -9.81 dB 3:37 09-Lonely Children
DR7 -0.58 dB -11.37 dB 4:56 10-Spellbinder
DR8 -0.58 dB -10.25 dB 6:58 11-Hot Blooded (Live)
DR9 -0.34 dB -11.66 dB 6:49 12-Love Maker (Live)
––––––––––––––––––––––––––––––––––––––––

Number of tracks: 12
Official DR value: DR8

Samplerate: 44100 Hz
Channels: 2
Bits per sample: 16
Bitrate: 955 kbps
Codec: FLAC

[CUETools log; Date: 28.10.2014 12:18:18; Version: 2.1.4]
[CTDB TOCID: XUBWZHa447pOC7myYdOpfz1uEGg-] found.
Track | CTDB Status
1 | (13/46) Accurately ripped
2 | (13/46) Accurately ripped
3 | (13/46) Accurately ripped
4 | (13/46) Accurately ripped
5 | (13/46) Accurately ripped
6 | (13/46) Accurately ripped
7 | (13/46) Accurately ripped
8 | (13/46) Accurately ripped
9 | (13/46) Accurately ripped
10 | (13/46) Accurately ripped
11 | (13/46) Accurately ripped
12 | (13/46) Accurately ripped
[AccurateRip ID: 0014af52-00c3cdf4-940c310c] found.
Track [ CRC | V2 ] Status
01 [99fbee5d|b5ef6605] (000+000/167) No match
02 [cb225686|8a199ac4] (000+000/167) No match
03 [7175acf2|a1e3f888] (000+000/163) No match
04 [984b3237|29540446] (000+000/164) No match
05 [1474281a|2daa64c4] (000+000/167) No match
06 [dfeecf1b|5be6446c] (000+000/167) No match
07 [fa747353|e44b6f39] (000+000/163) No match
08 [b7c7b97a|d3d0a973] (000+000/164) No match
09 [7a6e9726|ba21d024] (000+000/166) No match
10 [2fb8f425|010a3cb3] (000+000/166) No match
11 [4154d307|a3855e9b] (000+000/160) No match
12 [b64161b4|127b7482] (000+000/159) No match
Offsetted by -670:
01 [ef45a551] (004/167) Accurately ripped
02 [808b79b0] (004/167) Accurately ripped
03 [4feadf00] (004/163) Accurately ripped
04 [95b0b545] (004/164) Accurately ripped
05 [da90583a] (004/167) Accurately ripped
06 [fafcdd53] (004/167) Accurately ripped
07 [9fa9a3cf] (004/163) Accurately ripped
08 [fc565002] (004/164) Accurately ripped
09 [d31a8b54] (004/166) Accurately ripped
10 [40c3af0f] (004/166) Accurately ripped
11 [836d9593] (004/160) Accurately ripped
12 [79305282] (004/159) Accurately ripped
Offsetted by -6:
01 [0bd8acc1] (025/167) Accurately ripped
02 [388209a8] (025/167) Accurately ripped
03 [f9f285a8] (025/163) Accurately ripped
04 [a0ad27ed] (025/164) Accurately ripped
05 [67feb9ba] (025/167) Accurately ripped
06 [bf50bff3] (025/167) Accurately ripped
07 [f44ae59f] (025/163) Accurately ripped
08 [cd06e662] (025/164) Accurately ripped
09 [5b216b7c] (025/166) Accurately ripped
10 [db0d1c07] (024/166) Accurately ripped
11 [1e01c023] (025/160) Accurately ripped
12 [7f73aa2a] (024/159) Accurately ripped
Offsetted by 598:
01 [9b0b2419] (007/167) Accurately ripped
02 [363598f4] (007/167) Accurately ripped
03 [f8daa36c] (007/163) Accurately ripped
04 [ff7d33b1] (007/164) Accurately ripped
05 [38d6cb7a] (007/167) Accurately ripped
06 [3d780b03] (007/167) Accurately ripped
07 [0b4c9e67] (007/163) Accurately ripped
08 [722f3dd2] (007/164) Accurately ripped
09 [aa249700] (007/166) Accurately ripped
10 [26a017d3] (000/166) No match (V2 was not tested)
11 [57572dcb] (000/160) No match (V2 was not tested)
12 [61add66e] (006/159) Accurately ripped

Track Peak [ CRC32 ] [W/O NULL] [ LOG ]
– 96,1 [0A2ED50C] [FD3E6824]
01 93,5 [2D28FE11] [2C40C025] CRC32
02 93,5 [A687A0C0] [44404423] CRC32
03 93,5 [C6A229BF] [1C2236EF] CRC32
04 93,5 [4E03EF3B] [D4CD68A0] CRC32
05 93,5 [984E6560] [13C637C5] CRC32
06 93,5 [FF352FE8] [C0978763] CRC32
07 93,5 [B783167A] [74B9750C] CRC32
08 93,5 [1E2FC2CB] [3F741B6D] CRC32
09 93,5 [BB84A13B] [AB2D6406] CRC32
10 93,5 [C9EB3438] [874C8A37] CRC32
11 93,5 [EB3F59EA] [C17DA05F] CRC32
12 96,1 [5C173F4C] [C39FDD24] CRC32

===========

Foreigner – The Complete Atlantic Studio Albums 1977-1991 [2014, 7CD Box-Set]

CD03: Foreigner – Head Games (1979)
EAC | Flac(Image) + Cue + Log & MP3 CBR 320Kbps
Atlantic, 8122795829-3 | ~ 288 or 103 Mb
Hard Rock / AOR

Foreigner continued its platinum winning streak on Head Games, the band's third album. By the time Head Games was released, FM radio had fully embraced bands like Foreigner, Journey, and Boston, whose slick hard rock was tough enough to appeal to suburban teens, but smooth enough to be non-threatening to their parents. Tailor-made for the airwaves, "Dirty White Boy" and "Head Games" kept Foreigner at the top of the arena rock heap as the decade came to a close; and the supergroup's successes would continue well into the '80s.

by Andy Hinds, AMG
Tracklist:

01. Dirty White Boy [0:03:38.55]
02. Love On The Telephone [0:03:17.55]
03. Women [0:03:24.32]
04. I'll Get Even With You [0:03:39.48]
05. Seventeen [0:04:35.15]
06. Head Games [0:03:37.52]
07. The Modern Day [0:03:26.05]
08. Blinded By Science [0:04:55.55]
09. Do What You Like [0:03:58.60]
10. Rev On The Red Line [0:03:41.60]
11. Zalia [0:02:34.33]

Exact Audio Copy V1.0 beta 3 from 29. August 2011

EAC extraction logfile from 27. October 2014, 17:04

Foreigner / The Complete Atlantic Studio Albums (CD 3 - Head Games)

Used drive : PLEXTOR DVDR PX-L890SA Adapter: 2 ID: 1

Read mode : Secure
Utilize accurate stream : Yes
Defeat audio cache : Yes
Make use of C2 pointers : No

Read offset correction : 6
Overread into Lead-In and Lead-Out : No
Fill up missing offset samples with silence : Yes
Delete leading and trailing silent blocks : No
Null samples used in CRC calculations : Yes
Used interface : Native Win32 interface for Win NT & 2000
Gap handling : Appended to previous track

Used output format : User Defined Encoder
Selected bitrate : 768 kBit/s
Quality : High
Add ID3 tag : No
Command line compressor : G:\Program Files\Exact Audio Copy\FLAC\FLAC.EXE
Additional command line options : -V -8 -T "Genre=%genre%" -T "Artist=%artist%" -T "Title=%title%" -T "Album=%albumtitle%" -T "Date=%year%" -T "Tracknumber=%tracknr%" -T "Comment=%comment%" %source%


TOC of the extracted CD

Track | Start | Length | Start sector | End sector
––––––––––––––––––––––––––––-
1 | 0:00.00 | 3:38.55 | 0 | 16404
2 | 3:38.55 | 3:17.55 | 16405 | 31234
3 | 6:56.35 | 3:24.32 | 31235 | 46566
4 | 10:20.67 | 3:39.48 | 46567 | 63039
5 | 14:00.40 | 4:35.15 | 63040 | 83679
6 | 18:35.55 | 3:37.52 | 83680 | 100006
7 | 22:13.32 | 3:26.05 | 100007 | 115461
8 | 25:39.37 | 4:55.55 | 115462 | 137641
9 | 30:35.17 | 3:58.60 | 137642 | 155551
10 | 34:34.02 | 3:41.60 | 155552 | 172186
11 | 38:15.62 | 2:34.33 | 172187 | 183769


Track 1

Filename H:\MUSIC\Foreigner\1979. Foreigner - Head Games (Atlantic 8122795829-3, EU)\01. Dirty White Boy.wav

Pre-gap length 0:00:02.00

Peak level 96.1 %
Extraction speed 3.3 X
Track quality 100.0 %
Test CRC 5002BB76
Copy CRC 5002BB76
Cannot be verified as accurate (confidence 28) [7F04A3E0], AccurateRip returned [8C6980AE] (AR v2)
Copy OK

Track 2

Filename H:\MUSIC\Foreigner\1979. Foreigner - Head Games (Atlantic 8122795829-3, EU)\02. Love On The Telephone.wav

Peak level 96.1 %
Extraction speed 3.6 X
Track quality 100.0 %
Test CRC E081DD97
Copy CRC E081DD97
Cannot be verified as accurate (confidence 29) [86A4FECA], AccurateRip returned [CCEA089E] (AR v2)
Copy OK

Track 3

Filename H:\MUSIC\Foreigner\1979. Foreigner - Head Games (Atlantic 8122795829-3, EU)\03. Women.wav

Peak level 96.1 %
Extraction speed 3.9 X
Track quality 100.0 %
Test CRC C6127A24
Copy CRC C6127A24
Cannot be verified as accurate (confidence 29) [DF1C8E65], AccurateRip returned [23BC3A7F] (AR v2)
Copy OK

Track 4

Filename H:\MUSIC\Foreigner\1979. Foreigner - Head Games (Atlantic 8122795829-3, EU)\04. I'll Get Even With You.wav

Peak level 96.1 %
Extraction speed 4.2 X
Track quality 100.0 %
Test CRC 55C10BA2
Copy CRC 55C10BA2
Cannot be verified as accurate (confidence 29) [8606A451], AccurateRip returned [95B6F0D1] (AR v2)
Copy OK

Track 5

Filename H:\MUSIC\Foreigner\1979. Foreigner - Head Games (Atlantic 8122795829-3, EU)\05. Seventeen.wav

Peak level 98.5 %
Extraction speed 3.9 X
Track quality 99.9 %
Test CRC CBE69A72
Copy CRC CBE69A72
Cannot be verified as accurate (confidence 27) [66932640], AccurateRip returned [C5A033C4] (AR v2)
Copy OK

Track 6

Filename H:\MUSIC\Foreigner\1979. Foreigner - Head Games (Atlantic 8122795829-3, EU)\06. Head Games.wav

Peak level 96.1 %
Extraction speed 4.8 X
Track quality 100.0 %
Test CRC E99598D0
Copy CRC E99598D0
Cannot be verified as accurate (confidence 27) [D2FA9567], AccurateRip returned [0FCD691C] (AR v2)
Copy OK

Track 7

Filename H:\MUSIC\Foreigner\1979. Foreigner - Head Games (Atlantic 8122795829-3, EU)\07. The Modern Day.wav

Peak level 96.1 %
Extraction speed 5.0 X
Track quality 100.0 %
Test CRC C7074AFB
Copy CRC C7074AFB
Cannot be verified as accurate (confidence 26) [1079FCF0], AccurateRip returned [439CDF7E] (AR v2)
Copy OK

Track 8

Filename H:\MUSIC\Foreigner\1979. Foreigner - Head Games (Atlantic 8122795829-3, EU)\08. Blinded By Science.wav

Peak level 96.1 %
Extraction speed 5.5 X
Track quality 100.0 %
Test CRC 063098F2
Copy CRC 063098F2
Cannot be verified as accurate (confidence 26) [43B4683D], AccurateRip returned [9ED554C8] (AR v2)
Copy OK

Track 9

Filename H:\MUSIC\Foreigner\1979. Foreigner - Head Games (Atlantic 8122795829-3, EU)\09. Do What You Like.wav

Peak level 96.1 %
Extraction speed 5.6 X
Track quality 100.0 %
Test CRC C2B66D16
Copy CRC C2B66D16
Cannot be verified as accurate (confidence 27) [0A36A801], AccurateRip returned [5A3FF558] (AR v2)
Copy OK

Track 10

Filename H:\MUSIC\Foreigner\1979. Foreigner - Head Games (Atlantic 8122795829-3, EU)\10. Rev On The Red Line.wav

Peak level 96.1 %
Extraction speed 5.7 X
Track quality 100.0 %
Test CRC 5DF89156
Copy CRC 5DF89156
Cannot be verified as accurate (confidence 27) [B542C05C], AccurateRip returned [B0091212] (AR v2)
Copy OK

Track 11

Filename H:\MUSIC\Foreigner\1979. Foreigner - Head Games (Atlantic 8122795829-3, EU)\11. Zalia.wav

Pre-gap length 0:00:05.42

Peak level 96.1 %
Extraction speed 5.6 X
Track quality 100.0 %
Test CRC B7C1D53D
Copy CRC B7C1D53D
Cannot be verified as accurate (confidence 27) [E825E979], AccurateRip returned [833B5E02] (AR v2)
Copy OK


No tracks could be verified as accurate
You may have a different pressing from the one(s) in the database

No errors occurred

End of status report

foobar2000 1.2.9 / Dynamic Range Meter 1.1.1
log date: 2014-10-28 12:16:19

––––––––––––––––––––––––––––––––––––––––
Analyzed: Foreigner / The Complete Atlantic Studio Albums (CD 3 - Head Games)
––––––––––––––––––––––––––––––––––––––––

DR Peak RMS Duration Track
––––––––––––––––––––––––––––––––––––––––
DR9 -0.34 dB -11.50 dB 3:39 01-Dirty White Boy
DR9 -0.34 dB -11.63 dB 3:18 02-Love On The Telephone
DR8 -0.34 dB -10.67 dB 3:24 03-Women
DR8 -0.34 dB -10.59 dB 3:40 04-I'll Get Even With You
DR8 -0.13 dB -10.56 dB 4:35 05-Seventeen
DR8 -0.34 dB -10.13 dB 3:38 06-Head Games
DR9 -0.34 dB -11.26 dB 3:26 07-The Modern Day
DR6 -0.34 dB -10.74 dB 4:56 08-Blinded By Science
DR8 -0.34 dB -10.72 dB 3:59 09-Do What You Like
DR5 -0.34 dB -8.43 dB 3:42 10-Rev On The Red Line
DR11 -0.34 dB -13.33 dB 2:34 11-Zalia
––––––––––––––––––––––––––––––––––––––––

Number of tracks: 11
Official DR value: DR8

Samplerate: 44100 Hz
Channels: 2
Bits per sample: 16
Bitrate: 958 kbps
Codec: FLAC

[CUETools log; Date: 28.10.2014 12:18:36; Version: 2.1.4]
[CTDB TOCID: syUcg8CLp7sC4i8aPkoYDW3hA_8-] found.
Track | CTDB Status
1 | (25/25) Accurately ripped
2 | (25/25) Accurately ripped
3 | (25/25) Accurately ripped
4 | (25/25) Accurately ripped
5 | (25/25) Accurately ripped
6 | (25/25) Accurately ripped
7 | (25/25) Accurately ripped
8 | (25/25) Accurately ripped
9 | (25/25) Accurately ripped
10 | (25/25) Accurately ripped
11 | (24/25) Accurately ripped
[AccurateRip ID: 0010de8b-0093352c-8209920b] found.
Track [ CRC | V2 ] Status
01 [316fddc3|7f04a3e0] (00+00/65) No match
02 [3e57e6ee|86a4feca] (00+00/66) No match
03 [b8f4634a|df1c8e65] (00+00/66) No match
04 [16c34d1f|8606a451] (00+00/66) No match
05 [cba6e6e7|66932640] (00+00/65) No match
06 [bc341bb3|d2fa9567] (00+00/65) No match
07 [c890a8d5|1079fcf0] (00+00/64) No match
08 [fe69cde2|43b4683d] (00+00/62) No match
09 [162a17d1|0a36a801] (00+00/65) No match
10 [1be0166e|b542c05c] (00+00/65) No match
11 [313068e6|e825e979] (00+00/64) No match
Offsetted by -670:
01 [dedd37b4] (07/65) Accurately ripped
02 [c073307c] (07/66) Accurately ripped
03 [1dfa934c] (07/66) Accurately ripped
04 [0d20ac9f] (07/66) Accurately ripped
05 [687f5823] (07/65) Accurately ripped
06 [038f12f0] (07/65) Accurately ripped
07 [5888fb8f] (07/64) Accurately ripped
08 [d5eef706] (07/62) Accurately ripped
09 [add62358] (07/65) Accurately ripped
10 [3a609525] (07/65) Accurately ripped
11 [a54d5372] (05/64) Accurately ripped
Offsetted by -6:
01 [8c6980ae] (28/65) Accurately ripped
02 [ccea089e] (29/66) Accurately ripped
03 [23bc3a7f] (29/66) Accurately ripped
04 [95b6f0d1] (29/66) Accurately ripped
05 [c5a033c4] (27/65) Accurately ripped
06 [0fcd691c] (27/65) Accurately ripped
07 [439cdf7e] (26/64) Accurately ripped
08 [9ed554c8] (26/62) Accurately ripped
09 [5a3ff558] (27/65) Accurately ripped
10 [b0091212] (27/65) Accurately ripped
11 [833b5e02] (27/64) Accurately ripped
Offsetted by 602:
01 [e3d448ca] (02/65) Accurately ripped
02 [9f921d84] (02/66) Accurately ripped
03 [0bee8094] (02/66) Accurately ripped
04 [c06f3c1e] (02/66) Accurately ripped
05 [8d05e868] (02/65) Accurately ripped
06 [0f515e0e] (02/65) Accurately ripped
07 [314cb51a] (02/64) Accurately ripped
08 [c3a46044] (02/62) Accurately ripped
09 [b7b55d83] (02/65) Accurately ripped
10 [e3326525] (02/65) Accurately ripped
11 [b43a5842] (02/64) Accurately ripped
Offsetted by -652:
01 [ad8927de] (00/65) No match (V2 was not tested)
02 [9208b035] (00/66) No match (V2 was not tested)
03 [e3e313e5] (00/66) No match (V2 was not tested)
04 [b91b1762] (00/66) No match (V2 was not tested)
05 [a83fdcd0] (00/65) No match (V2 was not tested)
06 [bdc9f8b9] (00/65) No match (V2 was not tested)
07 [d5d7326c] (00/64) No match (V2 was not tested)
08 [866d557d] (00/62) No match (V2 was not tested)
09 [d87c98f1] (00/65) No match (V2 was not tested)
10 [8310b3e9] (00/65) No match (V2 was not tested)
11 [af2c741e] (00/64) No match (V2 was not tested)

Track Peak [ CRC32 ] [W/O NULL] [ LOG ]
– 98,5 [561F745B] [C6AEA2B8]
01 96,1 [5002BB76] [AB02E41E] CRC32
02 96,1 [E081DD97] [66631FF3] CRC32
03 96,1 [C6127A24] [83886A37] CRC32
04 96,1 [55C10BA2] [CB3B702B] CRC32
05 98,5 [CBE69A72] [14071EDB] CRC32
06 96,1 [E99598D0] [0D6B4E7C] CRC32
07 96,1 [C7074AFB] [DA9AC0F0] CRC32
08 96,1 [063098F2] [DEFCB617] CRC32
09 96,1 [C2B66D16] [E8370A8F] CRC32
10 96,1 [5DF89156] [4BA6D7D5] CRC32
11 96,1 [B7C1D53D] [AC2B13F9] CRC32

===========

Foreigner – The Complete Atlantic Studio Albums 1977-1991 [2014, 7CD Box-Set]

CD04: Foreigner – 4 (1981)
EAC | Flac(Image) + Cue + Log & MP3 CBR 320Kbps
Atlantic, 8122795829-4 | ~ 333 or 115 Mb
Hard Rock / AOR

Over the course of their first three late-'70s albums, Foreigner had firmly established themselves (along with Journey and Styx) as one of the top AOR bands of the era. But the band was still looking for that grand slam of a record that would push them to the very top of the heap. Released in 1981, 4 would be that album. In producer Robert John "Mutt" Lange – fresh off his massive success with AC/DC's Back in Black – guitarist and all-around mastermind Mick Jones found both the catalyst to achieve this and his perfect musical soulmate. Lange's legendary obsessive attention to detail and Jones' highly disciplined guitar heroics (which he never allowed to get in the way of a great song) resulted in a collaboration of unprecedented, sparkling efficiency where not a single note is wasted. "Nightlife" is only the first in a series ("Woman in Black," "Don't Let Go," the '50s-tinged "Luanne") of energetic, nearly flawless melodic rockers, and with "Juke Box Hero," the band somehow managed to create both a mainstream hit single and a highly unique-sounding track, alternating heavy metal guitar riffing, chorused vocals, and one of the ultimate "wanna be a rock star" lyrics. As for the mandatory power ballad, the band also reached unparalleled heights with "Waiting for a Girl Like You." One of the decade's most successful cross-genre tearjerkers, it has since become a staple of soft rock radio and completely eclipsed the album's other very lovely ballad, "Girl on the Moon," in the process. And last but not least, the surprisingly funky "Urgent" proved to be one of the band's most memorable and uncharacteristic smash hits, thanks to Junior Walker's signature saxophone solo. Through it all, vocalist Lou Gramm does his part, delivering a dazzling performance that confirmed his status as one of the finest voices of his generation. Three years later, Foreigner would achieve even greater success on a pop level with the uneven Agent Provocateur, but by then Jones and Gramm were locked in an escalating war of egos that would soon lead to the band's demise. All things considered, 4 remains Foreigner's career peak.

by Eduardo Rivadavia, AMG
Tracklist:

01. Night Life [0:03:50.07]
02. Juke Box Hero [0:04:19.60]
03. Break It Up [0:04:13.48]
04. Waiting For A Girl Like You [0:04:52.05]
05. Luanne [0:03:27.37]
06. Urgent [0:04:31.15]
07. I'm Gonna Win [0:04:52.73]
08. Woman In Black [0:04:46.22]
09. Girl On The Moon [0:03:52.60]
10. Don't Let Go [0:03:57.73]
11. Juke Box Hero [0:03:06.57]
12. Waiting For A Girl Like You [0:02:50.63]

Exact Audio Copy V1.0 beta 3 from 29. August 2011

EAC extraction logfile from 27. October 2014, 17:30

FOREIGNER / 4 (REMASTERED)

Used drive : PLEXTOR DVDR PX-L890SA Adapter: 2 ID: 1

Read mode : Secure
Utilize accurate stream : Yes
Defeat audio cache : Yes
Make use of C2 pointers : No

Read offset correction : 6
Overread into Lead-In and Lead-Out : No
Fill up missing offset samples with silence : Yes
Delete leading and trailing silent blocks : No
Null samples used in CRC calculations : Yes
Used interface : Native Win32 interface for Win NT & 2000
Gap handling : Appended to previous track

Used output format : User Defined Encoder
Selected bitrate : 768 kBit/s
Quality : High
Add ID3 tag : No
Command line compressor : G:\Program Files\Exact Audio Copy\FLAC\FLAC.EXE
Additional command line options : -V -8 -T "Genre=%genre%" -T "Artist=%artist%" -T "Title=%title%" -T "Album=%albumtitle%" -T "Date=%year%" -T "Tracknumber=%tracknr%" -T "Comment=%comment%" %source%


TOC of the extracted CD

Track | Start | Length | Start sector | End sector
––––––––––––––––––––––––––––-
1 | 0:00.00 | 3:50.07 | 0 | 17256
2 | 3:50.07 | 4:19.60 | 17257 | 36741
3 | 8:09.67 | 4:13.48 | 36742 | 55764
4 | 12:23.40 | 4:52.05 | 55765 | 77669
5 | 17:15.45 | 3:27.37 | 77670 | 93231
6 | 20:43.07 | 4:31.15 | 93232 | 113571
7 | 25:14.22 | 4:52.73 | 113572 | 135544
8 | 30:07.20 | 4:46.22 | 135545 | 157016
9 | 34:53.42 | 3:52.60 | 157017 | 174476
10 | 38:46.27 | 3:57.73 | 174477 | 192324
11 | 42:44.25 | 3:06.57 | 192325 | 206331
12 | 45:51.07 | 2:50.63 | 206332 | 219144


Track 1

Filename H:\MUSIC\Foreigner\1981. Foreigner - 4 (Atlantic 8122795829-4, EU)\01. Night Life (2002 Remaster).wav

Pre-gap length 0:00:02.00

Peak level 94.6 %
Extraction speed 2.7 X
Track quality 99.9 %
Test CRC 9ED681B8
Copy CRC 9ED681B8
Cannot be verified as accurate (confidence 80) [20405131], AccurateRip returned [7674EA09] (AR v2)
Copy OK

Track 2

Filename H:\MUSIC\Foreigner\1981. Foreigner - 4 (Atlantic 8122795829-4, EU)\02. Juke Box Hero (2002 Remaster).wav

Peak level 94.6 %
Extraction speed 3.8 X
Track quality 100.0 %
Test CRC 450D47F3
Copy CRC 450D47F3
Cannot be verified as accurate (confidence 82) [A281EF23], AccurateRip returned [9588A7F6] (AR v2)
Copy OK

Track 3

Filename H:\MUSIC\Foreigner\1981. Foreigner - 4 (Atlantic 8122795829-4, EU)\03. Break It Up (2002 Remaster).wav

Peak level 94.6 %
Extraction speed 3.4 X
Track quality 99.9 %
Test CRC CB199AFD
Copy CRC CB199AFD
Cannot be verified as accurate (confidence 80) [C948119B], AccurateRip returned [254A279A] (AR v2)
Copy OK

Track 4

Filename H:\MUSIC\Foreigner\1981. Foreigner - 4 (Atlantic 8122795829-4, EU)\04. Waiting For A Girl Like You (2002 Remaster).wav

Peak level 94.6 %
Extraction speed 4.6 X
Track quality 100.0 %
Test CRC FEC3F62E
Copy CRC FEC3F62E
Cannot be verified as accurate (confidence 80) [1A966B8A], AccurateRip returned [6E33A102] (AR v2)
Copy OK

Track 5

Filename H:\MUSIC\Foreigner\1981. Foreigner - 4 (Atlantic 8122795829-4, EU)\05. Luanne (2002 Remaster).wav

Peak level 94.6 %
Extraction speed 3.7 X
Track quality 99.9 %
Test CRC 5AE7886C
Copy CRC 5AE7886C
Cannot be verified as accurate (confidence 80) [971EAFA2], AccurateRip returned [F2BE6160] (AR v2)
Copy OK

Track 6

Filename H:\MUSIC\Foreigner\1981. Foreigner - 4 (Atlantic 8122795829-4, EU)\06. Urgent (2002 Remaster).wav

Pre-gap length 0:00:01.05

Peak level 94.6 %
Extraction speed 5.1 X
Track quality 100.0 %
Test CRC 469559A5
Copy CRC 469559A5
Cannot be verified as accurate (confidence 81) [2CBE365B], AccurateRip returned [C42AC69F] (AR v2)
Copy OK

Track 7

Filename H:\MUSIC\Foreigner\1981. Foreigner - 4 (Atlantic 8122795829-4, EU)\07. I'm Gonna Win (2002 Remaster).wav

Pre-gap length 0:00:01.32

Peak level 94.6 %
Extraction speed 5.5 X
Track quality 100.0 %
Test CRC CDC633D8
Copy CRC CDC633D8
Cannot be verified as accurate (confidence 81) [53754598], AccurateRip returned [096CB894] (AR v2)
Copy OK

Track 8

Filename H:\MUSIC\Foreigner\1981. Foreigner - 4 (Atlantic 8122795829-4, EU)\08. Woman In Black (2002 Remaster).wav

Peak level 94.6 %
Extraction speed 5.7 X
Track quality 100.0 %
Test CRC 8BEA74F3
Copy CRC 8BEA74F3
Cannot be verified as accurate (confidence 80) [161EA842], AccurateRip returned [4CC63E29] (AR v2)
Copy OK

Track 9

Filename H:\MUSIC\Foreigner\1981. Foreigner - 4 (Atlantic 8122795829-4, EU)\09. Girl On The Moon (2002 Remaster).wav

Pre-gap length 0:00:01.00

Peak level 94.6 %
Extraction speed 5.9 X
Track quality 100.0 %
Test CRC 0A1A646D
Copy CRC 0A1A646D
Cannot be verified as accurate (confidence 81) [6BFA62D2], AccurateRip returned [5FDED230] (AR v2)
Copy OK

Track 10

Filename H:\MUSIC\Foreigner\1981. Foreigner - 4 (Atlantic 8122795829-4, EU)\10. Don't Let Go (2002 Remaster).wav

Peak level 94.6 %
Extraction speed 6.1 X
Track quality 100.0 %
Test CRC C7E5A833
Copy CRC C7E5A833
Cannot be verified as accurate (confidence 78) [4ECFD70B], AccurateRip returned [43B1B610] (AR v2)
Copy OK

Track 11

Filename H:\MUSIC\Foreigner\1981. Foreigner - 4 (Atlantic 8122795829-4, EU)\11. Juke Box Hero (Nearly Unplugged Version).wav

Pre-gap length 0:00:06.43

Peak level 97.2 %
Extraction speed 6.0 X
Track quality 100.0 %
Test CRC 81ED221A
Copy CRC 81ED221A
Cannot be verified as accurate (confidence 77) [FEAD853D], AccurateRip returned [84980E66] (AR v2)
Copy OK

Track 12

Filename H:\MUSIC\Foreigner\1981. Foreigner - 4 (Atlantic 8122795829-4, EU)\12. Waiting For A Girl Like You (Nearly Unplugged Version).wav

Pre-gap length 0:00:02.05

Peak level 97.2 %
Extraction speed 6.1 X
Track quality 100.0 %
Test CRC 1A4BEB73
Copy CRC 1A4BEB73
Cannot be verified as accurate (confidence 77) [A52D38E0], AccurateRip returned [2261A1F5] (AR v2)
Copy OK


No tracks could be verified as accurate
You may have a different pressing from the one(s) in the database

No errors occurred

End of status report

foobar2000 1.2.9 / Dynamic Range Meter 1.1.1
log date: 2014-10-28 12:16:37

––––––––––––––––––––––––––––––––––––––––
Analyzed: FOREIGNER / 4 (REMASTERED)
––––––––––––––––––––––––––––––––––––––––

DR Peak RMS Duration Track
––––––––––––––––––––––––––––––––––––––––
DR7 -0.48 dB -8.79 dB 3:50 01-Night Life (2002 Remaster)
DR6 -0.48 dB -9.33 dB 4:20 02-Juke Box Hero (2002 Remaster)
DR7 -0.48 dB -9.51 dB 4:14 03-Break It Up (2002 Remaster)
DR9 -0.48 dB -12.04 dB 4:52 04-Waiting For A Girl Like You (2002 Remaster)
DR7 -0.48 dB -9.97 dB 3:27 05-Luanne (2002 Remaster)
DR8 -0.48 dB -10.42 dB 4:31 06-Urgent (2002 Remaster)
DR7 -0.48 dB -9.68 dB 4:53 07-I'm Gonna Win (2002 Remaster)
DR7 -0.48 dB -10.22 dB 4:46 08-Woman In Black (2002 Remaster)
DR8 -0.48 dB -10.24 dB 3:53 09-Girl On The Moon (2002 Remaster)
DR5 -0.48 dB -8.68 dB 3:58 10-Don't Let Go (2002 Remaster)
DR9 -0.24 dB -13.18 dB 3:07 11-Juke Box Hero (Nearly Unplugged Version)
DR10 -0.24 dB -15.05 dB 2:51 12-Waiting For A Girl Like You (Nearly Unplugged Version)
––––––––––––––––––––––––––––––––––––––––

Number of tracks: 12
Official DR value: DR8

Samplerate: 44100 Hz
Channels: 2
Bits per sample: 16
Bitrate: 929 kbps
Codec: FLAC

[CUETools log; Date: 28.10.2014 12:18:56; Version: 2.1.4]
[CTDB TOCID: ZBBAb3o_Po5CrJPF4PRtB6usFjM-] found.
Track | CTDB Status
1 | (44/89) Accurately ripped
2 | (43/89) Accurately ripped
3 | (43/89) Accurately ripped
4 | (44/89) Accurately ripped
5 | (44/89) Accurately ripped
6 | (44/89) Accurately ripped
7 | (43/89) Accurately ripped
8 | (44/89) Accurately ripped
9 | (44/89) Accurately ripped
10 | (44/89) Accurately ripped
11 | (44/89) Accurately ripped
12 | (44/89) Accurately ripped
[AccurateRip ID: 001691a7-00d277fa-a00b690c] found.
Track [ CRC | V2 ] Status
01 [a01afd01|20405131] (000+000/276) No match
02 [5e579510|a281ef23] (000+000/277) No match
03 [c8795555|c948119b] (000+000/275) No match
04 [129332af|1a966b8a] (000+000/274) No match
05 [78c6efe4|971eafa2] (000+000/274) No match
06 [98c35c60|2cbe365b] (000+000/273) No match
07 [6d8e7cfa|53754598] (000+000/270) No match
08 [213fa743|161ea842] (000+000/269) No match
09 [5cb23e01|6bfa62d2] (000+000/271) No match
10 [beed41fe|4ecfd70b] (000+000/268) No match
11 [f334bbaf|fead853d] (000+000/266) No match
12 [ac73119f|a52d38e0] (000+000/264) No match
Offsetted by -670:
01 [ff9f49d7] (009/276) Accurately ripped
02 [d1676e7e] (009/277) Accurately ripped
03 [ed206592] (009/275) Accurately ripped
04 [7e6f3010] (010/274) Accurately ripped
05 [ae0f8f30] (009/274) Accurately ripped
06 [0150d644] (010/273) Accurately ripped
07 [c8892032] (009/270) Accurately ripped
08 [de89f121] (009/269) Accurately ripped
09 [1aa7fdbd] (009/271) Accurately ripped
10 [41df1cd8] (009/268) Accurately ripped
11 [bf927121] (009/266) Accurately ripped
12 [bb29c65b] (009/264) Accurately ripped
Offsetted by -6:
01 [ca39f9df] (064/276) Accurately ripped
02 [08f721d0] (064/277) Accurately ripped
03 [ccf33af1] (064/275) Accurately ripped
04 [d99ca1b3] (064/274) Accurately ripped
05 [d8c6d2c0] (063/274) Accurately ripped
06 [9bfdf0f4] (063/273) Accurately ripped
07 [cfde9dd0] (064/270) Accurately ripped
08 [da798317] (063/269) Accurately ripped
09 [5b57368d] (064/271) Accurately ripped
10 [c327f910] (063/268) Accurately ripped
11 [81a52479] (063/266) Accurately ripped
12 [dcb97b2b] (063/264) Accurately ripped
Offsetted by -2333:
01 [9a2c1032] (000/276) No match (V2 was not tested)
02 [415d2813] (000/277) No match (V2 was not tested)
03 [23f2f129] (000/275) No match (V2 was not tested)
04 [6c4be23a] (000/274) No match (V2 was not tested)
05 [734557b6] (000/274) No match (V2 was not tested)
06 [003d5dd6] (000/273) No match (V2 was not tested)
07 [0d0c36c8] (000/270) No match (V2 was not tested)
08 [252cde66] (000/269) No match (V2 was not tested)
09 [78446bfb] (000/271) No match (V2 was not tested)
10 [80c651d5] (000/268) No match (V2 was not tested)
11 [a19be52a] (000/266) No match (V2 was not tested)
12 [7f65b719] (000/264) No match (V2 was not tested)
Offsetted by -1771:
01 [30d58af8] (000/276) No match (V2 was not tested)
02 [5536919a] (000/277) No match (V2 was not tested)
03 [e8cb1e54] (000/275) No match (V2 was not tested)
04 [7e02d2a0] (000/274) No match (V2 was not tested)
05 [fdfaabe2] (000/274) No match (V2 was not tested)
06 [d1ce565a] (000/273) No match (V2 was not tested)
07 [ad61c674] (000/270) No match (V2 was not tested)
08 [3a28fbb8] (000/269) No match
09 [a1e82617] (000/271) No match
10 [49f5563f] (000/268) No match (V2 was not tested)
11 [d9258dec] (000/266) No match (V2 was not tested)
12 [d5a26e35] (000/264) No match (V2 was not tested)
Offsetted by -1669:
01 [64c6c03a] (000/276) No match (V2 was not tested)
02 [c3cb0e9e] (000/277) No match (V2 was not tested)
03 [8d389a88] (000/275) No match (V2 was not tested)
04 [09956f90] (000/274) No match (V2 was not tested)
05 [9dfc9b46] (000/274) No match (V2 was not tested)
06 [9aea7886] (000/273) No match (V2 was not tested)
07 [150a094d] (000/270) No match (V2 was not tested)
08 [bd1cb065] (000/269) No match (V2 was not tested)
09 [b8f3a4cb] (000/271) No match (V2 was not tested)
10 [020f2e0d] (000/268) No match (V2 was not tested)
11 [63ae9882] (000/266) No match (V2 was not tested)
12 [a0f56be9] (000/264) No match (V2 was not tested)
Offsetted by -72:
01 [998ed769] (000/276) No match (V2 was not tested)
02 [6b098c76] (000/277) No match (V2 was not tested)
03 [623b080a] (000/275) No match (V2 was not tested)
04 [66ad6384] (000/274) No match (V2 was not tested)
05 [f8c59234] (000/274) No match (V2 was not tested)
06 [bf825350] (000/273) No match (V2 was not tested)
07 [6b306fbd] (000/270) No match (V2 was not tested)
08 [cfa7e980] (000/269) No match (V2 was not tested)
09 [4c6de491] (000/271) No match (V2 was not tested)
10 [f1add6d6] (000/268) No match (V2 was not tested)
11 [a079a527] (000/266) No match (V2 was not tested)
12 [efc0042f] (000/264) No match (V2 was not tested)

Track Peak [ CRC32 ] [W/O NULL] [ LOG ]
– 97,2 [1A74B976] [E736DE24]
01 94,6 [9ED681B8] [B0AF3249] CRC32
02 94,6 [450D47F3] [66934C2E] CRC32
03 94,6 [CB199AFD] [E7E16B62] CRC32
04 94,6 [FEC3F62E] [E403855A] CRC32
05 94,6 [5AE7886C] [97B16324] CRC32
06 94,6 [469559A5] [C7E7F7CC] CRC32
07 94,6 [CDC633D8] [014F0C47] CRC32
08 94,6 [8BEA74F3] [7E4FC930] CRC32
09 94,6 [0A1A646D] [A4993C24] CRC32
10 94,6 [C7E5A833] [E4EA762F] CRC32
11 97,2 [81ED221A] [7FF4B896] CRC32
12 97,2 [1A4BEB73] [44976E3A] CRC32

===========

Foreigner – The Complete Atlantic Studio Albums 1977-1991 [2014, 7CD Box-Set]

CD05: Foreigner – Agent Provocateur (1984)
EAC | Flac(Image) + Cue + Log & MP3 CBR 320Kbps
Atlantic, 8122795829-5 | ~ 302 or 104 Mb
Hard Rock / AOR

It took Foreigner three years to release a follow-up to its 1981 blockbuster, 4. Perhaps that wait wasn't long enough, because Agent Provocateur is a prime example of the best and worst traits of AOR: a handful of remarkable songs padded by toothless filler. Despite contributing a few killer riffs to Foreigner's '70s canon, guitarist/keyboardist Mick Jones isn't known for his six-string abilities. His biggest strength is his knack for melody as a songwriter, keyboardist, and producer, and all these qualities are evident on Agent Provocateur. Of course, vocalist/songwriter Lou Gramm is indispensable as the band's golden-throated frontman. Jones largely guided things behind the studio console, but a co-producer usually helped, such as Alex Sadkin on this album. "I Want to Know What Love Is" became Foreigner's first and only number one single, and it's not hard to see why. Its dreamy, hypnotic feel is due in part to Gramm's soulful lead vocals and the New Jersey Mass Choir's background vocals. Jennifer Holliday and the Thompson Twins' Tom Bailey help out as well. "That Was Yesterday," a terrific hit single, features a catchy chorus and a nifty synthesizer lick. "Reaction to Action" and "Down on Love" were both minor hits, but there's a huge difference in quality between the two; the former is the epitome of bland, formulaic AOR, while the latter includes a pleasant chorus and a warm keyboard melody. "A Love in Vain" and "Growing Up the Hard Way" have a few good moments too.

by Bret Adams, AMG
Tracklist:

01. Tooth And Nail [0:03:55.52]
02. That Was Yesterday [0:03:49.08]
03. I Want To Know What Love Is [0:05:06.07]
04. Growing Up The Hard Way [0:04:13.65]
05. Reaction To Action [0:04:01.68]
06. Stranger In My Own House [0:05:04.72]
07. A Love In Vain [0:04:31.03]
08. Down On Love [0:04:12.02]
09. Two Different Worlds [0:04:31.63]
10. She's Too Tough [0:03:10.47]

Exact Audio Copy V1.0 beta 3 from 29. August 2011

EAC extraction logfile from 27. October 2014, 17:53

Foreigner / The Complete Atlantic Studio Albums (CD 5 - Agent Provocateur)

Used drive : PLEXTOR DVDR PX-L890SA Adapter: 2 ID: 1

Read mode : Secure
Utilize accurate stream : Yes
Defeat audio cache : Yes
Make use of C2 pointers : No

Read offset correction : 6
Overread into Lead-In and Lead-Out : No
Fill up missing offset samples with silence : Yes
Delete leading and trailing silent blocks : No
Null samples used in CRC calculations : Yes
Used interface : Native Win32 interface for Win NT & 2000
Gap handling : Appended to previous track

Used output format : User Defined Encoder
Selected bitrate : 768 kBit/s
Quality : High
Add ID3 tag : No
Command line compressor : G:\Program Files\Exact Audio Copy\FLAC\FLAC.EXE
Additional command line options : -V -8 -T "Genre=%genre%" -T "Artist=%artist%" -T "Title=%title%" -T "Album=%albumtitle%" -T "Date=%year%" -T "Tracknumber=%tracknr%" -T "Comment=%comment%" %source%


TOC of the extracted CD

Track | Start | Length | Start sector | End sector
––––––––––––––––––––––––––––-
1 | 0:00.00 | 3:55.52 | 0 | 17676
2 | 3:55.52 | 3:49.08 | 17677 | 34859
3 | 7:44.60 | 5:06.07 | 34860 | 57816
4 | 12:50.67 | 4:13.65 | 57817 | 76856
5 | 17:04.57 | 4:01.68 | 76857 | 94999
6 | 21:06.50 | 5:04.72 | 95000 | 117871
7 | 26:11.47 | 4:31.03 | 117872 | 138199
8 | 30:42.50 | 4:12.02 | 138200 | 157101
9 | 34:54.52 | 4:31.63 | 157102 | 177489
10 | 39:26.40 | 3:10.47 | 177490 | 191786


Track 1

Filename H:\MUSIC\Foreigner\1984. Foreigner - Agent Provocateur (Atlantic 8122795829-5, EU)\01. Tooth And Nail.wav

Pre-gap length 0:00:02.00

Peak level 100.0 %
Extraction speed 2.7 X
Track quality 99.9 %
Test CRC 0E8B1212
Copy CRC 0E8B1212
Cannot be verified as accurate (confidence 67) [D73C599A], AccurateRip returned [E3E27FEC] (AR v2)
Copy OK

Track 2

Filename H:\MUSIC\Foreigner\1984. Foreigner - Agent Provocateur (Atlantic 8122795829-5, EU)\02. That Was Yesterday.wav

Peak level 100.0 %
Extraction speed 3.7 X
Track quality 100.0 %
Test CRC A3E4DEA9
Copy CRC A3E4DEA9
Cannot be verified as accurate (confidence 67) [ED0BB089], AccurateRip returned [024AC4C5] (AR v2)
Copy OK

Track 3

Filename H:\MUSIC\Foreigner\1984. Foreigner - Agent Provocateur (Atlantic 8122795829-5, EU)\03. I Want To Know What Love Is.wav

Peak level 100.0 %
Extraction speed 3.6 X
Track quality 99.9 %
Test CRC C8AA6F5A
Copy CRC C8AA6F5A
Cannot be verified as accurate (confidence 68) [6350E63A], AccurateRip returned [26A90A62] (AR v2)
Copy OK

Track 4

Filename H:\MUSIC\Foreigner\1984. Foreigner - Agent Provocateur (Atlantic 8122795829-5, EU)\04. Growing Up The Hard Way.wav

Peak level 100.0 %
Extraction speed 4.5 X
Track quality 100.0 %
Test CRC 45DEB5DD
Copy CRC 45DEB5DD
Cannot be verified as accurate (confidence 67) [35D59BED], AccurateRip returned [DDB112C8] (AR v2)
Copy OK

Track 5

Filename H:\MUSIC\Foreigner\1984. Foreigner - Agent Provocateur (Atlantic 8122795829-5, EU)\05. Reaction To Action.wav

Peak level 100.0 %
Extraction speed 4.8 X
Track quality 100.0 %
Test CRC B2B94774
Copy CRC B2B94774
Cannot be verified as accurate (confidence 67) [AC07D14B], AccurateRip returned [AB423D75] (AR v2)
Copy OK

Track 6

Filename H:\MUSIC\Foreigner\1984. Foreigner - Agent Provocateur (Atlantic 8122795829-5, EU)\06. Stranger In My Own House.wav

Pre-gap length 0:00:01.20

Peak level 100.0 %
Extraction speed 5.3 X
Track quality 100.0 %
Test CRC D9033AF7
Copy CRC D9033AF7
Cannot be verified as accurate (confidence 67) [0C6F3228], AccurateRip returned [FB30A171] (AR v2)
Copy OK

Track 7

Filename H:\MUSIC\Foreigner\1984. Foreigner - Agent Provocateur (Atlantic 8122795829-5, EU)\07. A Love In Vain.wav

Peak level 100.0 %
Extraction speed 5.5 X
Track quality 100.0 %
Test CRC F53683C4
Copy CRC F53683C4
Cannot be verified as accurate (confidence 67) [59043117], AccurateRip returned [E28AC585] (AR v2)
Copy OK

Track 8

Filename H:\MUSIC\Foreigner\1984. Foreigner - Agent Provocateur (Atlantic 8122795829-5, EU)\08. Down On Love.wav

Peak level 100.0 %
Extraction speed 5.6 X
Track quality 100.0 %
Test CRC C738E673
Copy CRC C738E673
Cannot be verified as accurate (confidence 67) [A00318CC], AccurateRip returned [9C3092C3] (AR v2)
Copy OK

Track 9

Filename H:\MUSIC\Foreigner\1984. Foreigner - Agent Provocateur (Atlantic 8122795829-5, EU)\09. Two Different Worlds.wav

Pre-gap length 0:00:01.25

Peak level 100.0 %
Extraction speed 6.0 X
Track quality 100.0 %
Test CRC 2B263BDE
Copy CRC 2B263BDE
Cannot be verified as accurate (confidence 67) [69364F6E], AccurateRip returned [24EE2CFC] (AR v2)
Copy OK

Track 10

Filename H:\MUSIC\Foreigner\1984. Foreigner - Agent Provocateur (Atlantic 8122795829-5, EU)\10. She's Too Tough.wav

Peak level 100.0 %
Extraction speed 5.9 X
Track quality 100.0 %
Test CRC 58B47B96
Copy CRC 58B47B96
Cannot be verified as accurate (confidence 67) [5C2557EA], AccurateRip returned [D2DB21EB] (AR v2)
Copy OK


No tracks could be verified as accurate
You may have a different pressing from the one(s) in the database

No errors occurred

End of status report

foobar2000 1.2.9 / Dynamic Range Meter 1.1.1
log date: 2014-10-28 12:16:53

––––––––––––––––––––––––––––––––––––––––
Analyzed: Foreigner / The Complete Atlantic Studio Albums (CD 5 - Agent Provocateur)
––––––––––––––––––––––––––––––––––––––––

DR Peak RMS Duration Track
––––––––––––––––––––––––––––––––––––––––
DR7 0.00 dB -9.88 dB 3:56 01-Tooth And Nail
DR8 0.00 dB -9.60 dB 3:49 02-That Was Yesterday
DR9 0.00 dB -12.13 dB 5:06 03-I Want To Know What Love Is
DR9 0.00 dB -10.84 dB 4:14 04-Growing Up The Hard Way
DR9 0.00 dB -10.11 dB 4:02 05-Reaction To Action
DR8 0.00 dB -9.92 dB 5:05 06-Stranger In My Own House
DR8 0.00 dB -10.24 dB 4:31 07-A Love In Vain
DR9 0.00 dB -11.65 dB 4:12 08-Down On Love
DR8 0.00 dB -11.42 dB 4:32 09-Two Different Worlds
DR8 0.00 dB -10.00 dB 3:11 10-She's Too Tough
––––––––––––––––––––––––––––––––––––––––

Number of tracks: 10
Official DR value: DR8

Samplerate: 44100 Hz
Channels: 2
Bits per sample: 16
Bitrate: 963 kbps
Codec: FLAC

[CUETools log; Date: 28.10.2014 12:19:10; Version: 2.1.4]
[CTDB TOCID: s8LXculPvGEeqr_iq6L0969t.q8-] found.
Track | CTDB Status
1 | (85/97) Accurately ripped
2 | (84/97) Accurately ripped
3 | (85/97) Accurately ripped
4 | (84/97) Accurately ripped
5 | (85/97) Accurately ripped
6 | (85/97) Accurately ripped
7 | (85/97) Accurately ripped
8 | (85/97) Accurately ripped
9 | (85/97) Accurately ripped
10 | (85/97) Accurately ripped
[AccurateRip ID: 00103ed6-008288ab-8d09fd0a] found.
Track [ CRC | V2 ] Status
01 [66ce2a35|d73c599a] (000+000/203) No match
02 [f08f136e|ed0bb089] (000+000/204) No match
03 [139b53fb|6350e63a] (000+000/205) No match
04 [660dfb53|35d59bed] (000+000/203) No match
05 [de6570e3|ac07d14b] (000+000/202) No match
06 [f78f4306|0c6f3228] (000+000/202) No match
07 [e896c407|59043117] (000+000/202) No match
08 [bd6837f7|a00318cc] (000+000/200) No match
09 [c4351e18|69364f6e] (000+000/201) No match
10 [f3fd43e9|5c2557ea] (000+000/199) No match
Offsetted by -670:
01 [623dfcec] (034/203) Accurately ripped
02 [5fa90d4e] (034/204) Accurately ripped
03 [d1d3eb4e] (034/205) Accurately ripped
04 [16ed0adb] (034/203) Accurately ripped
05 [e29256ad] (034/202) Accurately ripped
06 [e80ffba0] (034/202) Accurately ripped
07 [a8e680a6] (034/202) Accurately ripped
08 [36c5d7ae] (034/200) Accurately ripped
09 [d69a9772] (034/201) Accurately ripped
10 [a0f2cdda] (034/199) Accurately ripped
Offsetted by -6:
01 [0914d196] (015/203) Accurately ripped
02 [2fd4d9e3] (015/204) Accurately ripped
03 [93fb38cf] (014/205) Accurately ripped
04 [201885d3] (014/203) Accurately ripped
05 [b3a979a6] (014/202) Accurately ripped
06 [5362fa48] (014/202) Accurately ripped
07 [8f17c2a6] (014/202) Accurately ripped
08 [fff9ea8d] (013/200) Accurately ripped
09 [446b3100] (013/201) Accurately ripped
10 [facb6c30] (013/199) Accurately ripped
Offsetted by 658:
01 [246d82ea] (015/203) Accurately ripped
02 [9e3ec311] (015/204) Accurately ripped
03 [5d95d7ae] (015/205) Accurately ripped
04 [025ab607] (015/203) Accurately ripped
05 [bc740af2] (014/202) Accurately ripped
06 [b395c90b] (015/202) Accurately ripped
07 [c5876229] (015/202) Accurately ripped
08 [c331b6b8] (014/200) Accurately ripped
09 [fb2a9236] (015/201) Accurately ripped
10 [0371dfa5] (015/199) Accurately ripped
Offsetted by 1327:
01 [25018cb8] (006/203) Accurately ripped
02 [d066395a] (006/204) Accurately ripped
03 [0524b92e] (007/205) Accurately ripped
04 [3e9c0032] (006/203) Accurately ripped
05 [6dc41e40] (005/202) Accurately ripped
06 [c6b25d49] (005/202) Accurately ripped
07 [049eb15a] (005/202) Accurately ripped
08 [54d90fd8] (005/200) Accurately ripped
09 [1b7fbf9f] (005/201) Accurately ripped
10 [d7d17fbf] (005/199) Accurately ripped
Offsetted by 1986:
01 [3be150bb] (013/203) Accurately ripped
02 [151963f7] (013/204) Accurately ripped
03 [ec5a9814] (014/205) Accurately ripped
04 [37501594] (015/203) Accurately ripped
05 [f75da2eb] (015/202) Accurately ripped
06 [9c39f78b] (014/202) Accurately ripped
07 [158f0e03] (014/202) Accurately ripped
08 [59711c03] (014/200) Accurately ripped
09 [d3c318fe] (014/201) Accurately ripped
10 [f3eafa9a] (014/199) Accurately ripped

Track Peak [ CRC32 ] [W/O NULL] [ LOG ]
– 99,9 [CA6CE959] [58E3B531]
01 99,9 [0E8B1212] [63B0CDEC] CRC32
02 99,9 [A3E4DEA9] [260F5867] CRC32
03 99,9 [C8AA6F5A] [998616A8] CRC32
04 99,9 [45DEB5DD] [ACA65065] CRC32
05 99,9 [B2B94774] [1A85FDE0] CRC32
06 99,9 [D9033AF7] [E8CE979B] CRC32
07 99,9 [F53683C4] [FB334869] CRC32
08 99,9 [C738E673] [C7D4EC08] CRC32
09 99,9 [2B263BDE] [7C53691D] CRC32
10 99,9 [58B47B96] [14AD6209] CRC32

===========

Foreigner – The Complete Atlantic Studio Albums 1977-1991 [2014, 7CD Box-Set]

CD06: Foreigner – Inside Information (1987)
EAC | Flac(Image) + Cue + Log & MP3 CBR 320Kbps
Atlantic, 8122795829-6 | ~ 297 or 107 Mb
Hard Rock / AOR

Foreigner was arguably the finest band of AOR's late-'70s and early-'80s heyday. Unfortunately, after a decade of monstrous success and raking in truckloads of cash for themselves and Atlantic Records, 1987's Inside Information showed that the songwriting gas tank of guitarist/keyboardist Mick Jones and vocalist Lou Gramm was running low. Impeccable studio craftsmanship can't compensate for the lack of quality songs. There are a few solid tracks, but the album only sold a million copies – paltry when compared to previous releases – and it currently ranks as Foreigner's last major commercial success. The proceedings start promisingly enough with "Heart Turns to Stone," an energetic rock number that became a minor hit. "Say You Will" was Foreigner's last great Top Ten single. It's loaded with killer vocal and keyboard hooks. The bloodless, pleasantly tepid ballad "I Don't Want to Live Without You" actually made the Top Five; it has neither the passion of "Waiting for a Girl Like You" nor the soul of "I Want to Know What Love Is." "Inside Information" experiments a little with odd rhythms. "The Beat of My Heart" is notable only for the Spanish guitar intro by guest Hugh McCracken. The gritty "Face to Face" is an excellent album track. "Out of the Blue" is the only song written by the entire band – Jones, Gramm, bassist Rick Wills, and drummer Dennis Elliott – and that does give it a slightly more organic feel.

by Bret Adams, AMG
Tracklist:

01. Heart Turns To Stone [0:04:34.30]
02. Can't Wait [0:04:31.27]
03. Say You Will [0:04:14.68]
04. I Don't Want To Live Without You [0:04:56.07]
05. Counting Every Minute [0:04:12.03]
06. Inside Information [0:04:12.35]
07. The Beat Of My Heart [0:05:12.50]
08. Face To Face [0:03:56.20]
09. Out Of The Blue [0:04:44.27]
10. A Night To Remember [0:04:08.50]

Exact Audio Copy V1.0 beta 3 from 29. August 2011

EAC extraction logfile from 27. October 2014, 18:16

Foreigner / Inside Information

Used drive : PLEXTOR DVDR PX-L890SA Adapter: 2 ID: 1

Read mode : Secure
Utilize accurate stream : Yes
Defeat audio cache : Yes
Make use of C2 pointers : No

Read offset correction : 6
Overread into Lead-In and Lead-Out : No
Fill up missing offset samples with silence : Yes
Delete leading and trailing silent blocks : No
Null samples used in CRC calculations : Yes
Used interface : Native Win32 interface for Win NT & 2000
Gap handling : Appended to previous track

Used output format : User Defined Encoder
Selected bitrate : 768 kBit/s
Quality : High
Add ID3 tag : No
Command line compressor : G:\Program Files\Exact Audio Copy\FLAC\FLAC.EXE
Additional command line options : -V -8 -T "Genre=%genre%" -T "Artist=%artist%" -T "Title=%title%" -T "Album=%albumtitle%" -T "Date=%year%" -T "Tracknumber=%tracknr%" -T "Comment=%comment%" %source%


TOC of the extracted CD

Track | Start | Length | Start sector | End sector
––––––––––––––––––––––––––––-
1 | 0:00.00 | 4:34.30 | 0 | 20579
2 | 4:34.30 | 4:31.27 | 20580 | 40931
3 | 9:05.57 | 4:14.68 | 40932 | 60049
4 | 13:20.50 | 4:56.07 | 60050 | 82256
5 | 18:16.57 | 4:12.03 | 82257 | 101159
6 | 22:28.60 | 4:12.35 | 101160 | 120094
7 | 26:41.20 | 5:12.50 | 120095 | 143544
8 | 31:53.70 | 3:56.20 | 143545 | 161264
9 | 35:50.15 | 4:44.27 | 161265 | 182591
10 | 40:34.42 | 4:08.50 | 182592 | 201241


Track 1

Filename H:\MUSIC\Foreigner\1987. Foreigner - Inside Information (Atlantic 8122795829-6, EU)\01. Heart Turns To Stone.wav

Pre-gap length 0:00:02.00

Peak level 100.0 %
Extraction speed 3.4 X
Track quality 100.0 %
Test CRC 375F7F00
Copy CRC 375F7F00
Cannot be verified as accurate (confidence 7) [75818761], AccurateRip returned [AB7AD9F0] (AR v2)
Copy OK

Track 2

Filename H:\MUSIC\Foreigner\1987. Foreigner - Inside Information (Atlantic 8122795829-6, EU)\02. Can't Wait.wav

Pre-gap length 0:00:01.32

Peak level 95.1 %
Extraction speed 4.0 X
Track quality 100.0 %
Test CRC 485915C0
Copy CRC 485915C0
Cannot be verified as accurate (confidence 7) [7E9E223A], AccurateRip returned [4BD9AF57] (AR v2)
Copy OK

Track 3

Filename H:\MUSIC\Foreigner\1987. Foreigner - Inside Information (Atlantic 8122795829-6, EU)\03. Say You Will.wav

Pre-gap length 0:00:01.67

Peak level 82.9 %
Extraction speed 4.3 X
Track quality 100.0 %
Test CRC 1C9BC0A7
Copy CRC 1C9BC0A7
Cannot be verified as accurate (confidence 7) [045B0C09], AccurateRip returned [341C4884] (AR v2)
Copy OK

Track 4

Filename H:\MUSIC\Foreigner\1987. Foreigner - Inside Information (Atlantic 8122795829-6, EU)\04. I Don't Want To Live Without You.wav

Pre-gap length 0:00:01.73

Peak level 74.0 %
Extraction speed 4.7 X
Track quality 100.0 %
Test CRC B664834F
Copy CRC B664834F
Cannot be verified as accurate (confidence 7) [3B8906C2], AccurateRip returned [362AD904] (AR v2)
Copy OK

Track 5

Filename H:\MUSIC\Foreigner\1987. Foreigner - Inside Information (Atlantic 8122795829-6, EU)\05. Counting Every Minute.wav

Pre-gap length 0:00:02.00

Peak level 91.7 %
Extraction speed 4.9 X
Track quality 100.0 %
Test CRC 286727C7
Copy CRC 286727C7
Cannot be verified as accurate (confidence 7) [BD7A6B7F], AccurateRip returned [3EB5B4F3] (AR v2)
Copy OK

Track 6

Filename H:\MUSIC\Foreigner\1987. Foreigner - Inside Information (Atlantic 8122795829-6, EU)\06. Inside Information.wav

Pre-gap length 0:00:00.35

Peak level 94.9 %
Extraction speed 5.2 X
Track quality 100.0 %
Test CRC D52E02E3
Copy CRC D52E02E3
Cannot be verified as accurate (confidence 7) [49C407E0], AccurateRip returned [0827DFC5] (AR v2)
Copy OK

Track 7

Filename H:\MUSIC\Foreigner\1987. Foreigner - Inside Information (Atlantic 8122795829-6, EU)\07. The Beat Of My Heart.wav

Pre-gap length 0:00:01.18

Peak level 94.5 %
Extraction speed 5.6 X
Track quality 100.0 %
Test CRC 24884B3E
Copy CRC 24884B3E
Cannot be verified as accurate (confidence 7) [4F8FE8D0], AccurateRip returned [97DAD2AA] (AR v2)
Copy OK

Track 8

Filename H:\MUSIC\Foreigner\1987. Foreigner - Inside Information (Atlantic 8122795829-6, EU)\08. Face To Face.wav

Pre-gap length 0:00:01.65

Peak level 100.0 %
Extraction speed 5.7 X
Track quality 100.0 %
Test CRC 8DE641F1
Copy CRC 8DE641F1
Cannot be verified as accurate (confidence 7) [3F53EC2A], AccurateRip returned [C3E4DD90] (AR v2)
Copy OK

Track 9

Filename H:\MUSIC\Foreigner\1987. Foreigner - Inside Information (Atlantic 8122795829-6, EU)\09. Out Of The Blue.wav

Pre-gap length 0:00:01.30

Peak level 76.0 %
Extraction speed 6.1 X
Track quality 100.0 %
Test CRC 915D5893
Copy CRC 915D5893
Cannot be verified as accurate (confidence 7) [8F07E82C], AccurateRip returned [8CBC3E0A] (AR v2)
Copy OK

Track 10

Filename H:\MUSIC\Foreigner\1987. Foreigner - Inside Information (Atlantic 8122795829-6, EU)\10. A Night To Remember.wav

Pre-gap length 0:00:01.47

Peak level 93.1 %
Extraction speed 4.9 X
Track quality 99.9 %
Test CRC C0E3BFBB
Copy CRC C0E3BFBB
Cannot be verified as accurate (confidence 7) [F9769A1A], AccurateRip returned [512ADC3A] (AR v2)
Copy OK


No tracks could be verified as accurate
You may have a different pressing from the one(s) in the database

No errors occurred

End of status report

foobar2000 1.2.9 / Dynamic Range Meter 1.1.1
log date: 2014-10-28 12:17:10

––––––––––––––––––––––––––––––––––––––––
Analyzed: Foreigner / Inside Information
––––––––––––––––––––––––––––––––––––––––

DR Peak RMS Duration Track
––––––––––––––––––––––––––––––––––––––––
DR12 0.00 dB -14.49 dB 4:34 01-Heart Turns To Stone
DR12 -0.43 dB -16.67 dB 4:31 02-Can't Wait
DR12 -1.62 dB -16.09 dB 4:15 03-Say You Will
DR12 -2.61 dB -17.52 dB 4:56 04-I Don't Want To Live Without You
DR12 -0.74 dB -14.44 dB 4:12 05-Counting Every Minute
DR12 -0.45 dB -15.01 dB 4:12 06-Inside Information
DR12 -0.49 dB -15.38 dB 5:13 07-The Beat Of My Heart
DR14 0.00 dB -15.66 dB 3:56 08-Face To Face
DR11 -2.38 dB -16.21 dB 4:44 09-Out Of The Blue
DR12 -0.61 dB -14.83 dB 4:09 10-A Night To Remember
––––––––––––––––––––––––––––––––––––––––

Number of tracks: 10
Official DR value: DR12

Samplerate: 44100 Hz
Channels: 2
Bits per sample: 16
Bitrate: 902 kbps
Codec: FLAC

[CUETools log; Date: 28.10.2014 12:19:22; Version: 2.1.4]
[CTDB TOCID: 4V.r2aJtz7ImZYDCW_BzU5lvbE4-] found.
Track | CTDB Status
1 | (26/26) Accurately ripped
2 | (26/26) Accurately ripped
3 | (26/26) Accurately ripped
4 | (26/26) Accurately ripped
5 | (26/26) Accurately ripped
6 | (26/26) Accurately ripped
7 | (26/26) Accurately ripped
8 | (26/26) Accurately ripped
9 | (26/26) Accurately ripped
10 | (26/26) Accurately ripped
[AccurateRip ID: 0010fe76-0087d6fa-790a7b0a] found.
Track [ CRC | V2 ] Status
01 [e698c010|75818761] (00+00/20) No match
02 [97694c01|7e9e223a] (00+00/21) No match
03 [1c491636|045b0c09] (00+00/21) No match
04 [0d5f9325|3b8906c2] (00+00/21) No match
05 [78adc6b2|bd7a6b7f] (00+00/21) No match
06 [06c91ebe|49c407e0] (00+00/21) No match
07 [35009779|4f8fe8d0] (00+00/21) No match
08 [7f4f211a|3f53ec2a] (00+00/21) No match
09 [c08395ba|8f07e82c] (00+00/21) No match
10 [527269a6|f9769a1a] (00+00/22) No match
Offsetted by -6:
01 [1a5ccaa4] (05/20) Accurately ripped
02 [626efaab] (06/21) Accurately ripped
03 [49fb1862] (06/21) Accurately ripped
04 [0598608d] (06/21) Accurately ripped
05 [f7e02cec] (06/21) Accurately ripped
06 [c31e5cf0] (06/21) Accurately ripped
07 [7ac5755b] (06/21) Accurately ripped
08 [01f859f4] (06/21) Accurately ripped
09 [bbec0270] (06/21) Accurately ripped
10 [512adc3a] (07/22) Accurately ripped
Offsetted by 658:
01 [b99d8d54] (05/20) Accurately ripped
02 [9ea4ce83] (05/21) Accurately ripped
03 [de5cd2b2] (05/21) Accurately ripped
04 [625f94ed] (05/21) Accurately ripped
05 [a616a684] (05/21) Accurately ripped
06 [039a24a8] (05/21) Accurately ripped
07 [fc558a53] (05/21) Accurately ripped
08 [8626710c] (05/21) Accurately ripped
09 [0d725918] (05/21) Accurately ripped
10 [7a66116a] (05/22) Accurately ripped

Track Peak [ CRC32 ] [W/O NULL] [ LOG ]
– 100,0 [8EA3B277] [D4246E3B]
01 100,0 [375F7F00] [5987762C] CRC32
02 95,1 [485915C0] [9185E5C1] CRC32
03 82,9 [1C9BC0A7] [64FFC7E3] CRC32
04 74,0 [B664834F] [5B9AB0EE] CRC32
05 91,7 [286727C7] [041E3AE7] CRC32
06 94,9 [D52E02E3] [C533F00F] CRC32
07 94,5 [24884B3E] [6239DB70] CRC32
08 100,0 [8DE641F1] [0E00B4B4] CRC32
09 76,0 [915D5893] [6AEF06F6] CRC32
10 93,1 [C0E3BFBB] [59135388] CRC32

===========

Foreigner – The Complete Atlantic Studio Albums 1977-1991 [2014, 7CD Box-Set]

CD07: Foreigner – Unusual Heat (1991)
EAC | Flac(Image) + Cue + Log & MP3 CBR 320Kbps
Atlantic, 8122795829-7 | ~ 360 or 121 Mb
Hard Rock / AOR

With Rick Willis on bass, Dennis Elliot playing drums, Mick Jones on guitar/keyboards, and the debut of Johnny Edwards from King Kobra and Buster Brown on vocals, the 1991 version of Foreigner actually was better than one would expect. Ten of the 11 songs on the Unusual Heat CD were written by co-producer Terry Thomas, new singer Johnny Edwards, and band mainstay Mick Jones, and they still had that bombast and brash appeal of the group which once featured so many textures brought to life by the voice of Lou Gramm. The unusual thing about Unusual Heat is that it is actually a good product and quite listenable. "Only Heaven Knows" kicks things off, and it could be the second cousin (or sequel) to Lou Gramm's solo smash from four years earlier, 1987's "Midnight Blue." Edwards is a stylish vocalist, and he, like the multiple replacements for Bad Company's Paul Rodgers, the Guess Who's Burton Cummings, and the Jefferson Starship's Grace Slick, has that tonal quality that can keep the public happy by keeping the sound consistent with what came before. "Lowdown and Dirty" actually got onto the band's Rhino double-CD retrospective Juke Box Heroes, and is another solid rocker. Everything here sounds very much like the product Foreigner was known for, but as slick album-oriented rock was fighting other genres vying for the public's attention, it may have been more advisable for the group to go into a slightly different direction – some acoustic music here might have been a nice break from the generic onslaught. The lone Mick Jones solo composition, "Safe in My Heart," is mellow, but not a dramatic departure needed to establish a new identity. But it's all hooky hard pop, from "I'll Fight for You" to the "Juke Box Hero" clone that is "No Hiding Place" and the title track, "Unusual Heat," a strong chorus surrounded by the thumping hard rock sound. It's a record Johnny Edwards, Mick Jones, and crew can be proud of. Guest appearances by Stories' Ian Lloyd (Mick Jones had, after all, worked on Lloyd's Third World Civilization solo outing), and additional keyboardists Tommy Mandel and Richard Cottle make things somewhat interesting, though the keys take a back seat on this album (you have to strain your ears at some point to hear them, à la when Flo & Eddie called Mountain's Steve Knight "the most useless man in rock & roll"). It may have been funny, but as Corky Laing came to Knight's defense, saying he kept the rhythms going, the rhythm and spirit is prevalent on this interesting addition to the Foreigner catalog. In an ironic turn of events, bassist Rick Willis departed after this for Atlantic labelmate Bad Company.

by Joe Viglione, AMG
Tracklist:

01. Only Heaven Knows [0:04:49.50]
02. Lowdown And Dirty [0:04:22.00]
03. I'll Fight For You [0:06:03.35]
04. Moment Of Truth [0:04:26.20]
05. Mountain Of Love [0:04:38.68]
06. Ready For The Rain [0:05:03.40]
07. When The Night Comes Down [0:04:45.00]
08. Safe In My Heart [0:04:33.37]
09. No Hiding Place [0:03:57.25]
10. Flesh Wound [0:04:17.38]
11. Unusual Heat [0:04:32.52]

Exact Audio Copy V1.0 beta 3 from 29. August 2011

EAC extraction logfile from 27. October 2014, 18:39

Foreigner / Unusual Heat

Used drive : PLEXTOR DVDR PX-L890SA Adapter: 2 ID: 1

Read mode : Secure
Utilize accurate stream : Yes
Defeat audio cache : Yes
Make use of C2 pointers : No

Read offset correction : 6
Overread into Lead-In and Lead-Out : No
Fill up missing offset samples with silence : Yes
Delete leading and trailing silent blocks : No
Null samples used in CRC calculations : Yes
Used interface : Native Win32 interface for Win NT & 2000
Gap handling : Appended to previous track

Used output format : User Defined Encoder
Selected bitrate : 768 kBit/s
Quality : High
Add ID3 tag : No
Command line compressor : G:\Program Files\Exact Audio Copy\FLAC\FLAC.EXE
Additional command line options : -V -8 -T "Genre=%genre%" -T "Artist=%artist%" -T "Title=%title%" -T "Album=%albumtitle%" -T "Date=%year%" -T "Tracknumber=%tracknr%" -T "Comment=%comment%" %source%


TOC of the extracted CD

Track | Start | Length | Start sector | End sector
––––––––––––––––––––––––––––-
1 | 0:00.00 | 4:49.50 | 0 | 21724
2 | 4:49.50 | 4:22.00 | 21725 | 41374
3 | 9:11.50 | 6:03.35 | 41375 | 68634
4 | 15:15.10 | 4:26.20 | 68635 | 88604
5 | 19:41.30 | 4:38.68 | 88605 | 109522
6 | 24:20.23 | 5:03.40 | 109523 | 132287
7 | 29:23.63 | 4:45.00 | 132288 | 153662
8 | 34:08.63 | 4:33.37 | 153663 | 174174
9 | 38:42.25 | 3:57.25 | 174175 | 191974
10 | 42:39.50 | 4:17.38 | 191975 | 211287
11 | 46:57.13 | 4:32.52 | 211288 | 231739


Track 1

Filename H:\MUSIC\Foreigner\1991. Foreigner - Unusuall Heat (Atlantic 8122795829-7, EU)\01. Only Heaven Knows.wav

Pre-gap length 0:00:02.00

Peak level 100.0 %
Extraction speed 3.5 X
Track quality 100.0 %
Test CRC E9354B94
Copy CRC E9354B94
Cannot be verified as accurate (confidence 60) [D4C1F73B], AccurateRip returned [DAF72C46] (AR v2)
Copy OK

Track 2

Filename H:\MUSIC\Foreigner\1991. Foreigner - Unusuall Heat (Atlantic 8122795829-7, EU)\02. Lowdown And Dirty.wav

Pre-gap length 0:00:00.52

Peak level 100.0 %
Extraction speed 3.9 X
Track quality 100.0 %
Test CRC ADE75793
Copy CRC ADE75793
Cannot be verified as accurate (confidence 64) [7C90857A], AccurateRip returned [A158D175] (AR v2)
Copy OK

Track 3

Filename H:\MUSIC\Foreigner\1991. Foreigner - Unusuall Heat (Atlantic 8122795829-7, EU)\03. I'll Fight For You.wav

Peak level 100.0 %
Extraction speed 4.5 X
Track quality 100.0 %
Test CRC 10E027AF
Copy CRC 10E027AF
Cannot be verified as accurate (confidence 62) [0127E0BE], AccurateRip returned [D8ACB63B] (AR v2)
Copy OK

Track 4

Filename H:\MUSIC\Foreigner\1991. Foreigner - Unusuall Heat (Atlantic 8122795829-7, EU)\04. Moment Of Truth.wav

Pre-gap length 0:00:00.47

Peak level 100.0 %
Extraction speed 3.9 X
Track quality 99.9 %
Test CRC 0C3DFA4A
Copy CRC 0C3DFA4A
Cannot be verified as accurate (confidence 63) [7C7857A1], AccurateRip returned [117882B3] (AR v2)
Copy OK

Track 5

Filename H:\MUSIC\Foreigner\1991. Foreigner - Unusuall Heat (Atlantic 8122795829-7, EU)\05. Mountain Of Love.wav

Pre-gap length 0:00:00.45

Peak level 100.0 %
Extraction speed 5.1 X
Track quality 100.0 %
Test CRC 0B31448C
Copy CRC 0B31448C
Cannot be verified as accurate (confidence 63) [A9380391], AccurateRip returned [6E51BAE5] (AR v2)
Copy OK

Track 6

Filename H:\MUSIC\Foreigner\1991. Foreigner - Unusuall Heat (Atlantic 8122795829-7, EU)\06. Ready For The Rain.wav

Pre-gap length 0:00:01.43

Peak level 100.0 %
Extraction speed 5.4 X
Track quality 100.0 %
Test CRC 5363FEB9
Copy CRC 5363FEB9
Cannot be verified as accurate (confidence 62) [0E03B507], AccurateRip returned [C37F2ED5] (AR v2)
Copy OK

Track 7

Filename H:\MUSIC\Foreigner\1991. Foreigner - Unusuall Heat (Atlantic 8122795829-7, EU)\07. When The Night Comes Down.wav

Pre-gap length 0:00:00.28

Peak level 100.0 %
Extraction speed 5.7 X
Track quality 100.0 %
Test CRC 7AC9C0A4
Copy CRC 7AC9C0A4
Cannot be verified as accurate (confidence 61) [EF7B946A], AccurateRip returned [C9849700] (AR v2)
Copy OK

Track 8

Filename H:\MUSIC\Foreigner\1991. Foreigner - Unusuall Heat (Atlantic 8122795829-7, EU)\08. Safe In My Heart.wav

Pre-gap length 0:00:01.25

Peak level 100.0 %
Extraction speed 5.9 X
Track quality 100.0 %
Test CRC 1CF7F135
Copy CRC 1CF7F135
Cannot be verified as accurate (confidence 65) [84405236], AccurateRip returned [D8CAE531] (AR v2)
Copy OK

Track 9

Filename H:\MUSIC\Foreigner\1991. Foreigner - Unusuall Heat (Atlantic 8122795829-7, EU)\09. No Hiding Place.wav

Pre-gap length 0:00:01.07

Peak level 100.0 %
Extraction speed 6.1 X
Track quality 100.0 %
Test CRC AF9D99D5
Copy CRC AF9D99D5
Cannot be verified as accurate (confidence 63) [45F7E9CF], AccurateRip returned [EB6BF32C] (AR v2)
Copy OK

Track 10

Filename H:\MUSIC\Foreigner\1991. Foreigner - Unusuall Heat (Atlantic 8122795829-7, EU)\10. Flesh Wound.wav

Pre-gap length 0:00:01.10

Peak level 100.0 %
Extraction speed 6.3 X
Track quality 100.0 %
Test CRC 8AD566DB
Copy CRC 8AD566DB
Cannot be verified as accurate (confidence 62) [5234EBBD], AccurateRip returned [383B8DE1] (AR v2)
Copy OK

Track 11

Filename H:\MUSIC\Foreigner\1991. Foreigner - Unusuall Heat (Atlantic 8122795829-7, EU)\11. Unusual Heat.wav

Peak level 100.0 %
Extraction speed 6.5 X
Track quality 100.0 %
Test CRC D181705A
Copy CRC D181705A
Cannot be verified as accurate (confidence 62) [DFDF57DB], AccurateRip returned [E1FE837E] (AR v2)
Copy OK


No tracks could be verified as accurate
You may have a different pressing from the one(s) in the database

No errors occurred

End of status report

foobar2000 1.2.9 / Dynamic Range Meter 1.1.1
log date: 2014-10-28 11:55:03

––––––––––––––––––––––––––––––––––––––––
Analyzed: Foreigner / Unusual Heat
––––––––––––––––––––––––––––––––––––––––

DR Peak RMS Duration Track
––––––––––––––––––––––––––––––––––––––––
DR11 0.00 dB -13.31 dB 4:50 01-Only Heaven Knows
DR11 0.00 dB -12.11 dB 4:22 02-Lowdown And Dirty
DR10 0.00 dB -12.42 dB 6:03 03-I'll Fight For You
DR11 0.00 dB -12.02 dB 4:26 04-Moment Of Truth
DR11 0.00 dB -12.17 dB 4:39 05-Mountain Of Love
DR11 0.00 dB -13.67 dB 5:04 06-Ready For The Rain
DR11 0.00 dB -14.31 dB 4:45 07-When The Night Comes Down
DR11 0.00 dB -14.15 dB 4:33 08-Safe In My Heart
DR11 0.00 dB -12.65 dB 3:57 09-No Hiding Place
DR11 0.00 dB -12.42 dB 4:18 10-Flesh Wound
DR11 0.00 dB -12.75 dB 4:33 11-Unusual Heat
––––––––––––––––––––––––––––––––––––––––

Number of tracks: 11
Official DR value: DR11

Samplerate: 44100 Hz
Channels: 2
Bits per sample: 16
Bitrate: 950 kbps
Codec: FLAC

[CUETools log; Date: 28.10.2014 12:19:37; Version: 2.1.4]
[CTDB TOCID: sEOra_nSdjk_IYWJ_r_vKryJMRg-] found.
Track | CTDB Status
1 | (40/40) Accurately ripped
2 | (39/40) Accurately ripped
3 | (39/40) Accurately ripped
4 | (39/40) Accurately ripped
5 | (39/40) Accurately ripped
6 | (40/40) Accurately ripped
7 | (39/40) Accurately ripped
8 | (40/40) Accurately ripped
9 | (40/40) Accurately ripped
10 | (40/40) Accurately ripped
11 | (37/40) Accurately ripped
[AccurateRip ID: 0015be60-00bb87b4-8d0c110b] found.
Track [ CRC | V2 ] Status
01 [0dcc1db0|d4c1f73b] (000+000/103) No match
02 [31a85c15|7c90857a] (000+000/108) No match
03 [4c8d62fb|0127e0be] (000+000/106) No match
04 [21e15903|7c7857a1] (000+000/108) No match
05 [c6293f89|a9380391] (000+000/107) No match
06 [d9a4a195|0e03b507] (000+000/106) No match
07 [2fcd6f76|ef7b946a] (000+000/105) No match
08 [8655fdab|84405236] (000+000/109) No match
09 [debd3f3c|45f7e9cf] (000+000/107) No match
10 [89fbb149|5234ebbd] (000+000/107) No match
11 [af71ea20|dfdf57db] (000+000/106) No match
Offsetted by -6:
01 [daf72c46] (060/103) Accurately ripped
02 [a158d175] (064/108) Accurately ripped
03 [d8acb63b] (062/106) Accurately ripped
04 [117882b3] (063/108) Accurately ripped
05 [6e51bae5] (063/107) Accurately ripped
06 [c37f2ed5] (062/106) Accurately ripped
07 [c9849700] (061/105) Accurately ripped
08 [d8cae531] (065/109) Accurately ripped
09 [eb6bf32c] (063/107) Accurately ripped
10 [383b8de1] (062/107) Accurately ripped
11 [e1fe837e] (062/106) Accurately ripped

Track Peak [ CRC32 ] [W/O NULL] [ LOG ]
– 99,9 [EAC58CE3] [C29A777E]
01 99,9 [E9354B94] [9F342FC7] CRC32
02 99,9 [ADE75793] [3873E313] CRC32
03 99,9 [10E027AF] [0550AAA5] CRC32
04 99,9 [0C3DFA4A] [ACF8CC0E] CRC32
05 99,9 [0B31448C] [6D48181A] CRC32
06 99,9 [5363FEB9] [2E428BCA] CRC32
07 99,9 [7AC9C0A4] [758B3ADA] CRC32
08 99,9 [1CF7F135] [0B08CFF8] CRC32
09 99,9 [AF9D99D5] [8A8C3368] CRC32
10 99,9 [8AD566DB] [FFC4AD8E] CRC32
11 99,9 [D181705A] [45B3721A] CRC32

Foreigner – The Complete Atlantic Studio Albums 1977-1991 [2014, 7CD Box-Set]

All thanks go to snakesharmer