Subcategories

Four80East - Off Duty (2012)

Posted By: popsakov
Four80East - Off Duty (2012)

Four80East - Off Duty (2012)
EAC Rip | FLAC (Img) + Cue + Log ~ 390 Mb | MP3 CBR320 ~ 173 Mb
Scans Included (JPG, 600 dpi) | RAR 5% Recovery
Jazz-Funk, Smooth Jazz, Acid Jazz | Boomtang Records #BOOMCD-006

Four80East is a Canadian electro jazz ensemble from Toronto with Rob DeBoer (keyboards, bass and guitar) and Tony Grace (percussion); accompanied by various session musicians. Although Four80East began as a studio concept, they have evolved into a live act.

Four80East began as a studio project when DeBoer and Grace, who had been writing, arranging and producing for other artists on their Boomtang Records label, put together material of their own and released it as The Album, in 1997. The Album was well-received by critics and the public alike. It was followed by Nocturnal in 2001, and Round 3 in 2002. Their fourth album, En Route was released in 2007. Their fifth CD, Roll On, came out in 2009, followed by a sixth, Off Duty, in 2012. Four80East LIVE, a collection of 15 select songs recorded from three different shows, was released in early 2014.

Four80East's music is characterized by a distinctive melodic atmosphere; underpinned by a strong bass groove.
~ Wiki

Four80East is an electro-jazz collective that’s all about the groove. Mixing jazz with soul music and electronic production, the Canadian producer duo of Rob DeBoer and Tony Grace have created a signature bass-propelled sound that entrances listeners of their recordings and enthralls audiences at their live shows.

Since breaking out with their critically acclaimed first release “The Album,” in 1997, Four80East has been a mainstay on contemporary jazz radio and touring circuits with hits like “Eastside” and “Noodle Soup” and five subsequent albums.

Although the “band” was born as a studio project, DeBoer and Grace have been able to transform their layered and captivating sonic productions into a high-energy live show with the help of many world class session musicians who join them on stage. DeBoer, a multi-instrumentalist who plays keyboards, guitar and bass, fronts the band on their live performances.

As a production team and as artists, DeBoer and Grace have had global success. They’ve won every major music award in their native Canada from a Juno to a MuchMusic Award to a Canadian Radio Music Award. Internationally, they’ve achieved commercial success and received critical accolades for their work as remixers, label owners, producers, and artists in the genres of R&B, jazz and dance. They’ve also migrated their talents to film and TV as composers for hit shows, films and commercials.

For 20 years as producers and songwriters and almost as long as Four80East, they’ve reinvented themselves time and time again. Whether pushing the boundaries of musical integration on their recordings or filling the dance floor at their concerts, Four80East is continually putting their unique twist on contemporary jazz’s sound and style. For them music is all about being fresh and exciting and, most importantly, all about the groove.
~ four80east.com
Four80East - Off Duty (2012)

Official Website | Wiki | Discogs | All Music

***************

Four80East - Off Duty (2012)

Track List:

01. The Walker [05:02]
02. Sandbar [05:47]
03. Cashed Out [06:10]
04. In the Hidden Garden [05:46]
05. Nothing is Written [06:40]
06. Spun [05:44]
07. With You [04:26]
08. Picking Up the Threads [06:02]
09. Vaporized [04:29]
10. Gare Du Nord [06:26]
11. Sandbar (Radio Edit) [03:59]

Exact Audio Copy V1.0 beta 3 from 29. August 2011

Отчёт EAC об извлечении, выполненном 22. июля 2015, 3:40

Four80East / Off Duty

Дисковод: ATAPI iHAS424 A Adapter: 0 ID: 0

Режим чтения : Достоверность
Использование точного потока : Да
Отключение кэша аудио : Да
Использование указателей C2 : Нет

Коррекция смещения при чтении : 6
Способность читать области Lead-in и Lead-out : Нет
Заполнение пропущенных сэмплов тишиной : Да
Удаление блоков с тишиной в начале и конце : Нет
При вычислениях CRC использовались нулевые сэмплы : Да
Интерфейс : Установленный внешний ASPI-интерфейс

Выходной формат : Пользовательский кодировщик
Выбранный битрейт : 1024 kBit/s
Качество : Высокий
Добавление ID3-тега : Нет
Утилита сжатия : C:\Program Files\Exact Audio Copy\FLAC\FLAC.EXE
Дополнительные параметры : -8 -V -T "ARTIST=%artist%" -T "ALBUM=%albumtitle%" -T "DATE=%year%" -T "GENRE=%genre%" -T "COMMENT=ripped by izia1956" %source%


TOC извлечённого CD

Трек | Старт | Длительность | Начальный сектор | Конечный сектор
––––––––––––––––––––––––––––––––––-
1 | 0:00.00 | 5:01.25 | 0 | 22599
2 | 5:01.25 | 5:46.50 | 22600 | 48599
3 | 10:48.00 | 6:10.00 | 48600 | 76349
4 | 16:58.00 | 5:45.20 | 76350 | 102244
5 | 22:43.20 | 6:39.25 | 102245 | 132194
6 | 29:22.45 | 5:43.10 | 132195 | 157929
7 | 35:05.55 | 4:25.55 | 157930 | 177859
8 | 39:31.35 | 6:01.29 | 177860 | 204963
9 | 45:32.64 | 4:28.53 | 204964 | 225116
10 | 50:01.42 | 6:25.55 | 225117 | 254046
11 | 56:27.22 | 3:58.51 | 254047 | 271947


Характеристики диапазона извлечения и сообщения об ошибках

Выбранный диапазон

Имя файла D:\BitComet\Four80East\2012 - Off Duty\Four80East - Off Duty.wav

Пиковый уровень 96.6 %
Скорость извлечения 4.6 X
Качество диапазона 100.0 %
CRC теста 7895F729
CRC копии 7895F729
Копирование… OK

Ошибок не произошло


AccurateRip: сводка

Трек 1 : извлечено точно (доверие 2) [DA0E94A5] (AR v2)
Трек 2 : извлечено точно (доверие 2) [F2BD3544] (AR v2)
Трек 3 : извлечено точно (доверие 2) [BA04A4FF] (AR v2)
Трек 4 : извлечено точно (доверие 2) [3261F3C1] (AR v2)
Трек 5 : извлечено точно (доверие 2) [41050D74] (AR v2)
Трек 6 : извлечено точно (доверие 2) [C81709B5] (AR v2)
Трек 7 : извлечено точно (доверие 2) [608E3126] (AR v2)
Трек 8 : извлечено точно (доверие 2) [6B671D92] (AR v2)
Трек 9 : извлечено точно (доверие 2) [F5855204] (AR v2)
Трек 10 : извлечено точно (доверие 2) [4AFDFA9D] (AR v2)
Трек 11 : извлечено точно (доверие 2) [E4558539] (AR v2)

Все треки извлечены точно

Конец отчёта

==== Контрольная сумма отчёта 29B6AD97935C79ED3B17AEC02434EB87B548C165E1115AF607D824E71B337064 ====

foobar2000 1.2.6 / Dynamic Range Meter 1.1.1
log date: 2015-07-30 13:37:00

––––––––––––––––––––––––––––––––––––––––
Analyzed: Four80East / Off Duty
––––––––––––––––––––––––––––––––––––––––

DR Peak RMS Duration Track
––––––––––––––––––––––––––––––––––––––––
DR9 -0.33 dB -11.38 dB 5:01 01-The Walker
DR10 -0.33 dB -12.72 dB 5:47 02-Sandbar
DR9 -0.33 dB -11.05 dB 6:10 03-Cashed Out
DR11 -0.33 dB -13.32 dB 5:45 04-In the Hidden Garden
DR8 -0.33 dB -10.31 dB 6:39 05-Nothing is Written
DR8 -0.33 dB -10.80 dB 5:43 06-Spun
DR9 -0.33 dB -11.76 dB 4:26 07-With You
DR9 -0.33 dB -11.53 dB 6:01 08-Picking Up the Threads
DR10 -0.33 dB -13.98 dB 4:29 09-Vaporized
DR9 -0.33 dB -12.97 dB 6:26 10-Gare Du Nord
DR11 -0.30 dB -13.11 dB 3:59 11-Sandbar (Radio Edit)
––––––––––––––––––––––––––––––––––––––––

Number of tracks: 11
Official DR value: DR9

Samplerate: 44100 Hz
Channels: 2
Bits per sample: 16
Bitrate: 798 kbps
Codec: FLAC
================================================================================

[CUETools log; Date: 30.07.2015 13:36:39; Version: 2.1.5]
[CTDB TOCID: JTmbi6KZFH2Xpdf0uwDGaoE.GUk-] found.
Track | CTDB Status
1 | (3/3) Accurately ripped
2 | (3/3) Accurately ripped
3 | (3/3) Accurately ripped
4 | (3/3) Accurately ripped
5 | (3/3) Accurately ripped
6 | (3/3) Accurately ripped
7 | (3/3) Accurately ripped
8 | (3/3) Accurately ripped
9 | (3/3) Accurately ripped
10 | (3/3) Accurately ripped
11 | (3/3) Accurately ripped
[AccurateRip ID: 00198a80-00dcfded-7d0e290b] found.
Track [ CRC | V2 ] Status
01 [88d22400|da0e94a5] (0+2/2) Accurately ripped
02 [6d876fc5|f2bd3544] (0+2/2) Accurately ripped
03 [77a24f68|ba04a4ff] (0+2/2) Accurately ripped
04 [bb41d36b|3261f3c1] (0+2/2) Accurately ripped
05 [08ae8db0|41050d74] (0+2/2) Accurately ripped
06 [4aa0ef8e|c81709b5] (0+2/2) Accurately ripped
07 [4623dda3|608e3126] (0+2/2) Accurately ripped
08 [6b1dd8c2|6b671d92] (0+2/2) Accurately ripped
09 [96dcba64|f5855204] (0+2/2) Accurately ripped
10 [6ece9e8b|4afdfa9d] (0+2/2) Accurately ripped
11 [3ec42c66|e4558539] (0+2/2) Accurately ripped

Track Peak [ CRC32 ] [W/O NULL] [ LOG ]
– 96,6 [7895F729] [4071CFE4] CRC32
01 96,2 [1E3A63A1] [CBD12B8A]
02 96,2 [2A737A69] [8CAD6B12]
03 96,2 [C82CFB83] [82C47541]
04 96,2 [05697AC9] [5D2600AD]
05 96,2 [BFA2CA19] [3A3658CB]
06 96,2 [3B741EF2] [590CB209]
07 96,2 [B2E131D8] [91988E80]
08 96,2 [60A18FB0] [8BC74204]
09 96,2 [B761F07E] [65BD0FFD]
10 96,2 [24635A97] [8B81057B]
11 96,6 [241E3773] [7EB54DB7]

Four80East - Off Duty (2012)

All thanks go to izia1956

Four80East in my blog!

Download:
Nitroflare: FLAC-part 1 | FLAC-part 2 | mp3