Subcategories

Xênia França - Xenia (2017) {Agogo Cultural}

Posted By: tiburon
Xênia França - Xenia (2017) {Agogo Cultural}

Xênia França - Xenia (2017) {Agogo Cultural}
EAC 1.3 | FLAC tracks level 8 | Cue+Log+M3U | Full Scans 300dpi | 276MB + 5% Recovery
MP3 CBR 320 Kbps | 117MB + 5% Recovery
Genre: Latin, Funk, Soul, World, MPB

Xênia França (Candeias, 27 de fevereiro de 1986) é uma cantora e compositora brasileira.Nascida no Recôncavo Baiano, passou a adolescência em Camaçari e mudou-se para São Paulo em 2004. Trabalhou como modelo até 2008, quando começou a cantar em bares. Conheceu Emicida, que a convidou para participar das gravações do EP Sua Mina Ouve Meu Rep Tamém e do álbum Emicídio, ambos de 2010. No ano seguinte, entrou para a banda Aláfia, com Pipo Pegoraro e Lucas Cirillo.
Track List
01. Pra Que Me Chamas?
02. Preta Yayá
03. Minha História
04. Miragem (Sem Razão)
05. Do Alto
06. Garganta
07. Respeitem Meus Cabelos, Brancos
08. Perfeita pra Você
09. Tereza Guerreira
10. Destino
11. Reach The Stars
12. Nave
13. Breu

musicians
Lead Vocals – Xênia França
Acoustic Guitar – Julio Fejuca
Alto Saxophone – Cássio Ferreira
Bass – Robinho Tavares
Beats, Synth, Acoustic Guitar, Drum Programming, Claves, Arranged By, Co-producer – Lourenço Rebetez
Beats, Synth, Drum Machine, Drum Programming, Claves, Co-producer – Pipo Pegoraro
Cello – Erica Beatriz Navarro
Clarinet – Zafe Costa
Drums – Daniel Pinheiro, Vitor Cabral
Electric Piano – Fábio Leandro
Electric Piano, Piano – Pepe Cisneros
Electric Piano, Synthesizer – Henrique Gomide
Flugelhorn – Maycon Mesquita
Flugelhorn, Trumpet – Rubinho Antunes
Flute – Richard Fermino
Guitar – Guilherme Held
Piano, Electric Piano, Organ – Zé Godoy
Trombone – Jaziel Gomes, Joabe Reis
Tuba – Filipe Nader


Exact Audio Copy V1.3 from 2. September 2016

EAC extraction logfile from 10. November 2019, 17:56

Xênia França / Xenia

Used drive : PLEXTOR PX-891SAF Adapter: 1 ID: 0

Read mode : Secure
Utilize accurate stream : Yes
Defeat audio cache : Yes
Make use of C2 pointers : No

Read offset correction : 6
Overread into Lead-In and Lead-Out : No
Fill up missing offset samples with silence : Yes
Delete leading and trailing silent blocks : No
Null samples used in CRC calculations : Yes
Used interface : Native Win32 interface for Win NT & 2000
Gap handling : Appended to previous track

Used output format : User Defined Encoder
Selected bitrate : 1024 kBit/s
Quality : High
Add ID3 tag : No
Command line compressor : C:\Program Files (x86)\Exact Audio Copy\Flac\flac.exe
Additional command line options : -8 -V -T "ARTIST=%artist%" -T "TITLE=%title%" -T "ALBUM=%albumtitle%" -T "DATE=%year%" -T "TRACKNUMBER=%tracknr%" -T "GENRE=%genre%" -T "PERFORMER=%albuminterpret%" -T "COMPOSER=%composer%" %haslyrics%–tag-from-file=LYRICS="%lyricsfile%"%haslyrics% -T "ALBUMARTIST=%albumartist%" -T "DISCNUMBER=%cdnumber%" -T "TOTALDISCS=%totalcds%" -T "TOTALTRACKS=%numtracks%" -T "COMMENT=%comment%" %source% -o %dest%


TOC of the extracted CD

Track | Start | Length | Start sector | End sector
––––––––––––––––––––––––––––-
1 | 0:00.00 | 4:43.57 | 0 | 21281
2 | 4:43.57 | 3:00.00 | 21282 | 34781
3 | 7:43.57 | 3:13.21 | 34782 | 49277
4 | 10:57.03 | 3:51.10 | 49278 | 66612
5 | 14:48.13 | 4:40.24 | 66613 | 87636
6 | 19:28.37 | 1:23.37 | 87637 | 93898
7 | 20:51.74 | 3:39.57 | 93899 | 110380
8 | 24:31.56 | 4:28.35 | 110381 | 130515
9 | 29:00.16 | 3:43.38 | 130516 | 147278
10 | 32:43.54 | 3:12.17 | 147279 | 161695
11 | 35:55.71 | 4:42.40 | 161696 | 182885
12 | 40:38.36 | 3:14.24 | 182886 | 197459
13 | 43:52.60 | 3:33.31 | 197460 | 213465


Track 1

Filename D:\#cdr\#wav+flac\Xênia França - Xenia\01. Xênia França - Pra Que Me Chamas.wav

Pre-gap length 0:00:02.00

Peak level 98.6 %
Extraction speed 5.1 X
Track quality 100.0 %
Test CRC D61C7C7A
Copy CRC D61C7C7A
Cannot be verified as accurate (confidence 2) [3D4C7488], AccurateRip returned [C87F2486] (AR v2)
Copy OK

Track 2

Filename D:\#cdr\#wav+flac\Xênia França - Xenia\02. Xênia França - Preta Yayá.wav

Peak level 98.6 %
Extraction speed 5.3 X
Track quality 100.0 %
Test CRC BFF5019E
Copy CRC BFF5019E
Cannot be verified as accurate (confidence 2) [5E3B93A6], AccurateRip returned [A2A52F19] (AR v2)
Copy OK

Track 3

Filename D:\#cdr\#wav+flac\Xênia França - Xenia\03. Xênia França - Minha História.wav

Peak level 98.6 %
Extraction speed 5.7 X
Track quality 100.0 %
Test CRC 6E75DD9B
Copy CRC 6E75DD9B
Cannot be verified as accurate (confidence 2) [F81E2CA0], AccurateRip returned [027545C4] (AR v2)
Copy OK

Track 4

Filename D:\#cdr\#wav+flac\Xênia França - Xenia\04. Xênia França - Miragem (Sem Razão).wav

Peak level 98.6 %
Extraction speed 6.3 X
Track quality 100.0 %
Test CRC 5C4C3D8B
Copy CRC 5C4C3D8B
Cannot be verified as accurate (confidence 2) [348B966C], AccurateRip returned [CAF266F2] (AR v2)
Copy OK

Track 5

Filename D:\#cdr\#wav+flac\Xênia França - Xenia\05. Xênia França - Do Alto.wav

Peak level 98.6 %
Extraction speed 6.8 X
Track quality 100.0 %
Test CRC 213BAA68
Copy CRC 213BAA68
Cannot be verified as accurate (confidence 2) [969D6CC1], AccurateRip returned [4D781F72] (AR v2)
Copy OK

Track 6

Filename D:\#cdr\#wav+flac\Xênia França - Xenia\06. Xênia França - Interlúdio - Garganta.wav

Peak level 98.6 %
Extraction speed 5.6 X
Track quality 100.0 %
Test CRC 57298078
Copy CRC 57298078
Cannot be verified as accurate (confidence 2) [2513E585], AccurateRip returned [372F8491] (AR v2)
Copy OK

Track 7

Filename D:\#cdr\#wav+flac\Xênia França - Xenia\07. Xênia França - Respeitem Meus Cabelos Brancos.wav

Peak level 98.6 %
Extraction speed 5.8 X
Track quality 99.9 %
Test CRC F1E671DA
Copy CRC F1E671DA
Cannot be verified as accurate (confidence 2) [34C52F99], AccurateRip returned [92E1650A] (AR v2)
Copy OK

Track 8

Filename D:\#cdr\#wav+flac\Xênia França - Xenia\08. Xênia França - Perfeita Pra Você.wav

Peak level 98.6 %
Extraction speed 7.7 X
Track quality 100.0 %
Test CRC 282324CA
Copy CRC 282324CA
Cannot be verified as accurate (confidence 2) [C0A11B12], AccurateRip returned [DA249917] (AR v2)
Copy OK

Track 9

Filename D:\#cdr\#wav+flac\Xênia França - Xenia\09. Xênia França - Tereza Guerreira.wav

Peak level 98.6 %
Extraction speed 7.9 X
Track quality 100.0 %
Test CRC 15E80BFC
Copy CRC 15E80BFC
Cannot be verified as accurate (confidence 2) [D3768A19], AccurateRip returned [12C3437F] (AR v2)
Copy OK

Track 10

Filename D:\#cdr\#wav+flac\Xênia França - Xenia\10. Xênia França - Destino.wav

Peak level 98.6 %
Extraction speed 6.3 X
Track quality 99.9 %
Test CRC DCAA3FB1
Copy CRC DCAA3FB1
Cannot be verified as accurate (confidence 2) [28C488EE], AccurateRip returned [2E5B41F9] (AR v2)
Copy OK

Track 11

Filename D:\#cdr\#wav+flac\Xênia França - Xenia\11. Xênia França - Reach The Stars.wav

Peak level 98.6 %
Extraction speed 7.4 X
Track quality 99.9 %
Test CRC EB5B7F7D
Copy CRC EB5B7F7D
Cannot be verified as accurate (confidence 2) [31BBC1E0], AccurateRip returned [5B14F6BC] (AR v2)
Copy OK

Track 12

Filename D:\#cdr\#wav+flac\Xênia França - Xenia\12. Xênia França - Nave.wav

Peak level 98.6 %
Extraction speed 8.5 X
Track quality 100.0 %
Test CRC EE17B46A
Copy CRC EE17B46A
Cannot be verified as accurate (confidence 2) [E634121E], AccurateRip returned [779E6C00] (AR v2)
Copy OK

Track 13

Filename D:\#cdr\#wav+flac\Xênia França - Xenia\13. Xênia França - Breu.wav

Peak level 98.6 %
Extraction speed 8.7 X
Track quality 100.0 %
Test CRC 8FB66948
Copy CRC 8FB66948
Cannot be verified as accurate (confidence 2) [811BC430], AccurateRip returned [25683814] (AR v2)
Copy OK


No tracks could be verified as accurate
You may have a different pressing from the one(s) in the database

No errors occurred

End of status report

–– CUETools DB Plugin V2.1.6

[CTDB TOCID: k6KhYRdDM6v7tpml0TDXPhy4LZM-] found
Submit result: k6KhYRdDM6v7tpml0TDXPhy4LZM- has been confirmed
Track | CTDB Status
1 | (4/4) Accurately ripped
2 | (4/4) Accurately ripped
3 | (4/4) Accurately ripped
4 | (4/4) Accurately ripped
5 | (4/4) Accurately ripped
6 | (4/4) Accurately ripped
7 | (4/4) Accurately ripped
8 | (4/4) Accurately ripped
9 | (4/4) Accurately ripped
10 | (4/4) Accurately ripped
11 | (4/4) Accurately ripped
12 | (4/4) Accurately ripped
13 | (4/4) Accurately ripped


==== Log checksum E1DFA9F26EC2A87D3562D28ABB51888A7EBA462CB7B1FE165DD88259DDD2B3A2 ====

––––––––––––––––––––––––––––––

Exact Audio Copy V1.3 from 2. September 2016

EAC extraction logfile from 10. November 2019, 17:56

Xênia França / Xenia

Used drive : PLEXTOR PX-891SAF Adapter: 1 ID: 0

Read mode : Secure
Utilize accurate stream : Yes
Defeat audio cache : Yes
Make use of C2 pointers : No

Read offset correction : 6
Overread into Lead-In and Lead-Out : No
Fill up missing offset samples with silence : Yes
Delete leading and trailing silent blocks : No
Null samples used in CRC calculations : Yes
Used interface : Native Win32 interface for Win NT & 2000
Gap handling : Appended to previous track

Used output format : User Defined Encoder
Selected bitrate : 1024 kBit/s
Quality : High
Add ID3 tag : No
Command line compressor : C:\Program Files (x86)\Exact Audio Copy\Flac\flac.exe
Additional command line options : -8 -V -T "ARTIST=%artist%" -T "TITLE=%title%" -T "ALBUM=%albumtitle%" -T "DATE=%year%" -T "TRACKNUMBER=%tracknr%" -T "GENRE=%genre%" -T "PERFORMER=%albuminterpret%" -T "COMPOSER=%composer%" %haslyrics%–tag-from-file=LYRICS="%lyricsfile%"%haslyrics% -T "ALBUMARTIST=%albumartist%" -T "DISCNUMBER=%cdnumber%" -T "TOTALDISCS=%totalcds%" -T "TOTALTRACKS=%numtracks%" -T "COMMENT=%comment%" %source% -o %dest%


TOC of the extracted CD

Track | Start | Length | Start sector | End sector
––––––––––––––––––––––––––––-
1 | 0:00.00 | 4:43.57 | 0 | 21281
2 | 4:43.57 | 3:00.00 | 21282 | 34781
3 | 7:43.57 | 3:13.21 | 34782 | 49277
4 | 10:57.03 | 3:51.10 | 49278 | 66612
5 | 14:48.13 | 4:40.24 | 66613 | 87636
6 | 19:28.37 | 1:23.37 | 87637 | 93898
7 | 20:51.74 | 3:39.57 | 93899 | 110380
8 | 24:31.56 | 4:28.35 | 110381 | 130515
9 | 29:00.16 | 3:43.38 | 130516 | 147278
10 | 32:43.54 | 3:12.17 | 147279 | 161695
11 | 35:55.71 | 4:42.40 | 161696 | 182885
12 | 40:38.36 | 3:14.24 | 182886 | 197459
13 | 43:52.60 | 3:33.31 | 197460 | 213465


Track 1

Filename D:\#cdr\#wav+flac\Xênia França - Xenia\01. Xênia França - Pra Que Me Chamas.wav

Pre-gap length 0:00:02.00

Peak level 98.6 %
Extraction speed 5.1 X
Track quality 100.0 %
Test CRC D61C7C7A
Copy CRC D61C7C7A
Cannot be verified as accurate (confidence 2) [3D4C7488], AccurateRip returned [C87F2486] (AR v2)
Copy OK

Track 2

Filename D:\#cdr\#wav+flac\Xênia França - Xenia\02. Xênia França - Preta Yayá.wav

Peak level 98.6 %
Extraction speed 5.3 X
Track quality 100.0 %
Test CRC BFF5019E
Copy CRC BFF5019E
Cannot be verified as accurate (confidence 2) [5E3B93A6], AccurateRip returned [A2A52F19] (AR v2)
Copy OK

Track 3

Filename D:\#cdr\#wav+flac\Xênia França - Xenia\03. Xênia França - Minha História.wav

Peak level 98.6 %
Extraction speed 5.7 X
Track quality 100.0 %
Test CRC 6E75DD9B
Copy CRC 6E75DD9B
Cannot be verified as accurate (confidence 2) [F81E2CA0], AccurateRip returned [027545C4] (AR v2)
Copy OK

Track 4

Filename D:\#cdr\#wav+flac\Xênia França - Xenia\04. Xênia França - Miragem (Sem Razão).wav

Peak level 98.6 %
Extraction speed 6.3 X
Track quality 100.0 %
Test CRC 5C4C3D8B
Copy CRC 5C4C3D8B
Cannot be verified as accurate (confidence 2) [348B966C], AccurateRip returned [CAF266F2] (AR v2)
Copy OK

Track 5

Filename D:\#cdr\#wav+flac\Xênia França - Xenia\05. Xênia França - Do Alto.wav

Peak level 98.6 %
Extraction speed 6.8 X
Track quality 100.0 %
Test CRC 213BAA68
Copy CRC 213BAA68
Cannot be verified as accurate (confidence 2) [969D6CC1], AccurateRip returned [4D781F72] (AR v2)
Copy OK

Track 6

Filename D:\#cdr\#wav+flac\Xênia França - Xenia\06. Xênia França - Interlúdio - Garganta.wav

Peak level 98.6 %
Extraction speed 5.6 X
Track quality 100.0 %
Test CRC 57298078
Copy CRC 57298078
Cannot be verified as accurate (confidence 2) [2513E585], AccurateRip returned [372F8491] (AR v2)
Copy OK

Track 7

Filename D:\#cdr\#wav+flac\Xênia França - Xenia\07. Xênia França - Respeitem Meus Cabelos Brancos.wav

Peak level 98.6 %
Extraction speed 5.8 X
Track quality 99.9 %
Test CRC F1E671DA
Copy CRC F1E671DA
Cannot be verified as accurate (confidence 2) [34C52F99], AccurateRip returned [92E1650A] (AR v2)
Copy OK

Track 8

Filename D:\#cdr\#wav+flac\Xênia França - Xenia\08. Xênia França - Perfeita Pra Você.wav

Peak level 98.6 %
Extraction speed 7.7 X
Track quality 100.0 %
Test CRC 282324CA
Copy CRC 282324CA
Cannot be verified as accurate (confidence 2) [C0A11B12], AccurateRip returned [DA249917] (AR v2)
Copy OK

Track 9

Filename D:\#cdr\#wav+flac\Xênia França - Xenia\09. Xênia França - Tereza Guerreira.wav

Peak level 98.6 %
Extraction speed 7.9 X
Track quality 100.0 %
Test CRC 15E80BFC
Copy CRC 15E80BFC
Cannot be verified as accurate (confidence 2) [D3768A19], AccurateRip returned [12C3437F] (AR v2)
Copy OK

Track 10

Filename D:\#cdr\#wav+flac\Xênia França - Xenia\10. Xênia França - Destino.wav

Peak level 98.6 %
Extraction speed 6.3 X
Track quality 99.9 %
Test CRC DCAA3FB1
Copy CRC DCAA3FB1
Cannot be verified as accurate (confidence 2) [28C488EE], AccurateRip returned [2E5B41F9] (AR v2)
Copy OK

Track 11

Filename D:\#cdr\#wav+flac\Xênia França - Xenia\11. Xênia França - Reach The Stars.wav

Peak level 98.6 %
Extraction speed 7.4 X
Track quality 99.9 %
Test CRC EB5B7F7D
Copy CRC EB5B7F7D
Cannot be verified as accurate (confidence 2) [31BBC1E0], AccurateRip returned [5B14F6BC] (AR v2)
Copy OK

Track 12

Filename D:\#cdr\#wav+flac\Xênia França - Xenia\12. Xênia França - Nave.wav

Peak level 98.6 %
Extraction speed 8.5 X
Track quality 100.0 %
Test CRC EE17B46A
Copy CRC EE17B46A
Cannot be verified as accurate (confidence 2) [E634121E], AccurateRip returned [779E6C00] (AR v2)
Copy OK

Track 13

Filename D:\#cdr\#wav+flac\Xênia França - Xenia\13. Xênia França - Breu.wav

Peak level 98.6 %
Extraction speed 8.7 X
Track quality 100.0 %
Test CRC 8FB66948
Copy CRC 8FB66948
Cannot be verified as accurate (confidence 2) [811BC430], AccurateRip returned [25683814] (AR v2)
Copy OK


No tracks could be verified as accurate
You may have a different pressing from the one(s) in the database

No errors occurred

End of status report

–– CUETools DB Plugin V2.1.6

[CTDB TOCID: k6KhYRdDM6v7tpml0TDXPhy4LZM-] found
Submit result: k6KhYRdDM6v7tpml0TDXPhy4LZM- has been confirmed
Track | CTDB Status
1 | (4/4) Accurately ripped
2 | (4/4) Accurately ripped
3 | (4/4) Accurately ripped
4 | (4/4) Accurately ripped
5 | (4/4) Accurately ripped
6 | (4/4) Accurately ripped
7 | (4/4) Accurately ripped
8 | (4/4) Accurately ripped
9 | (4/4) Accurately ripped
10 | (4/4) Accurately ripped
11 | (4/4) Accurately ripped
12 | (4/4) Accurately ripped
13 | (4/4) Accurately ripped


==== Log checksum E1DFA9F26EC2A87D3562D28ABB51888A7EBA462CB7B1FE165DD88259DDD2B3A2 ====

Xênia França - Xenia (2017) {Agogo Cultural}


Thanks to the original ripper