Subcategories
Tags
Language
Tags

Franco Battiato - 3 Studio Albums (1972-1974) [Reissue 1998]

Posted By: gribovar
Franco Battiato - 3 Studio Albums (1972-1974) [Reissue 1998]

Franco Battiato - 3 Studio Albums (1972-1974) [Reissue 1998]
EAC Rip | FLAC (image+.cue+log) - 499 MB | MP3 CBR 320 kbps (LAME 3.93) - 246 MB | Covers included
Genre: Progressive Rock, Progressive Electronic | RAR 3% Rec. | Label: BMG Ricordi S.p.A.

Franco Battiato is one of the most successful singers in Italy. He began his career as a "light" singer, recording a few singles. In 1971 he started his particular journey through experimental music, recording his proggiest issues: "Fetus", "Pollution", "Sulle corde di Aries". Some very atmospheric parts and some very melodic songs make these records worthwhile, along with musical references to the arabic culture and italian folk that will surface from time to time in all of his following output. His next records are gradually more and more experimental, exploring minimalism and culminating with "L' Egitto prime delle Sabbie", with two long pieces based on hardly one note and its harmonics.

Franco Battiato - 3 Studio Albums (1972-1974) [Reissue 1998]

Franco Battiato - Pollution (1972) [Reissue 1998]
EAC Rip | FLAC (image+.cue+log) - 176 MB | MP3 CBR 320 kbps (LAME 3.93) - 84 MB | Covers (6 mb) included
Genre: Progressive Rock | RAR 3% Rec. | Label: BMG Ricordi S.p.A. (74321585542)

Tracklist:
01. Il Silenzio Del Rumore
02. 31 Dicembre 1999 - Ore
03. Areknames
04. Beta
05. Plancton
06. Pollution
07. Ti Sei Mai Chiesto Quale Funzione Hai?

Total time: 33:07

Exact Audio Copy V0.99 prebeta 4 from 23. January 2008

EAC extraction logfile from 3. March 2012, 20:59

Franco Battiato / Pollution

Used drive : Optiarc DVD RW AD-7170S Adapter: 1 ID: 0

Read mode : Secure
Utilize accurate stream : Yes
Defeat audio cache : Yes
Make use of C2 pointers : No

Read offset correction : 48
Overread into Lead-In and Lead-Out : No
Fill up missing offset samples with silence : Yes
Delete leading and trailing silent blocks : No
Null samples used in CRC calculations : Yes
Used interface : Native Win32 interface for Win NT & 2000

Used output format : User Defined Encoder
Selected bitrate : 128 kBit/s
Quality : High
Add ID3 tag : No
Command line compressor : G:\Program Files\Exact Audio Copy\Flac\flac.exe
Additional command line options : -8 -V %s


TOC of the extracted CD

Track | Start | Length | Start sector | End sector
––––––––––––––––––––––––––––-
1 | 0:00.00 | 2:48.35 | 0 | 12634
2 | 2:48.35 | 0:20.05 | 12635 | 14139
3 | 3:08.40 | 5:07.25 | 14140 | 37189
4 | 8:15.65 | 7:24.45 | 37190 | 70534
5 | 15:40.35 | 5:03.07 | 70535 | 93266
6 | 20:43.42 | 8:49.10 | 93267 | 132951
7 | 29:32.52 | 3:34.23 | 132952 | 149024


Range status and errors

Selected range

Filename D:\terr83\Franco Battiato - Pollution 1972\CDImage.wav

Peak level 96.3 %
Range quality 100.0 %
Test CRC CB0DB3B4
Copy CRC CB0DB3B4
Copy OK

No errors occurred


AccurateRip summary

Track 1 accurately ripped (confidence 4) [2A3B5110]
Track 2 accurately ripped (confidence 4) [0B178D85]
Track 3 accurately ripped (confidence 4) [D03DC732]
Track 4 accurately ripped (confidence 4) [2E80003C]
Track 5 accurately ripped (confidence 4) [133B20C0]
Track 6 accurately ripped (confidence 4) [D115AC14]
Track 7 accurately ripped (confidence 4) [1EE0C10E]

All tracks accurately ripped

End of status report

[CUETools log; Date: 15.04.2020 2:05:12; Version: 2.1.4]
[CTDB TOCID: CF.Ysu8ytTwfgkPc.hadzC0GEiI-] found.
Track | CTDB Status
1 | (78/79) Accurately ripped
2 | (78/79) Accurately ripped
3 | (77/79) Accurately ripped
4 | (77/79) Accurately ripped
5 | (77/79) Accurately ripped
6 | (78/79) Accurately ripped
7 | (78/79) Accurately ripped
[AccurateRip ID: 0007c730-00319d88-5607c307] found.
Track [ CRC | V2 ] Status
01 [2a3b5110|61f4d930] (05+14/42) Accurately ripped
02 [0b178d85|663da1aa] (05+14/42) Accurately ripped
03 [d03dc732|3374aa1e] (05+14/42) Accurately ripped
04 [2e80003c|d65ac302] (05+14/42) Accurately ripped
05 [133b20c0|ac200192] (05+14/42) Accurately ripped
06 [d115ac14|cb70ad98] (05+14/42) Accurately ripped
07 [1ee0c10e|4fd96ff1] (05+14/42) Accurately ripped
Offsetted by 29:
01 [459469fe] (08/42) Accurately ripped
02 [460b33d7] (08/42) Accurately ripped
03 [e99eeda7] (08/42) Accurately ripped
04 [02c3630c] (08/42) Accurately ripped
05 [8d1d2eac] (08/42) Accurately ripped
06 [ba416f38] (08/42) Accurately ripped
07 [264da0ec] (08/42) Accurately ripped
Offsetted by -30:
01 [9bcdcb42] (00/42) No match (V2 was not tested)
02 [84fb613b] (00/42) No match (V2 was not tested)
03 [3af282f5] (00/42) No match (V2 was not tested)
04 [c717bac0] (00/42) No match (V2 was not tested)
05 [b9675836] (00/42) No match (V2 was not tested)
06 [ec71d0ff] (00/42) No match (V2 was not tested)
07 [6a1202c3] (00/42) No match (V2 was not tested)

Track Peak [ CRC32 ] [W/O NULL] [ LOG ]
– 96,3 [CB0DB3B4] [77C78274] CRC32
01 95,6 [8784EC71] [7598D20F]
02 88,8 [34C6A0F1] [C6014AA5]
03 78,7 [1857D20F] [B045F69A]
04 84,1 [7270F52F] [474F1BB4]
05 96,3 [FB875B29] [735DFAF1]
06 90,0 [CFFF66FE] [BC12CE2A]
07 68,8 [DF6BE140] [C96FBCEC]

Franco Battiato - 3 Studio Albums (1972-1974) [Reissue 1998]

Franco Battiato - Sulle Corde di Aries (1973) [Reissue 1998]
EAC Rip | FLAC (image+.cue+log) - 176 MB | MP3 CBR 320 kbps (LAME 3.93) - 83 MB | Covers (4 mb) included
Genre: Progressive Rock, Progressive Electronic | RAR 3% Rec. | Label: BMG Ricordi S.p.A. (74321585552)

Tracklist:
01. Sequenze e Frequenze
02. Aries
03. Aria di Rivoluzione
04. Da Oriente ad Occidente

Total time: 33:24

Exact Audio Copy V0.99 prebeta 4 from 23. January 2008

EAC extraction logfile from 3. March 2012, 21:32

Franco Battiato / Sulle Corde di Aries

Used drive : Optiarc DVD RW AD-7170S Adapter: 1 ID: 0

Read mode : Secure
Utilize accurate stream : Yes
Defeat audio cache : Yes
Make use of C2 pointers : No

Read offset correction : 48
Overread into Lead-In and Lead-Out : No
Fill up missing offset samples with silence : Yes
Delete leading and trailing silent blocks : No
Null samples used in CRC calculations : Yes
Used interface : Native Win32 interface for Win NT & 2000

Used output format : User Defined Encoder
Selected bitrate : 128 kBit/s
Quality : High
Add ID3 tag : No
Command line compressor : G:\Program Files\Exact Audio Copy\Flac\flac.exe
Additional command line options : -8 -V %s


TOC of the extracted CD

Track | Start | Length | Start sector | End sector
––––––––––––––––––––––––––––-
1 | 0:00.00 | 16:22.00 | 0 | 73649
2 | 16:22.00 | 5:27.00 | 73650 | 98174
3 | 21:49.00 | 5:02.00 | 98175 | 120824
4 | 26:51.00 | 6:33.00 | 120825 | 150299


Range status and errors

Selected range

Filename D:\terr83\Franco Battiato - Sulle Corde di Aries 1974\CDImage.wav

Peak level 97.7 %
Range quality 99.9 %
Test CRC FC747E6A
Copy CRC FC747E6A
Copy OK

No errors occurred


AccurateRip summary

Track 1 accurately ripped (confidence 3) [DAD144B0]
Track 2 accurately ripped (confidence 3) [1023EDEF]
Track 3 accurately ripped (confidence 3) [F4495B6D]
Track 4 accurately ripped (confidence 3) [54DDBE9D]

All tracks accurately ripped

End of status report

[CUETools log; Date: 15.04.2020 2:06:54; Version: 2.1.4]
[CTDB TOCID: TivKMOPlX.VCIhoSecM5RPLax_w-] found.
Track | CTDB Status
1 | (72/73) Accurately ripped
2 | (72/73) Accurately ripped
3 | (72/73) Accurately ripped
4 | (71/73) Accurately ripped
[AccurateRip ID: 0006c246-00199552-2807d404] found.
Track [ CRC | V2 ] Status
01 [dad144b0|ae1a2556] (04+13/41) Accurately ripped
02 [1023edef|d8040478] (04+13/41) Accurately ripped
03 [f4495b6d|de776023] (04+13/41) Accurately ripped
04 [54ddbe9d|ae49f56e] (04+13/40) Accurately ripped
Offsetted by 628:
01 [cac5fbc9] (06/41) Accurately ripped
02 [dc21e6ff] (06/41) Accurately ripped
03 [38b64465] (06/41) Accurately ripped
04 [be7334f3] (05/40) Accurately ripped
Offsetted by -30:
01 [db230624] (00/41) No match (V2 was not tested)
02 [571bdf97] (00/41) No match (V2 was not tested)
03 [1b69a859] (00/41) No match (V2 was not tested)
04 [b19190cb] (00/40) No match (V2 was not tested)
Offsetted by 610:
01 [b3543ae3] (00/41) No match (V2 was not tested)
02 [6d1d1197] (00/41) No match (V2 was not tested)
03 [83633f59] (00/41) No match (V2 was not tested)
04 [aa1526d2] (00/40) No match (V2 was not tested)

Track Peak [ CRC32 ] [W/O NULL] [ LOG ]
– 97,7 [FC747E6A] [BC652510] CRC32
01 91,9 [A5DDAC75] [A0265B98]
02 97,4 [611134C1] [97855301]
03 94,1 [542A7C1E] [A0236A71]
04 97,7 [C99296FA] [E25AF40A]

Franco Battiato - 3 Studio Albums (1972-1974) [Reissue 1998]

Franco Battiato - Clic (1974) [Reissue 1998]
EAC Rip | FLAC (image+.cue+log) - 147 MB | MP3 CBR 320 kbps (LAME 3.93) - 79 MB | Covers (3 mb) included
Genre: Progressive Rock, Progressive Electronic | RAR 3% Rec. | Label: BMG Ricordi S.p.A. (74321585512)

Tracklist:
01. I Cancelli Della Memoria
02. No U Turn
03. Il Mercato Degli Dei
04. Rien Ne Va Plus
05. Propiedad Prohibida
06. Nel Cantiere Di Un'infanzia
07. Ethika Fon Ethica

Total time: 32:05

Exact Audio Copy V0.99 prebeta 4 from 23. January 2008

EAC extraction logfile from 3. March 2012, 22:57

Franco Battiato / Clic

Used drive : Optiarc DVD RW AD-7170S Adapter: 1 ID: 0

Read mode : Secure
Utilize accurate stream : Yes
Defeat audio cache : Yes
Make use of C2 pointers : No

Read offset correction : 48
Overread into Lead-In and Lead-Out : No
Fill up missing offset samples with silence : Yes
Delete leading and trailing silent blocks : No
Null samples used in CRC calculations : Yes
Used interface : Native Win32 interface for Win NT & 2000

Used output format : User Defined Encoder
Selected bitrate : 128 kBit/s
Quality : High
Add ID3 tag : No
Command line compressor : G:\Program Files\Exact Audio Copy\Flac\flac.exe
Additional command line options : -8 -V %s


TOC of the extracted CD

Track | Start | Length | Start sector | End sector
––––––––––––––––––––––––––––-
1 | 0:00.00 | 6:11.00 | 0 | 27824
2 | 6:11.00 | 4:53.00 | 27825 | 49799
3 | 11:04.00 | 4:30.00 | 49800 | 70049
4 | 15:34.00 | 2:44.00 | 70050 | 82349
5 | 18:18.00 | 5:22.00 | 82350 | 106499
6 | 23:40.00 | 4:33.00 | 106500 | 126974
7 | 28:13.00 | 3:52.00 | 126975 | 144374


Range status and errors

Selected range

Filename D:\terr83\Franco Battiato - Clic 1974\CDImage.wav

Peak level 99.2 %
Range quality 99.9 %
Test CRC 9D51E318
Copy CRC 9D51E318
Copy OK

No errors occurred


AccurateRip summary

Track 1 cannot be verified as accurate (confidence 5) [06278E12], AccurateRip returned [27E0C9C4]
Track 2 cannot be verified as accurate (confidence 5) [03FEF8E4], AccurateRip returned [54D72514]
Track 3 cannot be verified as accurate (confidence 5) [B19553D5], AccurateRip returned [667F34E5]
Track 4 cannot be verified as accurate (confidence 5) [C3FB71CE], AccurateRip returned [9E47B456]
Track 5 cannot be verified as accurate (confidence 5) [986AAA02], AccurateRip returned [22FFB64E]
Track 6 cannot be verified as accurate (confidence 5) [CF950323], AccurateRip returned [268119EB]
Track 7 cannot be verified as accurate (confidence 5) [203A4C94], AccurateRip returned [A278AFF0]

No tracks could be verified as accurate
You may have a different pressing from the one(s) in the database

End of status report

[CUETools log; Date: 15.04.2020 2:08:55; Version: 2.1.4]
[CTDB TOCID: JaMrrctxlaWSkJQtaKsXjum0Y9Q-] found.
Track | CTDB Status
1 | (48/48) Accurately ripped
2 | (48/48) Accurately ripped
3 | (48/48) Accurately ripped
4 | (48/48) Accurately ripped
5 | (48/48) Accurately ripped
6 | (47/48) Accurately ripped
7 | (48/48) Accurately ripped
[AccurateRip ID: 00094683-00369fb2-53078507] found.
Track [ CRC | V2 ] Status
01 [06278e12|caa9d543] (00+10/25) Accurately ripped
02 [03fef8e4|7d2ce812] (00+10/25) Accurately ripped
03 [b19553d5|1a1561fe] (00+10/25) Accurately ripped
04 [c3fb71ce|a5b86ba1] (00+10/25) Accurately ripped
05 [986aaa02|4813b8f4] (00+10/25) Accurately ripped
06 [cf950323|02bc95ec] (00+10/25) Accurately ripped
07 [203a4c94|846e5426] (00+10/25) Accurately ripped
Offsetted by 628:
01 [27e0c9c4] (05/25) Accurately ripped
02 [54d72514] (05/25) Accurately ripped
03 [667f34e5] (05/25) Accurately ripped
04 [9e47b456] (05/25) Accurately ripped
05 [22ffb64e] (05/25) Accurately ripped
06 [268119eb] (05/25) Accurately ripped
07 [a278aff0] (05/25) Accurately ripped
Offsetted by 598:
01 [9fbe8757] (00/25) No match (V2 was not tested)
02 [2debcc8c] (00/25) No match (V2 was not tested)
03 [92086a8d] (00/25) No match (V2 was not tested)
04 [63bffc2a] (00/25) No match (V2 was not tested)
05 [60dcdf4c] (00/25) No match (V2 was not tested)
06 [fdaa005f] (00/25) No match (V2 was not tested)
07 [5551d596] (00/25) No match (V2 was not tested)

Track Peak [ CRC32 ] [W/O NULL] [ LOG ]
– 99,2 [9D51E318] [822582A4] CRC32
01 99,2 [E35F79A1] [840BE7DD]
02 99,2 [6F56210C] [29204330]
03 88,3 [406E8AE1] [0288E0BA]
04 99,2 [DF08E732] [F836C8A5]
05 99,2 [3621B9DD] [BF5C23C8]
06 90,8 [AEB2887A] [C7B42CED]
07 99,2 [5C77E422] [D7007D96]

Thanks to terr83

See also:
Franco Battiato - L'Era Del Cinghiale Bianco (1979) [Reissue 2008]
Franco Battiato - Patriots (1980) [Reissue 2008]
Franco Battiato - Come Un Camm...Grondaia (1991) [Reissue 2008]