Subcategories
Tags
Language
Tags

Frank Marino & Mahogany Rush - World Anthem (1977) {1998, Reissue}

Posted By: popsakov
Frank Marino & Mahogany Rush - World Anthem (1977) {1998, Reissue}

Frank Marino & Mahogany Rush - World Anthem (1977) {1998, Reissue}
EAC Rip | FLAC (Img) + Cue + Log ~ 321 Mb | MP3 CBR320 ~ 118 Mb
Scans Included (JPG, 600 dpi) | RAR 5% Recovery
Hard Rock, Progressive Rock, Psychedelic Rock | Columbia #489445 2

This Canadian rock group started around 1970, simply known as Mahogany Rush. Frank Marino was added to the title later. Marino served as the lead singer, guitarist, and percussionist. Other members were bass guitarist Paul Harwood and drummer Jimmy Ayoub. In the early '80s, rhythm guitarist Vince Marino, Frank's brother, was added to the lineup. A couple of years after that, Ayoub walked, and drummer Tim Biery stepped in to replace him. Mahogany Rush released its debut album in 1973. It was the first of more than a dozen full-length recordings the group completed over the next two-plus decades.

The leader of Mahogany Rush, Frank Marino, was born in Montreal, Quebec in the winter of 1954. He had a troubled childhood. As a young teen, deep into drugs like LSD, Marino indulged too much, and found himself hospitalized. He had always loved psychedelic and hard rock music, like that of Jimi Hendrix, and time in the hospital, with a clear head, gave him a chance to really listen and hear the music. As part of his recovery, he was offered the chance to use a musical instrument. He was a drummer, but since none were available, he picked up a guitar. Over the next couple of months, Marino taught himself to play, and to do so amazingly well.

Fresh out of hospital, and trying to keep his thoughts off drugs, Marino pulled together some friends and formed a band that hopped around doing small gigs where and when they could. Many members came and went before Marino found the right fit with Ayoub and Harwood. That was when the true Mahogany Rush was born.

After a couple of years of seeming to get nowhere fast – or at all – the band finally recorded a debut album, Maxoom, released under the Kot'Ai Records label in 1973, when Marino was only 17. Between then and 1976, the group finished three more albums, Child of the Novelty, Strange Universe, and a self-titled offering. That latter appeared under a new label, the major Columbia Records. The next year the band lengthened its name to Frank Marino and Mahogany Rush. It stayed under contract with Columbia into the '80s, recording a number of albums, including World Anthem, Tales of the Unexpected, What's Next, The Power of Rock 'N Roll, and Juggernaut.

Around the middle of the '80s, the group landed a deal with Maze Records. The result was the album Double Live. Marino also recorded a solo album, Full Circle, under the label. Around that same time, Frank Marino and Mahogany Rush seemed to have called it quits, at least for that decade.

In 1995, Big Beat Records put together three of the group's early albums onto a two-CD set. A best-of album followed a year later, bringing back old fans, and growing a brand new batch to go with them. In 2000, the group recorded an independent release, Eye of the Storm.
~ Charlotte Dillon, All Music

***************

Frank Marino & Mahogany Rush - World Anthem (1977) {1998, Reissue}

Frank Marino & Mahogany Rush - World Anthem (1977) {1998, Reissue}

Track List:

01. Requiem for a Sinner [6:02]
02. Hey, Little Lover [4:51]
03. Broken Heart Blues [4:52]
04. In My Ways [6:13]
05. The World Anthem [3:10]
06. Look at Me [4:06]
07. Lady [4:38]
08. Try for Freedom [11:28]

Exact Audio Copy V1.3 from 2. September 2016

EAC extraction logfile from 18. December 2017, 17:30

Frank Marino & Mahogany Rush / World Anthem

Used drive : TSSTcorpCDDVDW TS-L633B Adapter: 1 ID: 0

Read mode : Secure
Utilize accurate stream : Yes
Defeat audio cache : Yes
Make use of C2 pointers : No

Read offset correction : 6
Overread into Lead-In and Lead-Out : No
Fill up missing offset samples with silence : Yes
Delete leading and trailing silent blocks : No
Null samples used in CRC calculations : Yes
Used interface : Native Win32 interface for Win NT & 2000

Used output format : Internal WAV Routines
Sample format : 44.100 Hz; 16 Bit; Stereo


TOC of the extracted CD

Track | Start | Length | Start sector | End sector
––––––––––––––––––––––––––––-
1 | 0:00.00 | 6:01.60 | 0 | 27134
2 | 6:01.60 | 4:50.52 | 27135 | 48936
3 | 10:52.37 | 4:52.03 | 48937 | 70839
4 | 15:44.40 | 6:13.25 | 70840 | 98839
5 | 21:57.65 | 3:09.40 | 98840 | 113054
6 | 25:07.30 | 4:06.35 | 113055 | 131539
7 | 29:13.65 | 4:38.00 | 131540 | 152389
8 | 33:51.65 | 11:27.65 | 152390 | 203979


Range status and errors

Selected range

Filename F:\Alexharvey\Frank Marino & Mahogany Rush - World Anthem.wav

Peak level 98.2 %
Extraction speed 2.3 X
Range quality 99.9 %
Test CRC 4F4149B1
Copy CRC 4F4149B1
Copy OK

No errors occurred


AccurateRip summary

Track 1 cannot be verified as accurate (confidence 14) [98DF9BA1], AccurateRip returned [CEA2E133] (AR v2)
Track 2 cannot be verified as accurate (confidence 14) [024DA35B], AccurateRip returned [0E8B6273] (AR v2)
Track 3 cannot be verified as accurate (confidence 14) [42194146], AccurateRip returned [68EF5651] (AR v2)
Track 4 cannot be verified as accurate (confidence 14) [79A8965C], AccurateRip returned [2A3231FB] (AR v2)
Track 5 cannot be verified as accurate (confidence 14) [17C909FE], AccurateRip returned [97695294] (AR v2)
Track 6 cannot be verified as accurate (confidence 14) [62D9491C], AccurateRip returned [D34B94C8] (AR v2)
Track 7 cannot be verified as accurate (confidence 15) [2E6B2ECF], AccurateRip returned [52A16C52] (AR v2)
Track 8 cannot be verified as accurate (confidence 15) [86E0AF7F], AccurateRip returned [7B648218] (AR v2)

No tracks could be verified as accurate
You may have a different pressing from the one(s) in the database

End of status report

–– CUETools DB Plugin V2.1.6

[CTDB TOCID: EJYfLXm1H9ugiVu_4f1VtFPokJw-] found
Submit result: EJYfLXm1H9ugiVu_4f1VtFPokJw- has been confirmed
Track | CTDB Status
1 | (17/17) Accurately ripped
2 | (17/17) Accurately ripped
3 | (17/17) Accurately ripped
4 | (17/17) Accurately ripped
5 | (17/17) Accurately ripped
6 | (17/17) Accurately ripped
7 | (17/17) Accurately ripped
8 | (17/17) Accurately ripped


==== Log checksum 2CD7F5A080C74DE2056A4E3A56B7C6564596592C01A22430686F4576559B7793 ====

foobar2000 1.3.16 / Dynamic Range Meter 1.1.1
log date: 2017-12-18 23:21:51

––––––––––––––––––––––––––––––––––––––––
Analyzed: Frank Marino & Mahogany Rush / World Anthem
––––––––––––––––––––––––––––––––––––––––

DR Peak RMS Duration Track
––––––––––––––––––––––––––––––––––––––––
DR11 -0.15 dB -13.63 dB 6:02 01-Requiem for a Sinner
DR12 -0.20 dB -13.66 dB 4:51 02-Hey, Little Lover
DR11 -0.20 dB -13.46 dB 4:52 03-Broken Heart Blues
DR12 -0.20 dB -13.43 dB 6:13 04-In My Ways
DR11 -0.20 dB -12.83 dB 3:10 05-The World Anthem
DR13 -0.20 dB -14.93 dB 4:06 06-Look at Me
DR12 -0.20 dB -14.00 dB 4:38 07-Lady
DR12 -0.20 dB -13.11 dB 11:28 08-Try for Freedom
––––––––––––––––––––––––––––––––––––––––

Number of tracks: 8
Official DR value: DR12

Samplerate: 44100 Hz
Channels: 2
Bits per sample: 16
Bitrate: 913 kbps
Codec: FLAC
================================================================================

[CUETools log; Date: 18.12.2017 23:21:54; Version: 2.1.5]
[CTDB TOCID: EJYfLXm1H9ugiVu_4f1VtFPokJw-] found.
Track | CTDB Status
1 | (18/18) Accurately ripped
2 | (18/18) Accurately ripped
3 | (18/18) Accurately ripped
4 | (18/18) Accurately ripped
5 | (18/18) Accurately ripped
6 | (18/18) Accurately ripped
7 | (18/18) Accurately ripped
8 | (18/18) Accurately ripped
[AccurateRip ID: 000ceb7d-0055f2b4-670a9f08] found.
Track [ CRC | V2 ] Status
01 [53fbe53f|98df9ba1] (00+00/23) No match
02 [e61a5eb1|024da35b] (00+00/22) No match
03 [c5417c31|42194146] (00+00/22) No match
04 [378b7517|79a8965c] (00+00/22) No match
05 [f3512f3a|17c909fe] (00+00/22) No match
06 [e897a6e2|62d9491c] (00+00/22) No match
07 [b3bcfda8|2e6b2ecf] (00+00/23) No match
08 [94eb73ee|86e0af7f] (00+00/23) No match
Offsetted by 6:
01 [cea2e133] (14/23) Accurately ripped
02 [0e8b6273] (14/22) Accurately ripped
03 [68ef5651] (14/22) Accurately ripped
04 [2a3231fb] (14/22) Accurately ripped
05 [97695294] (14/22) Accurately ripped
06 [d34b94c8] (14/22) Accurately ripped
07 [52a16c52] (15/23) Accurately ripped
08 [7b648218] (15/23) Accurately ripped

Track Peak [ CRC32 ] [W/O NULL] [ LOG ]
– 98,2 [4F4149B1] [D3B7A761] CRC32
01 98,2 [BB047F2B] [70391752]
02 97,7 [7C1AD5D9] [EE6AE472]
03 97,7 [FFA61061] [BF8CFAF0]
04 97,7 [CF42F1CA] [9DDA81B6]
05 97,7 [8D850FC1] [818EC34B]
06 97,7 [64521779] [74F9BD0A]
07 97,7 [74A92293] [11CC30A7]
08 97,7 [C6A82A4A] [A320CB40]

Frank Marino & Mahogany Rush - World Anthem (1977) {1998, Reissue}

All thanks go to Alexharvey

>>> My Blog <<<

Download from icerbox.com: