Subcategories
Tags
Language
Tags

Frank Sinatra - Hello Frank: The Anniversary Collection (2015) {12CD Box Set}

Posted By: popsakov
Frank Sinatra - Hello Frank: The Anniversary Collection (2015) {12CD Box Set}

Frank Sinatra - Hello Frank: The Anniversary Collection (2015) {12CD Box Set}
EAC Rip | WavPack (Img) + Cue + Log ~ 2,59 Gb | MP3 CBR320 ~ 1,25 Gb
Scans Included | RAR 5% Recovery
Vocal Jazz, Swing, Traditional Pop, Standarts | Ermitage #ERM 900

By the end of 2015, exactly December 12, Frank Sinatra would have been 100 years old. An anniversary celebrated around the world for the first six months of 2016 with concerts, exhibitions, initiatives, records. The Hello Frank: The Anniversary Collection contains 12 CDs for a total of 170 songs including the most popular "I´ve got under my skin", "My funny Valentine", "Ol ´my river", "Blue skyes "," Sweet Lorraine "and many more.
***************

Frank Sinatra - Hello Frank: The Anniversary Collection (2015) {12CD Box Set}

Track List CD01 - Night And Day:

01. I've Got You Under My Skin [0:03:46.40]
02. My Funny Valentine [0:02:34.44]
03. Night And Day [0:04:01.18]
04. Nancy [0:03:14.29]
05. They Can't Take That Away From Me [0:01:58.72]
06. Over The Rainbow [0:03:19.45]
07. Come Fly With Me [0:03:20.08]
08. Angel Eyes [0:03:44.31]
09. PERSONALITY [0:02:20.65]
10. Where Or When [0:03:16.10]
11. That Old Black Magic [0:02:36.58]
12. Day By Day [0:03:10.66]
13. The Music Stopped [0:02:57.29]
14. The Moon Was Yellow [0:02:05.01]

Exact Audio Copy V1.2 from 12. August 2016

EAC extraction logfile from 29. January 2018, 9:32

Frank Sinatra / Hello Frank - Night And Day (CD1)

Used drive : HL-DT-STBD-RE BH10LS38 Adapter: 1 ID: 1

Read mode : Secure
Utilize accurate stream : Yes
Defeat audio cache : Yes
Make use of C2 pointers : No

Read offset correction : 667
Overread into Lead-In and Lead-Out : No
Fill up missing offset samples with silence : Yes
Delete leading and trailing silent blocks : No
Null samples used in CRC calculations : Yes
Used interface : Installed external ASPI interface

Used output format : User Defined Encoder
Selected bitrate : 128 kBit/s
Quality : High
Add ID3 tag : No
Command line compressor : C:\Program Files (x86)\Exact Audio Copy\wavpack-4.60.1\wavpack.exe
Additional command line options : -hm -w "Year=%year%" -w "Genre=%genre%" %source% %dest%


TOC of the extracted CD

Track | Start | Length | Start sector | End sector
––––––––––––––––––––––––––––-
1 | 0:00.00 | 3:46.40 | 0 | 16989
2 | 3:46.40 | 2:34.44 | 16990 | 28583
3 | 6:21.09 | 4:01.18 | 28584 | 46676
4 | 10:22.27 | 3:14.29 | 46677 | 61255
5 | 13:36.56 | 1:58.72 | 61256 | 70177
6 | 15:35.53 | 3:19.45 | 70178 | 85147
7 | 18:55.23 | 3:20.08 | 85148 | 100155
8 | 22:15.31 | 3:44.31 | 100156 | 116986
9 | 25:59.62 | 2:20.65 | 116987 | 127551
10 | 28:20.52 | 3:16.10 | 127552 | 142261
11 | 31:36.62 | 2:36.58 | 142262 | 154019
12 | 34:13.45 | 3:10.66 | 154020 | 168335
13 | 37:24.36 | 2:57.29 | 168336 | 181639
14 | 40:21.65 | 2:05.01 | 181640 | 191015


Range status and errors

Selected range

Filename G:\Rips by Alder\Frank Sinatra - Hello Frank - Night And Day (CD1).wav

Peak level 98.8 %
Extraction speed 7.1 X
Range quality 100.0 %
Test CRC 3D1BC71C
Copy CRC 3D1BC71C
Copy OK

No errors occurred


AccurateRip summary

Track 1 not present in database
Track 2 not present in database
Track 3 not present in database
Track 4 not present in database
Track 5 not present in database
Track 6 not present in database
Track 7 not present in database
Track 8 not present in database
Track 9 not present in database
Track 10 not present in database
Track 11 not present in database
Track 12 not present in database
Track 13 not present in database
Track 14 not present in database

None of the tracks are present in the AccurateRip database

End of status report

–– CUETools DB Plugin V2.1.6

[CTDB TOCID: C.MPiW4LFXR3LEmXpvwxKxZPA7A-] found
Submit result: C.MPiW4LFXR3LEmXpvwxKxZPA7A- has been confirmed
Track | CTDB Status
1 | (1/1) Accurately ripped
2 | (1/1) Accurately ripped
3 | (1/1) Accurately ripped
4 | (1/1) Accurately ripped
5 | (1/1) Accurately ripped
6 | (1/1) Accurately ripped
7 | (1/1) Accurately ripped
8 | (1/1) Accurately ripped
9 | (1/1) Accurately ripped
10 | (1/1) Accurately ripped
11 | (1/1) Accurately ripped
12 | (1/1) Accurately ripped
13 | (1/1) Accurately ripped
14 | (1/1) Accurately ripped


==== Log checksum 7E6945C0A001134571C7C304A7B973BBC51879676903D9F560BBC9B6B2D495D8 ====

Track List CD02 - None But the Lonely Heart:

01. Everybody Loves Somebody [0:03:16.04]
02. I Believe [0:03:04.00]
03. If I Loved You [0:03:08.74]
04. Saturday Night [0:02:44.39]
05. Ol` Man River [0:04:09.35]
06. All Of Me [0:02:45.53]
07. Young At Heart [0:02:53.39]
08. None But The Lonely Heart [0:03:26.66]
09. Blue Skies [0:02:33.08]
10. Just One Of Those Things [0:02:48.34]
11. Strange Music [0:03:23.54]
12. I`ve Got A Crush On You [0:03:18.33]
13. Take Me [0:02:59.64]
14. You`re Love [0:03:25.63]

Exact Audio Copy V1.2 from 12. August 2016

EAC extraction logfile from 29. January 2018, 10:18

Frank Sinatra / Hello Frank - None But the Lonely Heart (CD2)

Used drive : HL-DT-STBD-RE BH10LS38 Adapter: 1 ID: 1

Read mode : Secure
Utilize accurate stream : Yes
Defeat audio cache : Yes
Make use of C2 pointers : No

Read offset correction : 667
Overread into Lead-In and Lead-Out : No
Fill up missing offset samples with silence : Yes
Delete leading and trailing silent blocks : No
Null samples used in CRC calculations : Yes
Used interface : Installed external ASPI interface

Used output format : User Defined Encoder
Selected bitrate : 128 kBit/s
Quality : High
Add ID3 tag : No
Command line compressor : C:\Program Files (x86)\Exact Audio Copy\wavpack-4.60.1\wavpack.exe
Additional command line options : -hm -w "Year=%year%" -w "Genre=%genre%" %source% %dest%


TOC of the extracted CD

Track | Start | Length | Start sector | End sector
––––––––––––––––––––––––––––-
1 | 0:00.00 | 3:16.04 | 0 | 14703
2 | 3:16.04 | 3:04.00 | 14704 | 28503
3 | 6:20.04 | 3:08.74 | 28504 | 42677
4 | 9:29.03 | 2:44.39 | 42678 | 55016
5 | 12:13.42 | 4:09.35 | 55017 | 73726
6 | 16:23.02 | 2:45.53 | 73727 | 86154
7 | 19:08.55 | 2:53.39 | 86155 | 99168
8 | 22:02.19 | 3:26.66 | 99169 | 114684
9 | 25:29.10 | 2:33.08 | 114685 | 126167
10 | 28:02.18 | 2:48.34 | 126168 | 138801
11 | 30:50.52 | 3:23.54 | 138802 | 154080
12 | 34:14.31 | 3:18.33 | 154081 | 168963
13 | 37:32.64 | 2:59.64 | 168964 | 182452
14 | 40:32.53 | 3:25.63 | 182453 | 197890


Range status and errors

Selected range

Filename G:\Rips by Alder\Frank Sinatra - Hello Frank - None But the Lonely Heart (CD2).wav

Peak level 98.8 %
Extraction speed 7.1 X
Range quality 100.0 %
Test CRC FDA3C43D
Copy CRC FDA3C43D
Copy OK

No errors occurred


AccurateRip summary

Track 1 not present in database
Track 2 not present in database
Track 3 not present in database
Track 4 not present in database
Track 5 not present in database
Track 6 not present in database
Track 7 not present in database
Track 8 not present in database
Track 9 not present in database
Track 10 not present in database
Track 11 not present in database
Track 12 not present in database
Track 13 not present in database
Track 14 not present in database

None of the tracks are present in the AccurateRip database

End of status report

–– CUETools DB Plugin V2.1.6

[CTDB TOCID: twdfpJFQZX0m4ylL1SDs1SmxoVc-] found
Submit result: twdfpJFQZX0m4ylL1SDs1SmxoVc- has been confirmed
Track | CTDB Status
1 | (1/1) Accurately ripped
2 | (1/1) Accurately ripped
3 | (1/1) Accurately ripped
4 | (1/1) Accurately ripped
5 | (1/1) Accurately ripped
6 | (1/1) Accurately ripped
7 | (1/1) Accurately ripped
8 | (1/1) Accurately ripped
9 | (1/1) Accurately ripped
10 | (1/1) Accurately ripped
11 | (1/1) Accurately ripped
12 | (1/1) Accurately ripped
13 | (1/1) Accurately ripped
14 | (1/1) Accurately ripped


==== Log checksum 947E558E3B57E9908FCA2502C46208918ED27C51E5C5FB64224036C62753791F ====

Track List CD03 - The Song is You:

01. When You Smiling [0:02:30.00]
02. P.S. I Love You [0:04:22.26]
03. The Song Is You [0:02:43.32]
04. Spring Is Here [0:04:47.04]
05. Sweet Lorraine [0:03:15.39]
06. My Shining Hour [0:02:25.64]
07. The Fable Of The Rose [0:02:53.38]
08. Don't Forget Tonight Tomorrow [0:02:27.25]
09. There Are Things [0:02:45.18]
10. Kiss Me Again [0:02:40.47]
11. You Brought A New Kind Of Love To Me [0:01:36.37]
12. If You Are But A Dream [0:03:04.72]
13. Exactly Like You [0:01:32.71]
14. There's No You [0:03:26.55]

Exact Audio Copy V1.2 from 12. August 2016

EAC extraction logfile from 29. January 2018, 12:06

Frank Sinatra / Hello Frank - The Song is You (CD3)

Used drive : HL-DT-STBD-RE BH10LS38 Adapter: 1 ID: 1

Read mode : Secure
Utilize accurate stream : Yes
Defeat audio cache : Yes
Make use of C2 pointers : No

Read offset correction : 667
Overread into Lead-In and Lead-Out : No
Fill up missing offset samples with silence : Yes
Delete leading and trailing silent blocks : No
Null samples used in CRC calculations : Yes
Used interface : Installed external ASPI interface

Used output format : User Defined Encoder
Selected bitrate : 128 kBit/s
Quality : High
Add ID3 tag : No
Command line compressor : C:\Program Files (x86)\Exact Audio Copy\wavpack-4.60.1\wavpack.exe
Additional command line options : -hm -w "Year=%year%" -w "Genre=%genre%" %source% %dest%


TOC of the extracted CD

Track | Start | Length | Start sector | End sector
––––––––––––––––––––––––––––-
1 | 0:00.00 | 2:30.00 | 0 | 11249
2 | 2:30.00 | 4:22.26 | 11250 | 30925
3 | 6:52.26 | 2:43.32 | 30926 | 43182
4 | 9:35.58 | 4:47.04 | 43183 | 64711
5 | 14:22.62 | 3:15.39 | 64712 | 79375
6 | 17:38.26 | 2:25.64 | 79376 | 90314
7 | 20:04.15 | 2:53.38 | 90315 | 103327
8 | 22:57.53 | 2:27.25 | 103328 | 114377
9 | 25:25.03 | 2:45.18 | 114378 | 126770
10 | 28:10.21 | 2:40.47 | 126771 | 138817
11 | 30:50.68 | 1:36.37 | 138818 | 146054
12 | 32:27.30 | 3:04.72 | 146055 | 159926
13 | 35:32.27 | 1:32.71 | 159927 | 166897
14 | 37:05.23 | 3:26.55 | 166898 | 182402


Range status and errors

Selected range

Filename G:\Rips by Alder\Frank Sinatra - Hello Frank - The Song is You (CD3).wav

Peak level 100.0 %
Extraction speed 7.0 X
Range quality 100.0 %
Test CRC B5735047
Copy CRC B5735047
Copy OK

No errors occurred


AccurateRip summary

Track 1 not present in database
Track 2 not present in database
Track 3 not present in database
Track 4 not present in database
Track 5 not present in database
Track 6 not present in database
Track 7 not present in database
Track 8 not present in database
Track 9 not present in database
Track 10 not present in database
Track 11 not present in database
Track 12 not present in database
Track 13 not present in database
Track 14 not present in database

None of the tracks are present in the AccurateRip database

End of status report

–– CUETools DB Plugin V2.1.6

[CTDB TOCID: 0zLE3VMGzmy7TP49NWsVCp1MZNQ-] found
Submit result: 0zLE3VMGzmy7TP49NWsVCp1MZNQ- has been confirmed
Track | CTDB Status
1 | (1/1) Accurately ripped
2 | (1/1) Accurately ripped
3 | (1/1) Accurately ripped
4 | (1/1) Accurately ripped
5 | (1/1) Accurately ripped
6 | (1/1) Accurately ripped
7 | (1/1) Accurately ripped
8 | (1/1) Accurately ripped
9 | (1/1) Accurately ripped
10 | (1/1) Accurately ripped
11 | (1/1) Accurately ripped
12 | (1/1) Accurately ripped
13 | (1/1) Accurately ripped
14 | (1/1) Accurately ripped


==== Log checksum B0ADA033298C98C1D521999562724BE40EB15D4688FC86B998C77D6E645C893F ====

Track List CD04 - Stormy Weather:

01. Something's Gotta Give [0:02:38.64]
02. I'll Follow My Secret Heart [0:02:37.30]
03. It's A Lovely Day Tomorrow [0:02:30.45]
04. Stormy Weather [0:03:19.03]
05. Time After Time [0:03:11.72]
06. Oh What A Beautiful Morning [0:02:55.32]
07. Not So Long Ago [0:03:03.05]
08. It's Always You [0:03:15.22]
09. Too Romantic [0:03:16.41]
10. Come Out, Come Out, Wherever You Are [0:02:01.30]
11. Come Rain Or Come Shine [0:02:26.21]
12. Falling In Love With You [0:02:47.23]
13. For You [0:01:58.55]
14. Cradle Song [0:02:45.35]

Exact Audio Copy V1.2 from 12. August 2016

EAC extraction logfile from 29. January 2018, 12:29

Frank Sinatra / Hello Frank - Stormy Weather (CD4)

Used drive : HL-DT-STBD-RE BH10LS38 Adapter: 1 ID: 1

Read mode : Secure
Utilize accurate stream : Yes
Defeat audio cache : Yes
Make use of C2 pointers : No

Read offset correction : 667
Overread into Lead-In and Lead-Out : No
Fill up missing offset samples with silence : Yes
Delete leading and trailing silent blocks : No
Null samples used in CRC calculations : Yes
Used interface : Installed external ASPI interface

Used output format : User Defined Encoder
Selected bitrate : 128 kBit/s
Quality : High
Add ID3 tag : No
Command line compressor : C:\Program Files (x86)\Exact Audio Copy\wavpack-4.60.1\wavpack.exe
Additional command line options : -hm -w "Year=%year%" -w "Genre=%genre%" %source% %dest%


TOC of the extracted CD

Track | Start | Length | Start sector | End sector
––––––––––––––––––––––––––––-
1 | 0:00.00 | 2:38.64 | 0 | 11913
2 | 2:38.64 | 2:37.30 | 11914 | 23718
3 | 5:16.19 | 2:30.45 | 23719 | 35013
4 | 7:46.64 | 3:19.03 | 35014 | 49941
5 | 11:05.67 | 3:11.72 | 49942 | 64338
6 | 14:17.64 | 2:55.32 | 64339 | 77495
7 | 17:13.21 | 3:03.05 | 77496 | 91225
8 | 20:16.26 | 3:15.22 | 91226 | 105872
9 | 23:31.48 | 3:16.41 | 105873 | 120613
10 | 26:48.14 | 2:01.30 | 120614 | 129718
11 | 28:49.44 | 2:26.21 | 129719 | 140689
12 | 31:15.65 | 2:47.23 | 140690 | 153237
13 | 34:03.13 | 1:58.55 | 153238 | 162142
14 | 36:01.68 | 2:45.35 | 162143 | 174552


Range status and errors

Selected range

Filename G:\Rips by Alder\Frank Sinatra - Hello Frank - Stormy Weather (CD4).wav

Peak level 99.8 %
Extraction speed 6.9 X
Range quality 100.0 %
Test CRC 1FFE26AF
Copy CRC 1FFE26AF
Copy OK

No errors occurred


AccurateRip summary

Track 1 not present in database
Track 2 not present in database
Track 3 not present in database
Track 4 not present in database
Track 5 not present in database
Track 6 not present in database
Track 7 not present in database
Track 8 not present in database
Track 9 not present in database
Track 10 not present in database
Track 11 not present in database
Track 12 not present in database
Track 13 not present in database
Track 14 not present in database

None of the tracks are present in the AccurateRip database

End of status report

–– CUETools DB Plugin V2.1.6

[CTDB TOCID: IrJ5X7b7Z9YG_JDXLuZhxR8se5M-] found
Submit result: IrJ5X7b7Z9YG_JDXLuZhxR8se5M- has been confirmed
Track | CTDB Status
1 | (1/1) Accurately ripped
2 | (1/1) Accurately ripped
3 | (1/1) Accurately ripped
4 | (1/1) Accurately ripped
5 | (1/1) Accurately ripped
6 | (1/1) Accurately ripped
7 | (1/1) Accurately ripped
8 | (1/1) Accurately ripped
9 | (1/1) Accurately ripped
10 | (1/1) Accurately ripped
11 | (1/1) Accurately ripped
12 | (1/1) Accurately ripped
13 | (1/1) Accurately ripped
14 | (1/1) Accurately ripped


==== Log checksum 5E6962A978734667A0088AB48ED1ED7716CCFC8C60315733B70E69A2871B77A6 ====

Track List CD05 - Just Friends:

01. You're Getting To Be A Habit With Me [0:02:19.26]
02. Just Friends [0:03:40.24]
03. If Loveliness Were Music [0:02:32.72]
04. Too Marvellous For Words [0:02:29.72]
05. I'll Walk Alone [0:03:26.21]
06. Whispering [0:02:59.67]
07. Looking For Yesterday [0:03:08.69]
08. That Old Feeling [0:03:14.40]
09. Lover Come Back To Me [0:03:21.69]
10. Put Your Dreams Away [0:01:28.32]
11. Without A Song [0:02:18.54]
12. The House I Live In [0:03:20.56]
13. Mam'selle [0:03:22.48]
14. My Romance [0:03:11.02]

Exact Audio Copy V1.2 from 12. August 2016

EAC extraction logfile from 29. January 2018, 12:47

Various Artists / Hello Frank - Just Friends (CD5)

Used drive : HL-DT-STBD-RE BH10LS38 Adapter: 1 ID: 1

Read mode : Secure
Utilize accurate stream : Yes
Defeat audio cache : Yes
Make use of C2 pointers : No

Read offset correction : 667
Overread into Lead-In and Lead-Out : No
Fill up missing offset samples with silence : Yes
Delete leading and trailing silent blocks : No
Null samples used in CRC calculations : Yes
Used interface : Installed external ASPI interface

Used output format : User Defined Encoder
Selected bitrate : 128 kBit/s
Quality : High
Add ID3 tag : No
Command line compressor : C:\Program Files (x86)\Exact Audio Copy\wavpack-4.60.1\wavpack.exe
Additional command line options : -hm -w "Year=%year%" -w "Genre=%genre%" %source% %dest%


TOC of the extracted CD

Track | Start | Length | Start sector | End sector
––––––––––––––––––––––––––––-
1 | 0:00.00 | 2:19.26 | 0 | 10450
2 | 2:19.26 | 3:40.24 | 10451 | 26974
3 | 5:59.50 | 2:32.72 | 26975 | 38446
4 | 8:32.47 | 2:29.72 | 38447 | 49693
5 | 11:02.44 | 3:26.21 | 49694 | 65164
6 | 14:28.65 | 2:59.67 | 65165 | 78656
7 | 17:28.57 | 3:08.69 | 78657 | 92825
8 | 20:37.51 | 3:14.40 | 92826 | 107415
9 | 23:52.16 | 3:21.69 | 107416 | 122559
10 | 27:14.10 | 1:28.32 | 122560 | 129191
11 | 28:42.42 | 2:18.54 | 129192 | 139595
12 | 31:01.21 | 3:20.56 | 139596 | 154651
13 | 34:22.02 | 3:22.48 | 154652 | 169849
14 | 37:44.50 | 3:11.02 | 169850 | 184176


Range status and errors

Selected range

Filename G:\Rips by Alder\Various Artists - Hello Frank - Just Friends (CD5).wav

Peak level 98.8 %
Extraction speed 7.0 X
Range quality 100.0 %
Test CRC DB35C5C6
Copy CRC DB35C5C6
Copy OK

No errors occurred


AccurateRip summary

Track 1 not present in database
Track 2 not present in database
Track 3 not present in database
Track 4 not present in database
Track 5 not present in database
Track 6 not present in database
Track 7 not present in database
Track 8 not present in database
Track 9 not present in database
Track 10 not present in database
Track 11 not present in database
Track 12 not present in database
Track 13 not present in database
Track 14 not present in database

None of the tracks are present in the AccurateRip database

End of status report

–– CUETools DB Plugin V2.1.6

[CTDB TOCID: qmxvc0Gaz8XzbqbHoVc4ljBpBmc-] found
Submit result: qmxvc0Gaz8XzbqbHoVc4ljBpBmc- has been confirmed
Track | CTDB Status
1 | (1/1) Accurately ripped
2 | (1/1) Accurately ripped
3 | (1/1) Accurately ripped
4 | (1/1) Accurately ripped
5 | (1/1) Accurately ripped
6 | (1/1) Accurately ripped
7 | (1/1) Accurately ripped
8 | (1/1) Accurately ripped
9 | (1/1) Accurately ripped
10 | (1/1) Accurately ripped
11 | (1/1) Accurately ripped
12 | (1/1) Accurately ripped
13 | (1/1) Accurately ripped
14 | (1/1) Accurately ripped


==== Log checksum 93CE1B9EF781725F70D43923978122FD88C0A4CD6B81BE068491C35EF8D6A6B5 ====

Track List CD06 - Old Devil Moon:

01. Old Devil Moon [0:03:58.36]
02. Pennies From Heaven [0:03:10.24]
03. Love Is Here To Stay [0:02:43.40]
04. I Thought About You [0:02:31.55]
05. Together [0:02:11.41]
06. Makin' Whoopee [0:03:06.58]
07. Swingin' Down The Lane [0:02:55.70]
08. Anything Goes [0:02:45.12]
09. How About You? [0:02:50.47]
10. You Got To My Head [0:03:01.69]
11. Yours Is My Heart Alone [0:02:55.71]
12. Who Told You I Cared [0:02:39.03]
13. You've Got A Hold On Me [0:02:32.19]
14. Every Day Of My Life [0:02:57.43]

Exact Audio Copy V1.2 from 12. August 2016

EAC extraction logfile from 29. January 2018, 13:03

Frank Sinatra / Hello Frank - Old Devil Moon (CD6)

Used drive : HL-DT-STBD-RE BH10LS38 Adapter: 1 ID: 1

Read mode : Secure
Utilize accurate stream : Yes
Defeat audio cache : Yes
Make use of C2 pointers : No

Read offset correction : 667
Overread into Lead-In and Lead-Out : No
Fill up missing offset samples with silence : Yes
Delete leading and trailing silent blocks : No
Null samples used in CRC calculations : Yes
Used interface : Installed external ASPI interface

Used output format : User Defined Encoder
Selected bitrate : 128 kBit/s
Quality : High
Add ID3 tag : No
Command line compressor : C:\Program Files (x86)\Exact Audio Copy\wavpack-4.60.1\wavpack.exe
Additional command line options : -hm -w "Year=%year%" -w "Genre=%genre%" %source% %dest%


TOC of the extracted CD

Track | Start | Length | Start sector | End sector
––––––––––––––––––––––––––––-
1 | 0:00.00 | 3:58.36 | 0 | 17885
2 | 3:58.36 | 3:10.24 | 17886 | 32159
3 | 7:08.60 | 2:43.40 | 32160 | 44424
4 | 9:52.25 | 2:31.55 | 44425 | 55804
5 | 12:24.05 | 2:11.41 | 55805 | 65670
6 | 14:35.46 | 3:06.58 | 65671 | 79678
7 | 17:42.29 | 2:55.70 | 79679 | 92873
8 | 20:38.24 | 2:45.12 | 92874 | 105260
9 | 23:23.36 | 2:50.47 | 105261 | 118057
10 | 26:14.08 | 3:01.69 | 118058 | 131701
11 | 29:16.02 | 2:55.71 | 131702 | 144897
12 | 32:11.73 | 2:39.03 | 144898 | 156825
13 | 34:51.01 | 2:32.19 | 156826 | 168244
14 | 37:23.20 | 2:57.43 | 168245 | 181562


Range status and errors

Selected range

Filename G:\Rips by Alder\Frank Sinatra - Hello Frank - Old Devil Moon (CD6).wav

Peak level 98.8 %
Extraction speed 7.0 X
Range quality 100.0 %
Test CRC C5A8B591
Copy CRC C5A8B591
Copy OK

No errors occurred


AccurateRip summary

Track 1 not present in database
Track 2 not present in database
Track 3 not present in database
Track 4 not present in database
Track 5 not present in database
Track 6 not present in database
Track 7 not present in database
Track 8 not present in database
Track 9 not present in database
Track 10 not present in database
Track 11 not present in database
Track 12 not present in database
Track 13 not present in database
Track 14 not present in database

None of the tracks are present in the AccurateRip database

End of status report

–– CUETools DB Plugin V2.1.6

[CTDB TOCID: SVh58N.v6AcZRyjJuhlQWyhEI_g-] found
Submit result: SVh58N.v6AcZRyjJuhlQWyhEI_g- has been confirmed
Track | CTDB Status
1 | (1/1) Accurately ripped
2 | (1/1) Accurately ripped
3 | (1/1) Accurately ripped
4 | (1/1) Accurately ripped
5 | (1/1) Accurately ripped
6 | (1/1) Accurately ripped
7 | (1/1) Accurately ripped
8 | (1/1) Accurately ripped
9 | (1/1) Accurately ripped
10 | (1/1) Accurately ripped
11 | (1/1) Accurately ripped
12 | (1/1) Accurately ripped
13 | (1/1) Accurately ripped
14 | (1/1) Accurately ripped


==== Log checksum 2AB9131E6FCB6C755F9E03F2825365B1307EBBA667490140C7803A32EA7D7D3A ====

Track List CD07 - Body And Soul:

01. Body And Soul [0:03:17.61]
02. Someone To Watch Over Me [0:03:25.15]
03. These Foolish Things [0:03:09.32]
04. I Should Care [0:02:16.06]
05. Just Close Your Eyes [0:01:37.72]
06. Try A little Tenderness [0:03:01.22]
07. (I Don`t Stand A) Ghost Of A Chance [0:03:13.29]
08. Begin The Beguine [0:03:53.53]
09. Here Comes The Night [0:02:51.25]
10. Fools Rush In (Where Angels Fear To Tread) [0:03:15.43]
11. Do You Know Why [0:03:09.27]
12. Homesick That`s All [0:03:12.45]
13. I Could Make You Care [0:03:11.12]
14. Dream When You`re Feeling Blue [0:03:03.23]

Exact Audio Copy V1.2 from 12. August 2016

EAC extraction logfile from 31. January 2018, 9:15

Frank Sinatra / Hello Frank - Body And Soul (CD7)

Used drive : HL-DT-STBD-RE BH10LS38 Adapter: 1 ID: 1

Read mode : Secure
Utilize accurate stream : Yes
Defeat audio cache : Yes
Make use of C2 pointers : No

Read offset correction : 667
Overread into Lead-In and Lead-Out : No
Fill up missing offset samples with silence : Yes
Delete leading and trailing silent blocks : No
Null samples used in CRC calculations : Yes
Used interface : Installed external ASPI interface

Used output format : User Defined Encoder
Selected bitrate : 128 kBit/s
Quality : High
Add ID3 tag : No
Command line compressor : C:\Program Files (x86)\Exact Audio Copy\wavpack-4.60.1\wavpack.exe
Additional command line options : -hm -w "Year=%year%" -w "Genre=%genre%" %source% %dest%


TOC of the extracted CD

Track | Start | Length | Start sector | End sector
––––––––––––––––––––––––––––-
1 | 0:00.00 | 3:17.61 | 0 | 14835
2 | 3:17.61 | 3:25.15 | 14836 | 30225
3 | 6:43.01 | 3:09.32 | 30226 | 44432
4 | 9:52.33 | 2:16.06 | 44433 | 54638
5 | 12:08.39 | 1:37.72 | 54639 | 61985
6 | 13:46.36 | 3:01.22 | 61986 | 75582
7 | 16:47.58 | 3:13.29 | 75583 | 90086
8 | 20:01.12 | 3:53.53 | 90087 | 107614
9 | 23:54.65 | 2:51.25 | 107615 | 120464
10 | 26:46.15 | 3:15.43 | 120465 | 135132
11 | 30:01.58 | 3:09.27 | 135133 | 149334
12 | 33:11.10 | 3:12.45 | 149335 | 163779
13 | 36:23.55 | 3:11.12 | 163780 | 178116
14 | 39:34.67 | 3:03.23 | 178117 | 191864


Range status and errors

Selected range

Filename G:\Rips by Alder\Frank Sinatra - Hello Frank - Body And Soul (CD7).wav

Peak level 98.8 %
Extraction speed 7.1 X
Range quality 100.0 %
Test CRC F88725FE
Copy CRC F88725FE
Copy OK

No errors occurred


AccurateRip summary

Track 1 not present in database
Track 2 not present in database
Track 3 not present in database
Track 4 not present in database
Track 5 not present in database
Track 6 not present in database
Track 7 not present in database
Track 8 not present in database
Track 9 not present in database
Track 10 not present in database
Track 11 not present in database
Track 12 not present in database
Track 13 not present in database
Track 14 not present in database

None of the tracks are present in the AccurateRip database

End of status report

–– CUETools DB Plugin V2.1.6

[CTDB TOCID: w7VdRZ2NW3dhVhFcJeYff7yeTO4-] found
Submit result: w7VdRZ2NW3dhVhFcJeYff7yeTO4- has been confirmed
Track | CTDB Status
1 | (1/1) Accurately ripped
2 | (1/1) Accurately ripped
3 | (1/1) Accurately ripped
4 | (1/1) Accurately ripped
5 | (1/1) Accurately ripped
6 | (1/1) Accurately ripped
7 | (1/1) Accurately ripped
8 | (1/1) Accurately ripped
9 | (1/1) Accurately ripped
10 | (1/1) Accurately ripped
11 | (1/1) Accurately ripped
12 | (1/1) Accurately ripped
13 | (1/1) Accurately ripped
14 | (1/1) Accurately ripped


==== Log checksum B6DD82B414BED688A437A904E8C3D2C42CD02197ADA87603E695D065DCE18C25 ====

Track List CD08 - As Time Goes By:

01. Nice Work If You Can Get It [0:02:22.24]
02. One For My Baby (And One More For The Road) [0:04:27.08]
03. Guess I'll Hang My Tears Out To Dry [0:03:25.58]
04. As Time Goes By [0:02:34.27]
05. It Never Entered My Mind [0:03:35.43]
06. Amor [0:02:54.71]
07. Ciribiribin [0:02:22.65]
08. She's Funny That Way [0:02:13.07]
09. Embraceable You [0:03:18.31]
10. All The Things You Are [0:02:45.57]
11. Close To You [0:03:12.38]
12. April Played The Fiddle [0:03:09.15]
13. Baubles, Bangles And Beads [0:02:48.16]
14. Daybreak [0:03:13.32]

Exact Audio Copy V1.2 from 12. August 2016

EAC extraction logfile from 31. January 2018, 15:10

Frank Sinatra / Hello Frank - As Time Goes By (CD8)

Used drive : HL-DT-STBD-RE BH10LS38 Adapter: 1 ID: 1

Read mode : Secure
Utilize accurate stream : Yes
Defeat audio cache : Yes
Make use of C2 pointers : No

Read offset correction : 667
Overread into Lead-In and Lead-Out : No
Fill up missing offset samples with silence : Yes
Delete leading and trailing silent blocks : No
Null samples used in CRC calculations : Yes
Used interface : Installed external ASPI interface

Used output format : User Defined Encoder
Selected bitrate : 128 kBit/s
Quality : High
Add ID3 tag : No
Command line compressor : C:\Program Files (x86)\Exact Audio Copy\wavpack-4.60.1\wavpack.exe
Additional command line options : -hm -w "Year=%year%" -w "Genre=%genre%" %source% %dest%


TOC of the extracted CD

Track | Start | Length | Start sector | End sector
––––––––––––––––––––––––––––-
1 | 0:00.00 | 2:22.24 | 0 | 10673
2 | 2:22.24 | 4:27.08 | 10674 | 30706
3 | 6:49.32 | 3:25.58 | 30707 | 46139
4 | 10:15.15 | 2:34.27 | 46140 | 57716
5 | 12:49.42 | 3:35.43 | 57717 | 73884
6 | 16:25.10 | 2:54.71 | 73885 | 87005
7 | 19:20.06 | 2:22.65 | 87006 | 97720
8 | 21:42.71 | 2:13.07 | 97721 | 107702
9 | 23:56.03 | 3:18.31 | 107703 | 122583
10 | 27:14.34 | 2:45.57 | 122584 | 135015
11 | 30:00.16 | 3:12.38 | 135016 | 149453
12 | 33:12.54 | 3:09.15 | 149454 | 163643
13 | 36:21.69 | 2:48.16 | 163644 | 176259
14 | 39:10.10 | 3:13.32 | 176260 | 190766


Range status and errors

Selected range

Filename G:\Rips by Alder\Frank Sinatra - Hello Frank - As Time Goes By (CD8).wav

Peak level 98.8 %
Extraction speed 7.1 X
Range quality 100.0 %
Test CRC AD2C1D32
Copy CRC AD2C1D32
Copy OK

No errors occurred


AccurateRip summary

Track 1 not present in database
Track 2 not present in database
Track 3 not present in database
Track 4 not present in database
Track 5 not present in database
Track 6 not present in database
Track 7 not present in database
Track 8 not present in database
Track 9 not present in database
Track 10 not present in database
Track 11 not present in database
Track 12 not present in database
Track 13 not present in database
Track 14 not present in database

None of the tracks are present in the AccurateRip database

End of status report

–– CUETools DB Plugin V2.1.6

[CTDB TOCID: 0_cbnK5rLksUK561MmiH_GCHTpg-] found
Submit result: 0_cbnK5rLksUK561MmiH_GCHTpg- has been confirmed
Track | CTDB Status
1 | (1/1) Accurately ripped
2 | (1/1) Accurately ripped
3 | (1/1) Accurately ripped
4 | (1/1) Accurately ripped
5 | (1/1) Accurately ripped
6 | (1/1) Accurately ripped
7 | (1/1) Accurately ripped
8 | (1/1) Accurately ripped
9 | (1/1) Accurately ripped
10 | (1/1) Accurately ripped
11 | (1/1) Accurately ripped
12 | (1/1) Accurately ripped
13 | (1/1) Accurately ripped
14 | (1/1) Accurately ripped


==== Log checksum F9ABD786E47DA79BF1BFB37D2E0513D38A1FFBA6760188CABF35D29D8D73C0F2 ====

Track List CD09 - Live In Las Vegas:

01. Medley [0:04:58.37]
02. June In January [0:03:20.59]
03. Via Vinito [0:02:00.16]
04. Medley [0:02:24.61]
05. I Only Have Eyes For You [0:02:16.68]
06. Call Me Irresponsible [0:02:11.16]
07. My Heart Stood Still [0:02:53.54]
08. Please Be Kind [0:02:41.08]
09. I Have Dreamed [0:02:58.15]
10. Luck Be A Lady [0:04:59.67]
11. Medley [0:08:32.01]
12. The Lady Is A Tramp [0:04:03.31]
13. Sammy Davis Jr. All The Way [0:05:47.45]
14. Guys And Dolls [0:03:31.16]
15. The Oldest Established [0:02:50.25]
16. The Oldest Established [0:00:29.35]

Exact Audio Copy V1.2 from 12. August 2016

EAC extraction logfile from 31. January 2018, 15:41

Frank Sinatra / Hello Frank - Live In Las Vegas (CD9)

Used drive : HL-DT-STBD-RE BH10LS38 Adapter: 1 ID: 1

Read mode : Secure
Utilize accurate stream : Yes
Defeat audio cache : Yes
Make use of C2 pointers : No

Read offset correction : 667
Overread into Lead-In and Lead-Out : No
Fill up missing offset samples with silence : Yes
Delete leading and trailing silent blocks : No
Null samples used in CRC calculations : Yes
Used interface : Installed external ASPI interface

Used output format : User Defined Encoder
Selected bitrate : 128 kBit/s
Quality : High
Add ID3 tag : No
Command line compressor : C:\Program Files (x86)\Exact Audio Copy\wavpack-4.60.1\wavpack.exe
Additional command line options : -hm -w "Year=%year%" -w "Genre=%genre%" %source% %dest%


TOC of the extracted CD

Track | Start | Length | Start sector | End sector
––––––––––––––––––––––––––––-
1 | 0:00.00 | 4:58.37 | 0 | 22386
2 | 4:58.37 | 3:20.59 | 22387 | 37445
3 | 8:19.21 | 2:00.16 | 37446 | 46461
4 | 10:19.37 | 2:24.61 | 46462 | 57322
5 | 12:44.23 | 2:16.68 | 57323 | 67590
6 | 15:01.16 | 2:11.16 | 67591 | 77431
7 | 17:12.32 | 2:53.54 | 77432 | 90460
8 | 20:06.11 | 2:41.08 | 90461 | 102543
9 | 22:47.19 | 2:58.15 | 102544 | 115908
10 | 25:45.34 | 4:59.67 | 115909 | 138400
11 | 30:45.26 | 8:32.01 | 138401 | 176801
12 | 39:17.27 | 4:03.31 | 176802 | 195057
13 | 43:20.58 | 5:47.45 | 195058 | 221127
14 | 49:08.28 | 3:31.16 | 221128 | 236968
15 | 52:39.44 | 2:50.25 | 236969 | 249743
16 | 55:29.69 | 0:29.35 | 249744 | 251953


Range status and errors

Selected range

Filename G:\Rips by Alder\Frank Sinatra - Hello Frank - Live In Las Vegas (CD9).wav

Peak level 98.8 %
Extraction speed 7.5 X
Range quality 100.0 %
Test CRC 218B5CEF
Copy CRC 218B5CEF
Copy OK

No errors occurred


AccurateRip summary

Track 1 not present in database
Track 2 not present in database
Track 3 not present in database
Track 4 not present in database
Track 5 not present in database
Track 6 not present in database
Track 7 not present in database
Track 8 not present in database
Track 9 not present in database
Track 10 not present in database
Track 11 not present in database
Track 12 not present in database
Track 13 not present in database
Track 14 not present in database
Track 15 not present in database
Track 16 not present in database

None of the tracks are present in the AccurateRip database

End of status report

–– CUETools DB Plugin V2.1.6

[CTDB TOCID: eDeEdpCDux.DqYljBnfgN5xuFK4-] found
Submit result: eDeEdpCDux.DqYljBnfgN5xuFK4- has been confirmed
Track | CTDB Status
1 | (1/1) Accurately ripped
2 | (1/1) Accurately ripped
3 | (1/1) Accurately ripped
4 | (1/1) Accurately ripped
5 | (1/1) Accurately ripped
6 | (1/1) Accurately ripped
7 | (1/1) Accurately ripped
8 | (1/1) Accurately ripped
9 | (1/1) Accurately ripped
10 | (1/1) Accurately ripped
11 | (1/1) Accurately ripped
12 | (1/1) Accurately ripped
13 | (1/1) Accurately ripped
14 | (1/1) Accurately ripped
15 | (1/1) Accurately ripped
16 | (1/1) Accurately ripped


==== Log checksum 9A4DD119EA1CD016B90431CD04A51A96B91ECE2CAC72A8240F2BD19DBE1F0672 ====

Track List CD10 - Jeepers Creepers:

01. Jeepers Creepers [0:02:24.48]
02. The Girl Next Door [0:02:39.66]
03. Blame It On My Mouth [0:02:59.32]
04. I'll Never Let A Day Pass By [0:03:17.52]
05. Almost Like Being In Love [0:02:42.19]
06. Aren't You Glad You're You [0:02:07.46]
07. I Get A Kick Out Of You [0:02:58.43]
08. Shoo, Shoo Baby [0:02:37.41]
09. Should I? [0:02:25.42]
10. You Do Something To Me [0:02:35.60]
11. Lover [0:02:41.19]
12. Moments In The Moonlight [0:03:16.00]
13. Make Believe [0:02:16.44]
14. No Love, No Nothin' [0:02:46.27]

Exact Audio Copy V1.2 from 12. August 2016

EAC extraction logfile from 31. January 2018, 16:01

Frank Sinatra / Hello Frank - Jeepers Creepers (CD10)

Used drive : HL-DT-STBD-RE BH10LS38 Adapter: 1 ID: 1

Read mode : Secure
Utilize accurate stream : Yes
Defeat audio cache : Yes
Make use of C2 pointers : No

Read offset correction : 667
Overread into Lead-In and Lead-Out : No
Fill up missing offset samples with silence : Yes
Delete leading and trailing silent blocks : No
Null samples used in CRC calculations : Yes
Used interface : Installed external ASPI interface

Used output format : User Defined Encoder
Selected bitrate : 128 kBit/s
Quality : High
Add ID3 tag : No
Command line compressor : C:\Program Files (x86)\Exact Audio Copy\wavpack-4.60.1\wavpack.exe
Additional command line options : -hm -w "Year=%year%" -w "Genre=%genre%" %source% %dest%


TOC of the extracted CD

Track | Start | Length | Start sector | End sector
––––––––––––––––––––––––––––-
1 | 0:00.00 | 2:24.48 | 0 | 10847
2 | 2:24.48 | 2:39.66 | 10848 | 22838
3 | 5:04.39 | 2:59.32 | 22839 | 36295
4 | 8:03.71 | 3:17.52 | 36296 | 51122
5 | 11:21.48 | 2:42.19 | 51123 | 63291
6 | 14:03.67 | 2:07.46 | 63292 | 72862
7 | 16:11.38 | 2:58.43 | 72863 | 86255
8 | 19:10.06 | 2:37.41 | 86256 | 98071
9 | 21:47.47 | 2:25.42 | 98072 | 108988
10 | 24:13.14 | 2:35.60 | 108989 | 120673
11 | 26:48.74 | 2:41.19 | 120674 | 132767
12 | 29:30.18 | 3:16.00 | 132768 | 147467
13 | 32:46.18 | 2:16.44 | 147468 | 157711
14 | 35:02.62 | 2:46.27 | 157712 | 170188


Range status and errors

Selected range

Filename G:\Rips by Alder\Frank Sinatra - Hello Frank - Jeepers Creepers (CD10).wav

Peak level 98.8 %
Extraction speed 6.9 X
Range quality 100.0 %
Test CRC C1674B18
Copy CRC C1674B18
Copy OK

No errors occurred


AccurateRip summary

Track 1 not present in database
Track 2 not present in database
Track 3 not present in database
Track 4 not present in database
Track 5 not present in database
Track 6 not present in database
Track 7 not present in database
Track 8 not present in database
Track 9 not present in database
Track 10 not present in database
Track 11 not present in database
Track 12 not present in database
Track 13 not present in database
Track 14 not present in database

None of the tracks are present in the AccurateRip database

End of status report

–– CUETools DB Plugin V2.1.6

[CTDB TOCID: qj5eHU1ydZB88v4h75KmTTwVS_8-] found
Submit result: qj5eHU1ydZB88v4h75KmTTwVS_8- has been confirmed
Track | CTDB Status
1 | (1/1) Accurately ripped
2 | (1/1) Accurately ripped
3 | (1/1) Accurately ripped
4 | (1/1) Accurately ripped
5 | (1/1) Accurately ripped
6 | (1/1) Accurately ripped
7 | (1/1) Accurately ripped
8 | (1/1) Accurately ripped
9 | (1/1) Accurately ripped
10 | (1/1) Accurately ripped
11 | (1/1) Accurately ripped
12 | (1/1) Accurately ripped
13 | (1/1) Accurately ripped
14 | (1/1) Accurately ripped


==== Log checksum 3E08F5A60ECE0AE035306D12093F489BFAF9E86D112899A16C97B5609FFE62F4 ====

Track List CD11 - Come Dance With Me:

01. Love And Marriage [0:02:40.57]
02. My Heart Tells Me [0:03:06.35]
03. Nevertheless [0:03:10.31]
04. Deep Night [0:03:17.01]
05. It Happened In Monterey [0:02:38.35]
06. You Make Me Feel So Young [0:02:57.49]
07. Come Dance With Me [0:02:32.53]
08. September Song [0:03:06.71]
09. Shake Down The Stars [0:03:30.73]
10. People Will Say We're In Love [0:03:15.51]
11. Speak Low [0:02:21.07]
12. Somebody Loves Me [0:01:31.71]
13. Porgy And Bess Medley [0:05:26.25]
14. Stardust [0:03:10.03]

Exact Audio Copy V1.2 from 12. August 2016

EAC extraction logfile from 31. January 2018, 16:16

Frank sinatra / Hello Frank - Come Dance With Me (CD11)

Used drive : HL-DT-STBD-RE BH10LS38 Adapter: 1 ID: 1

Read mode : Secure
Utilize accurate stream : Yes
Defeat audio cache : Yes
Make use of C2 pointers : No

Read offset correction : 667
Overread into Lead-In and Lead-Out : No
Fill up missing offset samples with silence : Yes
Delete leading and trailing silent blocks : No
Null samples used in CRC calculations : Yes
Used interface : Installed external ASPI interface

Used output format : User Defined Encoder
Selected bitrate : 128 kBit/s
Quality : High
Add ID3 tag : No
Command line compressor : C:\Program Files (x86)\Exact Audio Copy\wavpack-4.60.1\wavpack.exe
Additional command line options : -hm -w "Year=%year%" -w "Genre=%genre%" %source% %dest%


TOC of the extracted CD

Track | Start | Length | Start sector | End sector
––––––––––––––––––––––––––––-
1 | 0:00.00 | 2:40.57 | 0 | 12056
2 | 2:40.57 | 3:06.35 | 12057 | 26041
3 | 5:47.17 | 3:10.31 | 26042 | 40322
4 | 8:57.48 | 3:17.01 | 40323 | 55098
5 | 12:14.49 | 2:38.35 | 55099 | 66983
6 | 14:53.09 | 2:57.49 | 66984 | 80307
7 | 17:50.58 | 2:32.53 | 80308 | 91760
8 | 20:23.36 | 3:06.71 | 91761 | 105781
9 | 23:30.32 | 3:30.73 | 105782 | 121604
10 | 27:01.30 | 3:15.51 | 121605 | 136280
11 | 30:17.06 | 2:21.07 | 136281 | 146862
12 | 32:38.13 | 1:31.71 | 146863 | 153758
13 | 34:10.09 | 5:26.25 | 153759 | 178233
14 | 39:36.34 | 3:10.03 | 178234 | 192486


Range status and errors

Selected range

Filename G:\Rips by Alder\Frank sinatra - Hello Frank - Come Dance With Me (CD11).wav

Peak level 98.8 %
Extraction speed 7.1 X
Range quality 100.0 %
Test CRC FC4FC6F6
Copy CRC FC4FC6F6
Copy OK

No errors occurred


AccurateRip summary

Track 1 not present in database
Track 2 not present in database
Track 3 not present in database
Track 4 not present in database
Track 5 not present in database
Track 6 not present in database
Track 7 not present in database
Track 8 not present in database
Track 9 not present in database
Track 10 not present in database
Track 11 not present in database
Track 12 not present in database
Track 13 not present in database
Track 14 not present in database

None of the tracks are present in the AccurateRip database

End of status report

–– CUETools DB Plugin V2.1.6

[CTDB TOCID: bmtskGTGRXLs54UZyBgYVRReMew-] found
Submit result: bmtskGTGRXLs54UZyBgYVRReMew- has been confirmed
Track | CTDB Status
1 | (1/1) Accurately ripped
2 | (1/1) Accurately ripped
3 | (1/1) Accurately ripped
4 | (1/1) Accurately ripped
5 | (1/1) Accurately ripped
6 | (1/1) Accurately ripped
7 | (1/1) Accurately ripped
8 | (1/1) Accurately ripped
9 | (1/1) Accurately ripped
10 | (1/1) Accurately ripped
11 | (1/1) Accurately ripped
12 | (1/1) Accurately ripped
13 | (1/1) Accurately ripped
14 | (1/1) Accurately ripped


==== Log checksum B335322A45AE31C76A8C3C36424AF6985F87323A666A5A7AAE6F9E8AB5915E87 ====

Track List CD12 - Tea For Two:

01. Let's Get Away From It All [0:05:01.50]
02. All Nothing At All [0:02:57.62]
03. Why Was I Born [0:02:43.72]
04. Devil May Care [0:03:09.35]
05. From Here To Eternity [0:03:00.63]
06. I Couldn't Sleep A Wink Last Night [0:03:26.36]
07. S'posin [0:02:50.04]
08. It Easy To Remember [0:03:35.11]
09. Tea For Two [0:02:43.03]
10. Love Me As I Am [0:03:11.12]
11. Long Ago And Far Away [0:02:36.08]
12. It's Funny To Everyone But Me [0:02:57.07]
13. Where Is My Bess [0:03:03.31]
14. Mightly Like Rose [0:03:25.41]

Exact Audio Copy V1.2 from 12. August 2016

EAC extraction logfile from 31. January 2018, 16:32

Frank Sinatra / Hello Frank - Tea For Two (CD12)

Used drive : HL-DT-STBD-RE BH10LS38 Adapter: 1 ID: 1

Read mode : Secure
Utilize accurate stream : Yes
Defeat audio cache : Yes
Make use of C2 pointers : No

Read offset correction : 667
Overread into Lead-In and Lead-Out : No
Fill up missing offset samples with silence : Yes
Delete leading and trailing silent blocks : No
Null samples used in CRC calculations : Yes
Used interface : Installed external ASPI interface

Used output format : User Defined Encoder
Selected bitrate : 128 kBit/s
Quality : High
Add ID3 tag : No
Command line compressor : C:\Program Files (x86)\Exact Audio Copy\wavpack-4.60.1\wavpack.exe
Additional command line options : -hm -w "Year=%year%" -w "Genre=%genre%" %source% %dest%


TOC of the extracted CD

Track | Start | Length | Start sector | End sector
––––––––––––––––––––––––––––-
1 | 0:00.00 | 5:01.50 | 0 | 22624
2 | 5:01.50 | 2:57.62 | 22625 | 35961
3 | 7:59.37 | 2:43.72 | 35962 | 48258
4 | 10:43.34 | 3:09.35 | 48259 | 62468
5 | 13:52.69 | 3:00.63 | 62469 | 76031
6 | 16:53.57 | 3:26.36 | 76032 | 91517
7 | 20:20.18 | 2:50.04 | 91518 | 104271
8 | 23:10.22 | 3:35.11 | 104272 | 120407
9 | 26:45.33 | 2:43.03 | 120408 | 132635
10 | 29:28.36 | 3:11.12 | 132636 | 146972
11 | 32:39.48 | 2:36.08 | 146973 | 158680
12 | 35:15.56 | 2:57.07 | 158681 | 171962
13 | 38:12.63 | 3:03.31 | 171963 | 185718
14 | 41:16.19 | 3:25.41 | 185719 | 201134


Range status and errors

Selected range

Filename G:\Rips by Alder\Frank Sinatra - Hello Frank - Tea For Two (CD12).wav

Peak level 98.8 %
Extraction speed 7.2 X
Range quality 100.0 %
Test CRC F4F15D19
Copy CRC F4F15D19
Copy OK

No errors occurred


AccurateRip summary

Track 1 not present in database
Track 2 not present in database
Track 3 not present in database
Track 4 not present in database
Track 5 not present in database
Track 6 not present in database
Track 7 not present in database
Track 8 not present in database
Track 9 not present in database
Track 10 not present in database
Track 11 not present in database
Track 12 not present in database
Track 13 not present in database
Track 14 not present in database

None of the tracks are present in the AccurateRip database

End of status report

–– CUETools DB Plugin V2.1.6

[CTDB TOCID: ww6eaezvmfLFShLvL2fvAZQry.8-] found
Submit result: ww6eaezvmfLFShLvL2fvAZQry.8- has been confirmed
Track | CTDB Status
1 | (1/1) Accurately ripped
2 | (1/1) Accurately ripped
3 | (1/1) Accurately ripped
4 | (1/1) Accurately ripped
5 | (1/1) Accurately ripped
6 | (1/1) Accurately ripped
7 | (1/1) Accurately ripped
8 | (1/1) Accurately ripped
9 | (1/1) Accurately ripped
10 | (1/1) Accurately ripped
11 | (1/1) Accurately ripped
12 | (1/1) Accurately ripped
13 | (1/1) Accurately ripped
14 | (1/1) Accurately ripped


==== Log checksum 8E3DA04C3CF73D6E06F038B90AE24C380ECF831899C3F33503458EA94FA1409A ====

All thanks go to Alder

>>> Frank Sinatra in my Blog <<<

DOWNLOAD: