Tags
Language
Tags

Frank Sinatra - Sinatra's Swingin' Session!!! (1961) [MFSL, 2013] (Re-up)

Posted By: gribovar
Frank Sinatra - Sinatra's Swingin' Session!!! (1961) [MFSL, 2013] (Re-up)

Frank Sinatra - Sinatra's Swingin' Session!!! (1961) [MFSL, 2013]
EAC Rip | WavPack (image+.cue+log) - 164 MB | MP3 CBR 320 kbps (LAME 3.93) - 62 MB | Covers - 23 MB
Genre: Vocal Jazz, Traditional Pop | RAR 3% Rec. | Label: Mobile Fidelity Sound Lab (UDSACD 2110)

Released in early 1961, Sinatra's Swingin' Session!!! is one of the last albums the Chairman of the Board made for Capitol before leaving for Reprise. Like most of Sinatra's Capitol recordings, this one shows the singer at the peak of his vocal and interpretive abilities. Nelson Riddle's hard-swinging arrangements of standards like Rodgers and Hart's "Blue Moon," Irving Berlin's "Always," and Cole Porter's "You Do Something to Me" would leave most vocalists in the dust, but Sinatra masters them without ever seeming to break a sweat.
Tracklist:
01. When You're Smiling
02. Blue Moon
03. S'posin'
04. It All Depends On You
05. It's Only A Paper Moon
06. My Blue Heaven
07. Should I
08. September In The Rain
09. Always
10. I Can't Believe That You're In Love With Me
11. I Concentrate On You
12. You Do Something To Me

Total time: 26:25

Exact Audio Copy V1.0 beta 3 from 29. August 2011

EAC extraction logfile from 12. April 2013, 20:50

Frank Sinatra / Sinatra's Swingin' Session [MFSL UDSACD 2111,2013]

Used drive : Optiarc DVD RW AD-7200S Adapter: 5 ID: 1

Read mode : Secure
Utilize accurate stream : Yes
Defeat audio cache : Yes
Make use of C2 pointers : No

Read offset correction : 48
Overread into Lead-In and Lead-Out : No
Fill up missing offset samples with silence : Yes
Delete leading and trailing silent blocks : No
Null samples used in CRC calculations : Yes
Used interface : Installed external ASPI interface

Used output format : User Defined Encoder
Selected bitrate : 1024 kBit/s
Quality : High
Add ID3 tag : No
Command line compressor : D:\Program Files (x86)\Exact Audio Copy\wavpack.exe
Additional command line options : -hlmx2 %source% %dest%


TOC of the extracted CD

Track | Start | Length | Start sector | End sector
––––––––––––––––––––––––––––-
1 | 0:00.00 | 2:02.17 | 0 | 9166
2 | 2:02.17 | 2:52.31 | 9167 | 22097
3 | 4:54.48 | 1:48.63 | 22098 | 30260
4 | 6:43.36 | 2:03.19 | 30261 | 39504
5 | 8:46.55 | 2:20.26 | 39505 | 50030
6 | 11:07.06 | 2:05.21 | 50031 | 59426
7 | 13:12.27 | 1:31.52 | 59427 | 66303
8 | 14:44.04 | 2:59.29 | 66304 | 79757
9 | 17:43.33 | 2:17.46 | 79758 | 90078
10 | 20:01.04 | 2:26.03 | 90079 | 101031
11 | 22:27.07 | 2:23.72 | 101032 | 111828
12 | 24:51.04 | 1:34.11 | 111829 | 118889


Range status and errors

Selected range

Filename D:\eac\Frank Sinatra 1\Frank Sinatra - Sinatra's Swingin' Session [MFSL UDSACD 2111,2013].wav

Peak level 100.0 %
Extraction speed 3.5 X
Range quality 100.0 %
Test CRC E572F1EF
Copy CRC E572F1EF
Copy OK

No errors occurred


AccurateRip summary

Track 1 not present in database
Track 2 not present in database
Track 3 not present in database
Track 4 not present in database
Track 5 not present in database
Track 6 not present in database
Track 7 not present in database
Track 8 not present in database
Track 9 not present in database
Track 10 not present in database
Track 11 not present in database
Track 12 not present in database

None of the tracks are present in the AccurateRip database

End of status report

–– CUETools DB Plugin V2.1.3

[CTDB TOCID: uaIGfdUtWVIWiAHaknJNOr9UfrY-] found, Submit result: uaIGfdUtWVIWiAHaknJNOr9UfrY- has been confirmed
[5cf6ab11] (3/3) Accurately ripped


==== Log checksum 227EBBBF16D0BA2609DD61EA89FE66182F3A98731C2D9E1013821796FB210777 ====

[CUETools log; Date: 29.11.2021 17:45:17; Version: 2.1.4]
[CTDB TOCID: uaIGfdUtWVIWiAHaknJNOr9UfrY-] found.
Track | CTDB Status
1 | (56/56) Accurately ripped
2 | (56/56) Accurately ripped
3 | (56/56) Accurately ripped
4 | (56/56) Accurately ripped
5 | (56/56) Accurately ripped
6 | (56/56) Accurately ripped
7 | (56/56) Accurately ripped
8 | (56/56) Accurately ripped
9 | (56/56) Accurately ripped
10 | (56/56) Accurately ripped
11 | (56/56) Accurately ripped
12 | (56/56) Accurately ripped
[AccurateRip ID: 000be08d-006ee3d7-a506310c] found.
Track [ CRC | V2 ] Status
01 [e341cbcd|a79f8049] (00+37/37) Accurately ripped
02 [df822262|7d9836a4] (00+37/37) Accurately ripped
03 [bd708bc9|e9a4393c] (00+37/37) Accurately ripped
04 [756caaa5|cd7d3bfc] (00+37/37) Accurately ripped
05 [05d9f026|9ae600a8] (00+37/37) Accurately ripped
06 [04a7b32b|0d151956] (00+37/37) Accurately ripped
07 [533b3090|8f317870] (00+37/37) Accurately ripped
08 [9b7c2fb8|3c096e1c] (00+37/37) Accurately ripped
09 [fb4b27a2|84b0d645] (00+37/37) Accurately ripped
10 [45d01ff2|e095baf3] (00+37/37) Accurately ripped
11 [f2809a43|3632168e] (00+37/37) Accurately ripped
12 [d45b9283|99ab1743] (00+37/37) Accurately ripped

Track Peak [ CRC32 ] [W/O NULL] [ LOG ]
– 100,0 [E572F1EF] [6C85F52C] CRC32
01 97,9 [6D812EF7] [84C1140F]
02 100,0 [81E3A1D6] [D35C86E0]
03 95,9 [D0444F59] [F7A18035]
04 98,3 [156CC96C] [C97D1975]
05 98,1 [FB4DC1A6] [C499D1A6]
06 97,8 [CFBC081D] [3C9BA889]
07 98,1 [C7905DE0] [A2318967]
08 97,5 [BF71991B] [1AA2B7F5]
09 95,6 [86B5D46B] [1F13B17F]
10 95,6 [C3BFF2FD] [B6085104]
11 96,6 [1425771C] [43830E23]
12 97,6 [9416A195] [8FDC441C]

Thanks to triGada

See also:
Frank Sinatra - Masterworks (The 1954-61 Albums) [9CD Box Set] (2014)
Frank Sinatra - No One Cares (1959) [MFSL, 2013]
Frank Sinatra & Count Basi... Historic Musical First (1962)
Tommy Dorsey & Frank Sinat...er [Recorded 1939-1940] (1991)
Frank Sinatra - Sinatra '57 - In Concert [DCC 24 KT Gold CD] (1999)
Frank Sinatra - The Best LPs 1954-1962 [10CD Box Set] (2015)