Subcategories

Frank Sinatra - The Great American Songbook (2007)

Posted By: ciklon5
Frank Sinatra - The Great American Songbook (2007)

Frank Sinatra - The Great American Songbook (2007)
FLAC (track+cue+log) | 2:26:35 | 774 Mb
Genre: Easy Listening, Big Band, Swing / Label: Not Now Music

It is hard to overestimate the importance of Fank Sinatra in the development of American Music. The recordings featured here were all recorded in the 1950s. The composers Frank favoured in this period were those who compiled what we now know as the American Songbook: The Gershwins, Cole Porter, Rodgers And Hart, Arlen And Harburg… Ol' Blue Eyes was setting standards the likes of Rod Stewart today can only dream of approaching.

Track List:

1-1 I've Got You Under My Skin
1-2 I Get A Kick Out Of You
1-3 My Funny Valentine
1-4 Young At Heart
1-5 Three Coins In The Fountain
1-6 Love And Marriage
1-7 You Make Me Feel So Young
1-8 (Love Is) The Tender Trap
1-9 Don't Worry 'Bout Me
1-10 I've Got The World On A String
1-11 The Girl Next Door
1-12 They Can'tTake That Away From Me
1-13 The Gal That Got Away
1-14 Jeepers Creepers
1-15 How About You?
1-16 Anything Goes
1-17 Pennies From Heaven
1-18 Love Is Here To Stay
1-19 Violets For Your Furs
1-20 Someone To Watch Over Me
1-21 I Thought About You
1-22 We'll Be Together Again
1-23 Makin' Whoopee
1-24 From Here To Eternity
1-25 South Of The Border

2-1 Taking A Chance On Love
2-2 Just One Of Those Things
2-3 A Foggy Day (In London Town)
2-4 In The Wee Small Hours Of The Morning
2-5 Rain (Falling From The Skies)
2-6 You Brought A New Kind Of Love To Me
2-7 Too Marvellous For Words
2-8 Old Devil Moon
2-9 Mood Indigo
2-10 Swingin' Down The Lane
2-11 My One And Only Love
2-12 It Happened In Monterey
2-13 You're Getting To Be A Habit With Me
2-14 Learnin' The Blues
2-15 April In Paris
2-16 Nevertheless (I'm In Love With You)
2-17 I Could Write A Book
2-18 Deep Night
2-19 The Birth Of The Blues
2-20 You Do Something To Me
2-21 We Kiss In A Shadow
2-22 Lover
2-23 (Should I) Reveal
2-24 I Guess I'll Have To Dream The Rest
2-25 When You're Smiling (The Whole World Smiles With You)

Exact Audio Copy V0.99 prebeta 2 from 28. July 2007

EAC extraction logfile from 17. August 2013, 16:09

Frank Sinatra / The Great American Songbook [Disc 1]

Used drive : TSSTcorpCDDVDW SH-S202J Adapter: 0 ID: 0

Read mode : Secure
Utilize accurate stream : Yes
Defeat audio cache : Yes
Make use of C2 pointers : No

Read offset correction : 0
Overread into Lead-In and Lead-Out : No
Fill up missing offset samples with silence : Yes
Delete leading and trailing silent blocks : No
Null samples used in CRC calculations : Yes
Used interface : Native Win32 interface for Win NT & 2000
Gap handling : Appended to previous track

Used output format : User Defined Encoder
Selected bitrate : 768 kBit/s
Quality : High
Add ID3 tag : No
Command line compressor : C:\Program Files\Exact Audio Copy\FLAC\FLAC.EXE
Additional command line options : -V -8 -T "artist=%a" -T "title=%t" -T "album=%g" -T "date=%y" -T "tracknumber=%n" -T "genre=%m" %s


TOC of the extracted CD

Track | Start | Length | Start sector | End sector
––––––––––––––––––––––––––––-
1 | 0:00.00 | 3:47.06 | 0 | 17030
2 | 3:47.06 | 2:57.34 | 17031 | 30339
3 | 6:44.40 | 2:34.08 | 30340 | 41897
4 | 9:18.48 | 2:52.59 | 41898 | 54856
5 | 12:11.32 | 3:06.62 | 54857 | 68868
6 | 15:18.19 | 2:41.11 | 68869 | 80954
7 | 17:59.30 | 2:57.69 | 80955 | 94298
8 | 20:57.24 | 3:01.69 | 94299 | 107942
9 | 23:59.18 | 3:11.65 | 107943 | 122332
10 | 27:11.08 | 2:13.22 | 122333 | 132329
11 | 29:24.30 | 2:40.29 | 132330 | 144358
12 | 32:04.59 | 1:59.71 | 144359 | 153354
13 | 34:04.55 | 3:13.34 | 153355 | 167863
14 | 37:18.14 | 2:24.20 | 167864 | 178683
15 | 39:42.34 | 2:48.48 | 178684 | 191331
16 | 42:31.07 | 2:44.32 | 191332 | 203663
17 | 45:15.39 | 2:44.09 | 203664 | 215972
18 | 47:59.48 | 2:42.37 | 215973 | 228159
19 | 50:42.10 | 3:08.33 | 228160 | 242292
20 | 53:50.43 | 2:59.03 | 242293 | 255720
21 | 56:49.46 | 2:31.24 | 255721 | 267069
22 | 59:20.70 | 4:28.03 | 267070 | 287172
23 | 63:48.73 | 3:06.32 | 287173 | 301154
24 | 66:55.30 | 3:00.69 | 301155 | 314723
25 | 69:56.24 | 2:52.25 | 314724 | 327648


Track 1

Filename G:\EAC\Frank Sinatra - The Great American Songbook\Disc 1\01. I've Got You Under My Skin.wav

Pre-gap length 0:00:02.00

Peak level 97.5 %
Track quality 100.0 %
Test CRC 851A0AA4
Copy CRC 851A0AA4
Copy OK

Track 2

Filename G:\EAC\Frank Sinatra - The Great American Songbook\Disc 1\02. I Get A Kick Of You.wav

Pre-gap length 0:00:01.77

Peak level 97.2 %
Track quality 100.0 %
Test CRC EEDC8BF0
Copy CRC EEDC8BF0
Copy OK

Track 3

Filename G:\EAC\Frank Sinatra - The Great American Songbook\Disc 1\03. My Funny Valentine.wav

Pre-gap length 0:00:01.77

Peak level 96.4 %
Track quality 100.0 %
Test CRC 69106025
Copy CRC 69106025
Copy OK

Track 4

Filename G:\EAC\Frank Sinatra - The Great American Songbook\Disc 1\04. Young At Heart.wav

Pre-gap length 0:00:01.77

Peak level 97.3 %
Track quality 100.0 %
Test CRC 63B89D29
Copy CRC 63B89D29
Copy OK

Track 5

Filename G:\EAC\Frank Sinatra - The Great American Songbook\Disc 1\05. Three Coins In The Fountain.wav

Pre-gap length 0:00:01.77

Peak level 80.3 %
Track quality 100.0 %
Test CRC 433ACE78
Copy CRC 433ACE78
Copy OK

Track 6

Filename G:\EAC\Frank Sinatra - The Great American Songbook\Disc 1\06. Love And Marriage.wav

Pre-gap length 0:00:01.77

Peak level 97.3 %
Track quality 100.0 %
Test CRC 16745087
Copy CRC 16745087
Copy OK

Track 7

Filename G:\EAC\Frank Sinatra - The Great American Songbook\Disc 1\07. You Make Me Feel So Young.wav

Pre-gap length 0:00:01.77

Peak level 97.5 %
Track quality 100.0 %
Test CRC 79D94CBB
Copy CRC 79D94CBB
Copy OK

Track 8

Filename G:\EAC\Frank Sinatra - The Great American Songbook\Disc 1\08. (Love Is) The Tender Trap.wav

Pre-gap length 0:00:01.77

Peak level 97.4 %
Track quality 100.0 %
Test CRC 133328DF
Copy CRC 133328DF
Copy OK

Track 9

Filename G:\EAC\Frank Sinatra - The Great American Songbook\Disc 1\09. Don't Worry 'Bout Me.wav

Pre-gap length 0:00:01.77

Peak level 96.7 %
Track quality 100.0 %
Test CRC 0500C3F1
Copy CRC 0500C3F1
Copy OK

Track 10

Filename G:\EAC\Frank Sinatra - The Great American Songbook\Disc 1\10. I've Got The World On A String.wav

Pre-gap length 0:00:01.77

Peak level 98.2 %
Track quality 100.0 %
Test CRC 57352BEE
Copy CRC 57352BEE
Copy OK

Track 11

Filename G:\EAC\Frank Sinatra - The Great American Songbook\Disc 1\11. The Girl Next Door.wav

Pre-gap length 0:00:01.77

Peak level 97.0 %
Track quality 99.9 %
Test CRC C715EECA
Copy CRC C715EECA
Copy OK

Track 12

Filename G:\EAC\Frank Sinatra - The Great American Songbook\Disc 1\12. They Can't Take That Away From Me.wav

Pre-gap length 0:00:01.77

Peak level 96.9 %
Track quality 100.0 %
Test CRC AF624E6E
Copy CRC AF624E6E
Copy OK

Track 13

Filename G:\EAC\Frank Sinatra - The Great American Songbook\Disc 1\13. The Gal That Got Away.wav

Pre-gap length 0:00:01.77

Peak level 96.9 %
Track quality 100.0 %
Test CRC 18F61370
Copy CRC 18F61370
Copy OK

Track 14

Filename G:\EAC\Frank Sinatra - The Great American Songbook\Disc 1\14. Jeepers Creepers.wav

Pre-gap length 0:00:01.77

Peak level 97.1 %
Track quality 100.0 %
Test CRC 1AB75387
Copy CRC 1AB75387
Copy OK

Track 15

Filename G:\EAC\Frank Sinatra - The Great American Songbook\Disc 1\15. How About You .wav

Pre-gap length 0:00:01.77

Peak level 97.7 %
Track quality 100.0 %
Test CRC C14BBF7E
Copy CRC C14BBF7E
Copy OK

Track 16

Filename G:\EAC\Frank Sinatra - The Great American Songbook\Disc 1\16. Anything Goes.wav

Pre-gap length 0:00:01.77

Peak level 97.7 %
Track quality 100.0 %
Test CRC B0B64565
Copy CRC B0B64565
Copy OK

Track 17

Filename G:\EAC\Frank Sinatra - The Great American Songbook\Disc 1\17. Pennies From Heaven.wav

Pre-gap length 0:00:01.77

Peak level 97.6 %
Track quality 100.0 %
Test CRC B022B686
Copy CRC B022B686
Copy OK

Track 18

Filename G:\EAC\Frank Sinatra - The Great American Songbook\Disc 1\18. Love Is Here To Stay.wav

Pre-gap length 0:00:01.77

Peak level 97.5 %
Track quality 100.0 %
Test CRC A804A21B
Copy CRC A804A21B
Copy OK

Track 19

Filename G:\EAC\Frank Sinatra - The Great American Songbook\Disc 1\19. Violets For Your Furs.wav

Pre-gap length 0:00:01.77

Peak level 97.2 %
Track quality 100.0 %
Test CRC 02C0C344
Copy CRC 02C0C344
Copy OK

Track 20

Filename G:\EAC\Frank Sinatra - The Great American Songbook\Disc 1\20. Someone To Watch Over Me.wav

Pre-gap length 0:00:01.77

Peak level 87.0 %
Track quality 100.0 %
Test CRC E8111A51
Copy CRC E8111A51
Copy OK

Track 21

Filename G:\EAC\Frank Sinatra - The Great American Songbook\Disc 1\21. I Thought About You.wav

Pre-gap length 0:00:01.77

Peak level 97.6 %
Track quality 100.0 %
Test CRC 87771EDD
Copy CRC 87771EDD
Copy OK

Track 22

Filename G:\EAC\Frank Sinatra - The Great American Songbook\Disc 1\22. We'll Be Together Again.wav

Pre-gap length 0:00:01.77

Peak level 97.4 %
Track quality 100.0 %
Test CRC 261A2BEE
Copy CRC 261A2BEE
Copy OK

Track 23

Filename G:\EAC\Frank Sinatra - The Great American Songbook\Disc 1\23. Makin' Whoopee.wav

Pre-gap length 0:00:01.77

Peak level 97.7 %
Track quality 100.0 %
Test CRC 37F6C14E
Copy CRC 37F6C14E
Copy OK

Track 24

Filename G:\EAC\Frank Sinatra - The Great American Songbook\Disc 1\24. From Here To Eternity.wav

Pre-gap length 0:00:01.77

Peak level 97.3 %
Track quality 100.0 %
Test CRC AAD64B00
Copy CRC AAD64B00
Copy OK

Track 25

Filename G:\EAC\Frank Sinatra - The Great American Songbook\Disc 1\25. South Of The Border.wav

Pre-gap length 0:00:01.77

Peak level 97.4 %
Track quality 99.9 %
Test CRC 9C73819D
Copy CRC 9C73819D
Copy OK

No errors occurred

End of status report

Exact Audio Copy V0.99 prebeta 2 from 28. July 2007

EAC extraction logfile from 17. August 2013, 16:45

Frank Sinatra / The Great American Songbook [Disc 2]

Used drive : TSSTcorpCDDVDW SH-S202J Adapter: 0 ID: 0

Read mode : Secure
Utilize accurate stream : Yes
Defeat audio cache : Yes
Make use of C2 pointers : No

Read offset correction : 0
Overread into Lead-In and Lead-Out : No
Fill up missing offset samples with silence : Yes
Delete leading and trailing silent blocks : No
Null samples used in CRC calculations : Yes
Used interface : Native Win32 interface for Win NT & 2000
Gap handling : Appended to previous track

Used output format : User Defined Encoder
Selected bitrate : 768 kBit/s
Quality : High
Add ID3 tag : No
Command line compressor : C:\Program Files\Exact Audio Copy\FLAC\FLAC.EXE
Additional command line options : -V -8 -T "artist=%a" -T "title=%t" -T "album=%g" -T "date=%y" -T "tracknumber=%n" -T "genre=%m" %s


TOC of the extracted CD

Track | Start | Length | Start sector | End sector
––––––––––––––––––––––––––––-
1 | 0:00.00 | 2:16.00 | 0 | 10199
2 | 2:16.00 | 3:16.42 | 10200 | 24941
3 | 5:32.42 | 2:40.04 | 24942 | 36945
4 | 8:12.46 | 3:03.06 | 36946 | 50676
5 | 11:15.52 | 3:26.35 | 50677 | 66161
6 | 14:42.12 | 2:49.50 | 66162 | 78886
7 | 17:31.62 | 2:30.65 | 78887 | 90201
8 | 20:02.52 | 3:57.68 | 90202 | 108044
9 | 24:00.45 | 3:35.74 | 108045 | 124243
10 | 27:36.44 | 2:55.67 | 124244 | 137435
11 | 30:32.36 | 3:16.55 | 137436 | 152190
12 | 33:49.16 | 2:38.27 | 152191 | 164067
13 | 36:27.43 | 2:19.47 | 164068 | 174539
14 | 38:47.15 | 3:04.56 | 174540 | 188395
15 | 41:51.71 | 2:44.34 | 188396 | 200729
16 | 44:36.30 | 3:09.32 | 200730 | 214936
17 | 47:45.62 | 2:43.64 | 214937 | 227225
18 | 50:29.51 | 3:16.19 | 227226 | 241944
19 | 53:45.70 | 3:29.06 | 241945 | 257625
20 | 57:15.01 | 2:34.74 | 257626 | 269249
21 | 59:50.00 | 3:37.09 | 269250 | 285533
22 | 63:27.09 | 2:40.56 | 285534 | 297589
23 | 66:07.65 | 2:25.30 | 297590 | 308494
24 | 68:33.20 | 2:43.14 | 308495 | 320733
25 | 71:16.34 | 2:30.34 | 320734 | 332017


Track 1

Filename G:\EAC\Frank Sinatra - The Great American Songbook\Disc 2\01. Taking A Chance On Love.wav

Pre-gap length 0:00:02.00

Peak level 97.1 %
Track quality 100.0 %
Test CRC BFFB5E34
Copy CRC BFFB5E34
Copy OK

Track 2

Filename G:\EAC\Frank Sinatra - The Great American Songbook\Disc 2\02. Just One Of Those Things.wav

Pre-gap length 0:00:01.76

Peak level 96.0 %
Track quality 99.9 %
Test CRC AFCB2AB7
Copy CRC AFCB2AB7
Copy OK

Track 3

Filename G:\EAC\Frank Sinatra - The Great American Songbook\Disc 2\03. A Foggy Day [In London Town].wav

Pre-gap length 0:00:01.77

Peak level 96.8 %
Track quality 99.9 %
Test CRC 4B0A23AF
Copy CRC 4B0A23AF
Copy OK

Track 4

Filename G:\EAC\Frank Sinatra - The Great American Songbook\Disc 2\04. In The Wee Small Hours Of The Morning.wav

Pre-gap length 0:00:01.77

Peak level 96.6 %
Track quality 100.0 %
Test CRC 0AF8C06E
Copy CRC 0AF8C06E
Copy OK

Track 5

Filename G:\EAC\Frank Sinatra - The Great American Songbook\Disc 2\05. Rain (Falling From The Skies).wav

Pre-gap length 0:00:01.77

Peak level 97.3 %
Track quality 100.0 %
Test CRC 944432F4
Copy CRC 944432F4
Copy OK

Track 6

Filename G:\EAC\Frank Sinatra - The Great American Songbook\Disc 2\06. You Brought A New Kind Of Love To Me.wav

Pre-gap length 0:00:01.77

Peak level 97.7 %
Track quality 99.9 %
Test CRC BA445650
Copy CRC BA445650
Copy OK

Track 7

Filename G:\EAC\Frank Sinatra - The Great American Songbook\Disc 2\07. Too Marvellous For Words.wav

Pre-gap length 0:00:01.77

Peak level 97.1 %
Track quality 100.0 %
Test CRC EE79F5B8
Copy CRC EE79F5B8
Copy OK

Track 8

Filename G:\EAC\Frank Sinatra - The Great American Songbook\Disc 2\08. Old Devil Moon.wav

Pre-gap length 0:00:01.77

Peak level 97.7 %
Track quality 100.0 %
Test CRC 60B09258
Copy CRC 60B09258
Copy OK

Track 9

Filename G:\EAC\Frank Sinatra - The Great American Songbook\Disc 2\09. Mood Indigo.wav

Pre-gap length 0:00:01.77

Peak level 97.4 %
Track quality 100.0 %
Test CRC 0A12E949
Copy CRC 0A12E949
Copy OK

Track 10

Filename G:\EAC\Frank Sinatra - The Great American Songbook\Disc 2\10. Swingin' Down The Lane.wav

Pre-gap length 0:00:01.77

Peak level 97.7 %
Track quality 100.0 %
Test CRC 7395AF11
Copy CRC 7395AF11
Copy OK

Track 11

Filename G:\EAC\Frank Sinatra - The Great American Songbook\Disc 2\11. My One And Only Love.wav

Pre-gap length 0:00:01.77

Peak level 97.0 %
Track quality 100.0 %
Test CRC B5A4CECA
Copy CRC B5A4CECA
Copy OK

Track 12

Filename G:\EAC\Frank Sinatra - The Great American Songbook\Disc 2\12. It Happened In Monterey.wav

Pre-gap length 0:00:01.77

Peak level 97.4 %
Track quality 100.0 %
Test CRC 4DA51A8E
Copy CRC 4DA51A8E
Copy OK

Track 13

Filename G:\EAC\Frank Sinatra - The Great American Songbook\Disc 2\13. You're Getting To Be A Habit With Me.wav

Pre-gap length 0:00:01.77

Peak level 96.4 %
Track quality 100.0 %
Test CRC B50F7E13
Copy CRC B50F7E13
Copy OK

Track 14

Filename G:\EAC\Frank Sinatra - The Great American Songbook\Disc 2\14. Learnin' The Blues.wav

Pre-gap length 0:00:01.77

Peak level 98.6 %
Track quality 100.0 %
Test CRC 37C9820D
Copy CRC 37C9820D
Copy OK

Track 15

Filename G:\EAC\Frank Sinatra - The Great American Songbook\Disc 2\15. April In Paris.wav

Pre-gap length 0:00:01.77

Peak level 96.7 %
Track quality 100.0 %
Test CRC 4C45D6E9
Copy CRC 4C45D6E9
Copy OK

Track 16

Filename G:\EAC\Frank Sinatra - The Great American Songbook\Disc 2\16. Nevertheless [I'm In Love With You].wav

Pre-gap length 0:00:01.77

Peak level 97.0 %
Track quality 100.0 %
Test CRC C65104D3
Copy CRC C65104D3
Copy OK

Track 17

Filename G:\EAC\Frank Sinatra - The Great American Songbook\Disc 2\17. I Could Write A Book.wav

Pre-gap length 0:00:01.77

Peak level 95.8 %
Track quality 100.0 %
Test CRC 8F020465
Copy CRC 8F020465
Copy OK

Track 18

Filename G:\EAC\Frank Sinatra - The Great American Songbook\Disc 2\18. Deep Night.wav

Pre-gap length 0:00:01.77

Peak level 98.8 %
Track quality 99.9 %
Test CRC BFC1148D
Copy CRC BFC1148D
Copy OK

Track 19

Filename G:\EAC\Frank Sinatra - The Great American Songbook\Disc 2\19. The Birth Of The Blues.wav

Pre-gap length 0:00:01.77

Peak level 96.5 %
Track quality 100.0 %
Test CRC D0E86258
Copy CRC D0E86258
Copy OK

Track 20

Filename G:\EAC\Frank Sinatra - The Great American Songbook\Disc 2\20. You Do Something To Me.wav

Pre-gap length 0:00:01.77

Peak level 96.8 %
Track quality 100.0 %
Test CRC A801FA55
Copy CRC A801FA55
Copy OK

Track 21

Filename G:\EAC\Frank Sinatra - The Great American Songbook\Disc 2\21. We Kiss In A Shadow.wav

Pre-gap length 0:00:01.77

Peak level 96.8 %
Track quality 100.0 %
Test CRC 29BEF01E
Copy CRC 29BEF01E
Copy OK

Track 22

Filename G:\EAC\Frank Sinatra - The Great American Songbook\Disc 2\22. Lover.wav

Pre-gap length 0:00:01.77

Peak level 97.1 %
Track quality 99.9 %
Test CRC EE8F004A
Copy CRC EE8F004A
Copy OK

Track 23

Filename G:\EAC\Frank Sinatra - The Great American Songbook\Disc 2\23. [Should I] Reveal.wav

Pre-gap length 0:00:01.77

Peak level 96.8 %
Track quality 100.0 %
Test CRC 1486988A
Copy CRC 1486988A
Copy OK

Track 24

Filename G:\EAC\Frank Sinatra - The Great American Songbook\Disc 2\24. I Guess I'll Have To Dream The Rest.wav

Pre-gap length 0:00:01.77

Peak level 97.6 %
Track quality 100.0 %
Test CRC C7105D63
Copy CRC C7105D63
Copy OK

Track 25

Filename G:\EAC\Frank Sinatra - The Great American Songbook\Disc 2\25. When You're Smiling [The Whole World Smiles With You].wav

Pre-gap length 0:00:01.77

Peak level 98.8 %
Track quality 99.9 %
Test CRC 85039D95
Copy CRC 85039D95
Copy OK

No errors occurred

End of status report