Subcategories

Frank Sinatra, Dean Martin, Sammy Daivs, Jr. - The Summit: In Concert (1999) [DCC Compact Classics ARZ-102-2]

Posted By: flac jacket
Frank Sinatra, Dean Martin, Sammy Daivs, Jr. - The Summit: In Concert (1999) [DCC Compact Classics ARZ-102-2]

Frank Sinatra, Dean Martin, Sammy Daivs, Jr. - The Summit: In Concert (1999) [DCC Compact Classics ARZ-102-2]
EAC Secure Rip | FLAC (Image + Cue + Log) - 457 MB | Complete Scans (Jpeg 600 dpi) - 160 MB | MP3 (CBR320 Kbps) - 193 MB
Vocal, Pop, Standards | DCC Compact Classics | ARZ-102-2 | 78:45 minutes | 5% WinRar Recovery | Hosted on: Uploaded & FilePost

Debut release on the Sinatra Family's Artanis label (through DCC), a stunning stereo live recording featuring Frank Sinatra alongside his singing Rat Pack buddies Dean Martin and Sammy Davis Jr. performing at the Villa Venice in Chicago in November 1962. Digitally remastered from the original tapes and pressed on a 24 karat gold disc, it features 20 tracks clocking in at an amazing 79 minutes. Each copy is individually numbered. Comes packaged in a standard jewel case within a colorful die-cut slipcase cover with the CD booklet hidden inside.

After kicking around for years on bootlegs and unofficial releases (notably Jazz Hour's two-CD version, At Villa Venice, Chicago Live 1962), this tape of a live performance from a notorious set of nightclub shows by Frank Sinatra, Dean Martin, and Sammy Davis, Jr., has been edited down to one 78-and-a-half-minute CD for release on producer Tina Sinatra's Artanis Entertainment Group. In the wake of the deaths of the three principals in the 1990s, much has been made of their comic, boozy Rat Pack of the late '50s and early '60s, and this is the definitive aural document of it. Martin opens with a series of song parodies and hits, followed by a relatively straight Sinatra set and a Davis performance that is interrupted after a couple of songs by his partners. The three then launch into a 45-minute musical comedy act including jokes, insults, impressions, and more songs. None of it sounds as spontaneous as these shows supposedly were (odds are Sammy Cahn wrote all the parody lyrics), nor all that funny, actually. Maybe it all sounds better if you're drunk, but if these guys weren't so famous, they'd be awful boors. The attraction to this aspect of each artist's persona has always been campy, a sort of "so bad it's good" appeal. It's understandable that Tina Sinatra would want to capitalize on it and to enable the Sinatra family to profit from a recording that they own. But it is to be hoped that subsequent Artanis releases will take another tack. Reviewed by William Ruhlmann allmusic.com

Exact Audio Copy V1.0 beta 2 from 29. April 2011

EAC extraction logfile from 16. December 2012, 16:37

Frank Sinatra, Dean Martin, Sammy Davis, Jr. / The Summit: In Concert [DCC Compact Classics ARZ-102-2]

Used drive : HL-DT-STDVDRAM GH60N Adapter: 0 ID: 1

Read mode : Secure
Utilize accurate stream : Yes
Defeat audio cache : Yes
Make use of C2 pointers : No

Read offset correction : 667
Overread into Lead-In and Lead-Out : No
Fill up missing offset samples with silence : Yes
Delete leading and trailing silent blocks : No
Null samples used in CRC calculations : Yes
Used interface : Native Win32 interface for Win NT & 2000

Used output format : User Defined Encoder
Selected bitrate : 1024 kBit/s
Quality : High
Add ID3 tag : No
Command line compressor : C:\Program Files (x86)\Exact Audio Copy\Flac\flac.exe
Additional command line options : -V -8 -T "artist=%albumartist%" -T "title=%title%" -T "album=%albumtitle%" -T "date=%year%" -T "genre=%genre%" -T

"tracknumber=%tracknr%" %source%


TOC of the extracted CD

Track | Start | Length | Start sector | End sector
––––––––––––––––––––––––––––-
1 | 0:00.00 | 0:58.42 | 0 | 4391
2 | 0:58.42 | 4:06.45 | 4392 | 22886
3 | 5:05.12 | 3:17.33 | 22887 | 37694
4 | 8:22.45 | 1:49.60 | 37695 | 45929
5 | 10:12.30 | 2:27.50 | 45930 | 57004
6 | 12:40.05 | 1:34.05 | 57005 | 64059
7 | 14:14.10 | 2:15.57 | 64060 | 74241
8 | 16:29.67 | 2:38.73 | 74242 | 86164
9 | 19:08.65 | 1:34.05 | 86165 | 93219
10 | 20:42.70 | 2:29.00 | 93220 | 104394
11 | 23:11.70 | 3:52.25 | 104395 | 121819
12 | 27:04.20 | 3:18.15 | 121820 | 136684
13 | 30:22.35 | 3:48.47 | 136685 | 153831
14 | 34:11.07 | 5:48.53 | 153832 | 179984
15 | 39:59.60 | 6:37.55 | 179985 | 209814
16 | 46:37.40 | 18:26.25 | 209815 | 292789
17 | 65:03.65 | 3:29.17 | 292790 | 308481
18 | 68:33.07 | 2:29.00 | 308482 | 319656
19 | 71:02.07 | 3:04.62 | 319657 | 333518
20 | 74:06.69 | 4:36.63 | 333519 | 354281


Range status and errors

Selected range

Filename C:\EAC\Frank Sinatra, Dean Martin, Sammy Daivs, Jr. - (1999) The Summit- In Concert [DCC Compact Classics ARZ-102-2]\Frank Sinatra,

Dean Martin, Sammy Davis, Jr. - The Summit- In Concert [DCC Compact Classics ARZ-102-2].wav

Peak level 97.8 %
Extraction speed 2.1 X
Range quality 99.9 %
Test CRC 393273D2
Copy CRC 393273D2
Copy OK

No errors occurred


AccurateRip summary

Track 1 accurately ripped (confidence 3) [E418AD6F] (AR v2)
Track 2 accurately ripped (confidence 3) [DB855215] (AR v2)
Track 3 accurately ripped (confidence 3) [5A269854] (AR v2)
Track 4 accurately ripped (confidence 3) [E71BE9EC] (AR v2)
Track 5 accurately ripped (confidence 3) [BFB2E21E] (AR v2)
Track 6 accurately ripped (confidence 3) [1DBBC80E] (AR v2)
Track 7 accurately ripped (confidence 3) [AFEBED7D] (AR v2)
Track 8 accurately ripped (confidence 3) [D2921DD2] (AR v2)
Track 9 accurately ripped (confidence 3) [6700F41B] (AR v2)
Track 10 accurately ripped (confidence 3) [F0B6F605] (AR v2)
Track 11 accurately ripped (confidence 3) [F0DBBAE5] (AR v2)
Track 12 accurately ripped (confidence 3) [1A76FB2E] (AR v2)
Track 13 accurately ripped (confidence 3) [CDCBCB41] (AR v2)
Track 14 accurately ripped (confidence 3) [3C172691] (AR v2)
Track 15 accurately ripped (confidence 3) [014B7034] (AR v2)
Track 16 accurately ripped (confidence 3) [6BBB2CA1] (AR v2)
Track 17 accurately ripped (confidence 3) [9F6C51B1] (AR v2)
Track 18 accurately ripped (confidence 3) [D7B15E04] (AR v2)
Track 19 accurately ripped (confidence 3) [1CF96068] (AR v2)
Track 20 accurately ripped (confidence 3) [E9F1440F] (AR v2)

All tracks accurately ripped

End of status report

==== Log checksum 7AC2D01DE35CC0061DB6B0EF9FC8D959D4923BBB1402834C6C845C0239A49952 ====


Track Listing:

01. (Fanfare & Introduction)
02. Medley: When You're Smiling/The Lady Is A Tramp
03. (I Left My Heart In) San Francisco
04. I'm Gonna Sit Right Down And Write Myself A Letter
05. Medley: Volare (Nel Blu Dipinto Di Blu)/An Evening In Roma
06. Goody Goody
07. Chicago
08. When Your Lover Has Gone
09. (Monologue)
10. You're Nobody 'Til Somebody Loves You
11. Out Of This World
12. What Kind Of Fool Am I
13. Medley: She's Funny That Way/Hey There
14. (Impressions Of Singers)/All the Way
15. ('A Toast'/Movie Routine)
16. Medley: I Can't Give You Anything But Love/Too Marvelous For Words/Pennies Fr…
17. (Impressions Of Actors)
18. The Birth Of the Blues
19. Me And My Shadow
20. Sam's Song/The Birth Of Blues

Recorded live at the Villa Venice, Chicago 1962
DCC CD Released: February 23, 1999


foobar2000 1.1.7 / Dynamic Range Meter 1.1.0
log date: 2013-01-10 00:17:54

––––––––––––––––––––––––––––––––––––––––
Analyzed: Frank Sinatra, Dean Martin, Sammy Davis, Jr. / The Summit: In Concert [DCC Compact Classics ARZ-102-2] (1)
Dean Martin / The Summit: In Concert [DCC Compact Classics ARZ-102-2] (2-5)
Frank Sinatra / The Summit: In Concert [DCC Compact Classics ARZ-102-2] (6-10)
Sammy Davis Jr. / The Summit: In Concert [DCC Compact Classics ARZ-102-2] (11-12)
Frank Sinatra, Dean Martin, Sammy Davis, Jr. / The Summit: In Concert [DCC Compact Classics ARZ-102-2] (13-18)
Frank Sinatra, Sammy Davis, Jr. / The Summit: In Concert [DCC Compact Classics ARZ-102-2] (19)
Dean Martin, Sammy Davis, Jr. / The Summit: In Concert [DCC Compact Classics ARZ-102-2] (20)
––––––––––––––––––––––––––––––––––––––––

DR Peak RMS Duration Track
––––––––––––––––––––––––––––––––––––––––
DR14 -2.64 dB -20.80 dB 0:59 01-(Fanfare & Introduction)
DR15 -0.33 dB -19.88 dB 4:07 02-Medley: When You're Smiling/The Lady Is A Tramp
DR14 -2.40 dB -22.64 dB 3:17 03-(I Left My Heart In) San Francisco
DR14 -0.24 dB -16.31 dB 1:50 04-I'm Gonna Sit Right Down And Write Myself A Letter
DR13 -2.16 dB -18.90 dB 2:28 05-Medley: Volare (Nel Blu Dipinto Di Blu)/An Evening In Roma
DR13 -2.85 dB -19.02 dB 1:34 06-Goody Goody
DR13 -0.50 dB -18.08 dB 2:16 07-Chicago
DR14 -6.68 dB -24.52 dB 2:39 08-When Your Lover Has Gone
DR16 -4.14 dB -28.14 dB 1:34 09-(Monologue)
DR12 -0.48 dB -16.63 dB 2:29 10-You're Nobody 'Til Somebody Loves You
DR13 -1.57 dB -17.83 dB 3:52 11-Out Of This World
DR14 -0.38 dB -19.59 dB 3:18 12-What Kind Of Fool Am I
DR14 -2.58 dB -22.37 dB 3:49 13-Medley: She's Funny That Way/Hey There
DR16 -0.49 dB -23.92 dB 5:49 14-(Impressions Of Singers)/All the Way
DR17 -3.03 dB -26.05 dB 6:38 15-('A Toast'/Movie Routine)
DR16 -0.61 dB -22.83 dB 18:26 16-Medley: I Can't Give You Anything But Love/Too Marvelous For Words/Pennies Fr…
DR15 -4.71 dB -25.17 dB 3:29 17-(Impressions Of Actors)
DR13 -0.57 dB -16.68 dB 2:29 18-The Birth Of the Blues
DR13 -0.19 dB -20.20 dB 3:05 19-Me And My Shadow
DR14 -0.29 dB -19.22 dB 4:37 20-Sam's Song/The Birth Of Blues
––––––––––––––––––––––––––––––––––––––––

Number of tracks: 20
Official DR value: DR14

Samplerate: 44100 Hz
Channels: 2
Bits per sample: 16
Bitrate: 772 kbps
Codec: FLAC
================================================================================

Frank Sinatra, Dean Martin, Sammy Daivs, Jr. - The Summit: In Concert (1999) [DCC Compact Classics ARZ-102-2]

Ripped and Scanned from the Stadium Studios Library December 2012
5% WinRar Recovery