Subcategories

Fred Nardin Trio - Opening (2017) {Jazz Family}

Posted By: tiburon
Fred Nardin Trio - Opening (2017) {Jazz Family}

Fred Nardin Trio - Opening (2017) {Jazz Family}
EAC 1.3 | FLAC tracks level 8 | Cue+Log+M3U | Full Scans 300dpi | 379MB + 5% Recovery
MP3 CBR 320 Kbps | 169MB + 5% Recovery
Genre: Jazz, Post-Bop

Fred Nardin, the winner of the Prix Django Reinhardt 2016 of the French musician of the year, is a composer, musician, performer and an authentic Jazzman. His last album «Opening» features personal compositions and arrangements, was recorded with Leon Parker, a drummer with whom he has been playing for six years, as well as with Or Bareket, a promising bass player from New York. The terific playing of this Trio, their complicity, musicality and creativity make this album a marvel which ought to be on any jazz lover's shelf and will certainly lead to more successful enjoyable and vibrant albums together. A true sense of swing, groove, bop, with the elegance of the very few.
Track List
01. The Giant
02. Parisian Melodies
03. New Waltz
04. I Mean You
05. Don't Forget The Blues
06. Hope
07. Travel To
08. You'd Be So Nice To Come Home To
09. Lost In Your Eyes
10. Green Chimneys

musicians
Fred Nardin - piano
Or Bareket - double bass
Leon Parker - drums

Produced by Fred Nardin


Exact Audio Copy V1.3 from 2. September 2016

EAC extraction logfile from 13. March 2018, 18:12

Fred Nardin Trio / Opening

Used drive : ATAPI iHBS112 2 Adapter: 1 ID: 1

Read mode : Secure
Utilize accurate stream : Yes
Defeat audio cache : Yes
Make use of C2 pointers : No

Read offset correction : 6
Overread into Lead-In and Lead-Out : No
Fill up missing offset samples with silence : Yes
Delete leading and trailing silent blocks : No
Null samples used in CRC calculations : Yes
Used interface : Native Win32 interface for Win NT & 2000
Gap handling : Appended to previous track

Used output format : User Defined Encoder
Selected bitrate : 128 kBit/s
Quality : High
Add ID3 tag : No
Command line compressor : C:\Program Files (x86)\Exact Audio Copy\Flac\flac.exe
Additional command line options : -8 -V -T "ARTIST=%artist%" -T "TITLE=%title%" -T "ALBUM=%albumtitle%" -T "DATE=%year%" -T "TRACKNUMBER=%tracknr%" -T "GENRE=%genre%" -T "PERFORMER=%albuminterpret%" -T "COMPOSER=%composer%" -T "ALBUMARTIST=%albumartist%" -T "DISCNUMBER=%cdnumber%" -T "TOTALDISCS=%totalcds%" -T "TOTALTRACKS=%numtracks%" -T "COMMENT=EAC Secure Mode, Test & Copy, AccurateRip, FLAC -8" %source% -o %dest%


TOC of the extracted CD

Track | Start | Length | Start sector | End sector
––––––––––––––––––––––––––––-
1 | 0:00.00 | 6:52.43 | 0 | 30942
2 | 6:52.43 | 7:29.00 | 30943 | 64617
3 | 14:21.43 | 4:08.48 | 64618 | 83265
4 | 18:30.16 | 4:53.03 | 83266 | 105243
5 | 23:23.19 | 6:18.29 | 105244 | 133622
6 | 29:41.48 | 7:19.57 | 133623 | 166604
7 | 37:01.30 | 7:11.39 | 166605 | 198968
8 | 44:12.69 | 6:29.44 | 198969 | 228187
9 | 50:42.38 | 5:22.16 | 228188 | 252353
10 | 56:04.54 | 7:00.21 | 252354 | 283874


Track 1

Filename G:\DL\Fred Nardin Trio - Opening (2017) [FLAC]\01 - The Giant.wav

Pre-gap length 0:00:02.00

Peak level 88.2 %
Extraction speed 6.2 X
Track quality 100.0 %
Test CRC 15ADAB59
Copy CRC 15ADAB59
Accurately ripped (confidence 1) [30540455] (AR v2)
Copy OK

Track 2

Filename G:\DL\Fred Nardin Trio - Opening (2017) [FLAC]\02 - Parisian Melodies.wav

Peak level 91.4 %
Extraction speed 7.2 X
Track quality 100.0 %
Test CRC B1C32DD1
Copy CRC B1C32DD1
Accurately ripped (confidence 1) [DC917CC1] (AR v2)
Copy OK

Track 3

Filename G:\DL\Fred Nardin Trio - Opening (2017) [FLAC]\03 - New Waltz.wav

Peak level 84.1 %
Extraction speed 6.2 X
Track quality 99.9 %
Test CRC 75A608F7
Copy CRC 75A608F7
Accurately ripped (confidence 1) [3CA1E20F] (AR v2)
Copy OK

Track 4

Filename G:\DL\Fred Nardin Trio - Opening (2017) [FLAC]\04 - I Mean You.wav

Peak level 89.7 %
Extraction speed 7.9 X
Track quality 100.0 %
Test CRC D6778B16
Copy CRC D6778B16
Accurately ripped (confidence 1) [0FD07662] (AR v2)
Copy OK

Track 5

Filename G:\DL\Fred Nardin Trio - Opening (2017) [FLAC]\05 - Don't Forget The Blues.wav

Peak level 92.5 %
Extraction speed 8.6 X
Track quality 100.0 %
Test CRC 894FC116
Copy CRC 894FC116
Accurately ripped (confidence 1) [A20DF6D3] (AR v2)
Copy OK

Track 6

Filename G:\DL\Fred Nardin Trio - Opening (2017) [FLAC]\06 - Hope.wav

Peak level 100.0 %
Extraction speed 9.3 X
Track quality 100.0 %
Test CRC E87E8872
Copy CRC E87E8872
Accurately ripped (confidence 1) [8E7C5CDB] (AR v2)
Copy OK

Track 7

Filename G:\DL\Fred Nardin Trio - Opening (2017) [FLAC]\07 - Travel To.wav

Pre-gap length 0:00:01.19

Peak level 86.1 %
Extraction speed 9.9 X
Track quality 100.0 %
Test CRC B0C7C406
Copy CRC B0C7C406
Accurately ripped (confidence 1) [12F229D4] (AR v2)
Copy OK

Track 8

Filename G:\DL\Fred Nardin Trio - Opening (2017) [FLAC]\08 - You'd Be So Nice To Come Home To.wav

Pre-gap length 0:00:01.44

Peak level 91.6 %
Extraction speed 10.3 X
Track quality 100.0 %
Test CRC 174F8322
Copy CRC 174F8322
Accurately ripped (confidence 1) [93A537FD] (AR v2)
Copy OK

Track 9

Filename G:\DL\Fred Nardin Trio - Opening (2017) [FLAC]\09 - Lost In Your Eyes.wav

Pre-gap length 0:00:03.21

Peak level 84.1 %
Extraction speed 10.5 X
Track quality 100.0 %
Test CRC 5BED2DFA
Copy CRC 5BED2DFA
Accurately ripped (confidence 1) [3305BBDF] (AR v2)
Copy OK

Track 10

Filename G:\DL\Fred Nardin Trio - Opening (2017) [FLAC]\10 - Green Chimneys.wav

Peak level 89.8 %
Extraction speed 9.8 X
Track quality 99.9 %
Test CRC 7F859C3E
Copy CRC 7F859C3E
Accurately ripped (confidence 1) [2E5CBF0F] (AR v2)
Copy OK


All tracks accurately ripped

No errors occurred

End of status report

–– CUETools DB Plugin V2.1.6

[CTDB TOCID: yb2DMMbvl7UMR18.gdSfRbzxFsA-] found
Submit result: yb2DMMbvl7UMR18.gdSfRbzxFsA- has been confirmed
Track | CTDB Status
1 | (7/7) Accurately ripped
2 | (7/7) Accurately ripped
3 | (7/7) Accurately ripped
4 | (7/7) Accurately ripped
5 | (7/7) Accurately ripped
6 | (7/7) Accurately ripped
7 | (7/7) Accurately ripped
8 | (7/7) Accurately ripped
9 | (7/7) Accurately ripped
10 | (7/7) Accurately ripped


==== Log checksum FA2F4A175323E10061F9902E3444162782B8778F5067EC168CAC4C519A48B460 ====

Fred Nardin Trio - Opening (2017) {Jazz Family}


Thanks to the original ripper