Subcategories

Freddie Hubbard - Without a Song: Live in Europe 1969 (2009)

Posted By: gribovar
Freddie Hubbard - Without a Song: Live in Europe 1969 (2009)

Freddie Hubbard - Without a Song: Live in Europe 1969 (2009)
EAC Rip | FLAC (tracks+.cue+log) - 431 MB | MP3 CBR 320 kbps (LAME 3.93) - 176 MB | Covers (12 MB) included
Genre: Jazz | RAR 3% Rec. | Label: Blue Note Records (50999 2 36957 2 6)

The first album released posthumously after jazz legend Freddie Hubbard's passing in 2008, the recordings that make up Without a Song: Live in Europe 1969 actually sat in the Blue Note archives for 40 years. Recorded while Hubbard was touring Europe with producer Sonny Lester's The Jazz Wave on Tour revue, the album features performances culled from three separate nights - two in England and one in Germany. While Hubbard had already released many of his most famous Blue Note solo albums by 1969, in truth the trumpeter had only started leading his own full-time touring band around 1966 after leaving Max Roach's ensemble. In that sense, Without a Song showcases Hubbard in his technical and creative prime as one of the premiere virtuoso jazz trumpeters of his generation. Backing Hubbard here are pianist Roland Hanna, bassist Ron Carter, and drummer Louis Hayes, all of whom except for Carter would appear on the trumpeter's 1971 studio effort Hub of Hubbard, which was also recorded while on this tour. Tackling a handful of standards and two originals in "Space Track" and "Hub-Tones," Hubbard and his band balance the music deftly on the cusp of swinging hard bop and the adventurous modal free-bop Hubbard would delve into by the early '70s. While there are many fine live Hubbard recordings available, few are from this apex of his career. While that alone could put Without a Song near the top of the list of live Hubbard albums, ultimately it is the sheer brilliance of Hubbard's playing that makes this essential listening for any Hubbard fan. This is the Hubbard of jazz lore - a golden god of the horn with an unceasingly inventive knack for both melodic simplicity and bold harmonic swagger.
Tracklist:
01. Without a Song
02. The Things We Did Last Summer
03. A Night in Tunisia
04. Blues by Five
05. Body and Soul
06. Space Track
07. Hub-Tones

Total time: 01:09:44

Exact Audio Copy V1.0 beta 1 from 15. November 2010

EAC extraction logfile from 12. January 2011, 15:20

Freddie Hubbard / Without A Song

Used drive : PLEXTOR DVDR PX-860A Adapter: 0 ID: 0

Read mode : Secure
Utilize accurate stream : Yes
Defeat audio cache : Yes
Make use of C2 pointers : No

Read offset correction : 96
Overread into Lead-In and Lead-Out : No
Fill up missing offset samples with silence : Yes
Delete leading and trailing silent blocks : No
Null samples used in CRC calculations : Yes
Used interface : Native Win32 interface for Win NT & 2000
Gap handling : Appended to previous track

Used output format : User Defined Encoder
Selected bitrate : 1024 kBit/s
Quality : High
Add ID3 tag : No
Command line compressor : C:\Program Files\Exact Audio Copy\flac.exe
Additional command line options : -8 -V -T "ARTIST=%a" -T "TITLE=%t" -T "ALBUM=%g" -T "DATE=%y" -T "TRACKNUMBER=%n" -T "TOTALTRACKS=%x" -T "GENRE=%m" -T "ALBUMARTIST=%v" -T "ALBUM ARTIST=%v" -T "COMMENT=EAC V1.0 beta 1 Secure Mode, Test & Copy, AccurateRip,


TOC of the extracted CD

Track | Start | Length | Start sector | End sector
––––––––––––––––––––––––––––-
1 | 0:00.00 | 11:06.62 | 0 | 50011
2 | 11:06.62 | 11:12.72 | 50012 | 100483
3 | 22:19.59 | 10:36.27 | 100484 | 148210
4 | 32:56.11 | 9:48.71 | 148211 | 192381
5 | 42:45.07 | 10:09.05 | 192382 | 238061
6 | 52:54.12 | 12:09.46 | 238062 | 292782
7 | 65:03.58 | 4:39.46 | 292783 | 313753


Track 1

Filename S:\DL\Freddie Hubbard - Without A Song (2009) [FLAC]\01 - Without A Song.wav

Pre-gap length 0:00:02.00

Peak level 100.0 %
Extraction speed 5.6 X
Track quality 100.0 %
Test CRC A40B49EC
Copy CRC A40B49EC
Accurately ripped (confidence 6) [25F95915]
Copy OK

Track 2

Filename S:\DL\Freddie Hubbard - Without A Song (2009) [FLAC]\02 - The Things We Did Last Summer.wav

Peak level 100.0 %
Extraction speed 6.9 X
Track quality 100.0 %
Test CRC 178E590F
Copy CRC 178E590F
Accurately ripped (confidence 6) [0DFE3A75]
Copy OK

Track 3

Filename S:\DL\Freddie Hubbard - Without A Song (2009) [FLAC]\03 - A Night In Tunisia.wav

Peak level 100.0 %
Extraction speed 7.6 X
Track quality 100.0 %
Test CRC D48FB145
Copy CRC D48FB145
Accurately ripped (confidence 6) [DADCEEC1]
Copy OK

Track 4

Filename S:\DL\Freddie Hubbard - Without A Song (2009) [FLAC]\04 - Blues By Five.wav

Peak level 100.0 %
Extraction speed 8.3 X
Track quality 100.0 %
Test CRC D9EBAD34
Copy CRC D9EBAD34
Accurately ripped (confidence 6) [EDA2FB8A]
Copy OK

Track 5

Filename S:\DL\Freddie Hubbard - Without A Song (2009) [FLAC]\05 - Body And Soul.wav

Peak level 100.0 %
Extraction speed 8.9 X
Track quality 100.0 %
Test CRC 1F00E808
Copy CRC 1F00E808
Accurately ripped (confidence 6) [97296D38]
Copy OK

Track 6

Filename S:\DL\Freddie Hubbard - Without A Song (2009) [FLAC]\06 - Space Track.wav

Peak level 100.0 %
Extraction speed 9.3 X
Track quality 99.9 %
Test CRC 4E82F7D7
Copy CRC 4E82F7D7
Accurately ripped (confidence 6) [4EF7EBA2]
Copy OK

Track 7

Filename S:\DL\Freddie Hubbard - Without A Song (2009) [FLAC]\07 - Hub-Tones.wav

Peak level 100.0 %
Extraction speed 8.3 X
Track quality 99.9 %
Test CRC 2537A72C
Copy CRC 2537A72C
Accurately ripped (confidence 6) [B6D870DC]
Copy OK


All tracks accurately ripped

No errors occurred

End of status report

==== Log checksum 490C4057A84C3766B667DE5BFB79E0FC8278474DDEDC976B45E0443D8BC62E89 ====

[CUETools log; Date: 29.03.2018 23:52:38; Version: 2.1.4]
[CTDB TOCID: qFtjaDlEHZSAuRTC7lnrdhS81eI-] found.
Track | CTDB Status
1 | (23/24) Accurately ripped
2 | (24/24) Accurately ripped
3 | (21/24) Accurately ripped
4 | (24/24) Accurately ripped
5 | (24/24) Accurately ripped
6 | (24/24) Accurately ripped
7 | (24/24) Accurately ripped
[AccurateRip ID: 00146188-007937b4-6e105707] found.
Track [ CRC | V2 ] Status
01 [25f95915|33d37875] (13+06/54) Accurately ripped
02 [0dfe3a75|56cbbb7e] (13+06/57) Accurately ripped
03 [dadceec1|b81056c7] (13+06/53) Accurately ripped
04 [eda2fb8a|3b631586] (13+06/54) Accurately ripped
05 [97296d38|21e7f26b] (13+06/54) Accurately ripped
06 [4ef7eba2|9ea86fd4] (12+05/52) Accurately ripped
07 [b6d870dc|3944aa37] (13+06/54) Accurately ripped
Offsetted by 6:
01 [a977fd84] (14/54) Accurately ripped
02 [de0d8db8] (15/57) Accurately ripped
03 [1ba9ed0d] (14/53) Accurately ripped
04 [8755dc05] (14/54) Accurately ripped
05 [b3f0e664] (14/54) Accurately ripped
06 [37788829] (14/52) Accurately ripped
07 [123a968a] (14/54) Accurately ripped

Track Peak [ CRC32 ] [W/O NULL] [ LOG ]
– 100,0 [581717A0] [7FFE345E]
01 100,0 [A40B49EC] [FD19A968] CRC32
02 100,0 [178E590F] [20C6D925] CRC32
03 100,0 [D48FB145] [3E748E59] CRC32
04 100,0 [D9EBAD34] [344D684D] CRC32
05 100,0 [1F00E808] [600855D8] CRC32
06 100,0 [4E82F7D7] [9669E622] CRC32
07 100,0 [2537A72C] [AB4D34D4] CRC32

Thanks to the original releaser

See also:
Freddie Hubbard - Here to Stay (1976) [Reissue 2006] (Repost)
Clark Terry, Freddie Hubbard, Dizzy Gillespie, Oscar Peterson - The Alternate Blues (1982)