Subcategories

Freddie Roach - Down To Earth (1962) [Reissue 2004] (Repost)

Posted By: gribovar
Freddie Roach - Down To Earth (1962) [Reissue 2004] (Repost)

Freddie Roach - Down To Earth (1962) [Reissue 2004]
EAC Rip | FLAC (tracks+.cue+log) - 293 MB | MP3 CBR 320 kbps (LAME 3.93) - 95 MB | Covers (4 MB) included
Genre: Jazz | RAR 3% Rec. | Label: Blue Note/Toshiba EMI (BNST 84113/TOCJ-9595)

Freddie Roach differentiated himself from the legions of soul-jazz organists on his debut album, Down to Earth. Many jazz organists played the instrument down and dirty, and while there's funk in Roach's playing, his style is ultimately lighter than many of his peers, with clean, concise solos and chords. His backing trio - guitarist Kenny Burrell, tenor saxophonist Percy France, and drummer Clarence Johnston - follows his lead, providing supple instrumental support that never loses sight of the groove. Furthermore, Burrell and France both have their chances to shine, contributing some nicely understated solos. Nevertheless, Down to Earth remains Roach's show; he wrote five of the six songs and his organ is at center stage on each number. The legato blues of "De Bug" is a terrific showcase for Roach's elegantly funky style, while the sprightlier "Ahm Miz" proves that he can get gritty if he so chooses. But the signature of Down to Earth is Roach's tasteful bluesy grooves, which prove to be just as entertaining as the hotter styles of his Blue Note peers Jimmy Smith and John Patton.
Tracklist:
01. De Bug
02. Ahm Miz
03. Lujon
04. Althea Soon
05. More Mileage
06. Lion Down

Total time: 38:27

Exact Audio Copy V1.0 beta 1 from 15. November 2010

EAC extraction logfile from 16. December 2011, 23:25

Freddie Roach / Down To Earth

Used drive : TSSTcorpCDDVDW SH-S203N Adapter: 0 ID: 2

Read mode : Secure
Utilize accurate stream : Yes
Defeat audio cache : Yes
Make use of C2 pointers : No

Read offset correction : 6
Overread into Lead-In and Lead-Out : No
Fill up missing offset samples with silence : Yes
Delete leading and trailing silent blocks : No
Null samples used in CRC calculations : Yes
Used interface : Installed external ASPI interface
Gap handling : Appended to previous track

Used output format : User Defined Encoder
Selected bitrate : 768 kBit/s
Quality : High
Add ID3 tag : No
Command line compressor : C:\Program Files\Exact Audio Copy-NEW\Flac\flac.exe
Additional command line options : -8 -V -T "ARTIST=%a" -T "TITLE=%t" -T "ALBUM=%g" -T "DATE=%y" -T "TRACKNUMBER=%n" -T "TOTALTRACKS=%x" -T "GENRE=%m" -T "ALBUMARTIST=%v" -T "ALBUM ARTIST=%v" -T "COMMENT=EAC V1.01b1, Secure Mode, Test & Copy, AccurateRip, FL


TOC of the extracted CD

Track | Start | Length | Start sector | End sector
––––––––––––––––––––––––––––-
1 | 0:00.00 | 6:43.23 | 0 | 30247
2 | 6:43.23 | 5:50.02 | 30248 | 56499
3 | 12:33.25 | 6:28.37 | 56500 | 85636
4 | 19:01.62 | 8:07.61 | 85637 | 122222
5 | 27:09.48 | 6:35.74 | 122223 | 151921
6 | 33:45.47 | 4:54.50 | 151922 | 174021


Track 1

Filename J:\New Rips\Freddie Roach - Down To Earth (1962) [FLAC]\01 - De Bug.wav

Pre-gap length 0:00:02.00

Peak level 97.9 %
Extraction speed 4.7 X
Track quality 100.0 %
Test CRC FCD5AA77
Copy CRC FCD5AA77
Track not present in AccurateRip database
Copy OK

Track 2

Filename J:\New Rips\Freddie Roach - Down To Earth (1962) [FLAC]\02 - Ahm Miz.wav

Pre-gap length 0:00:02.30

Peak level 97.9 %
Extraction speed 5.4 X
Track quality 100.0 %
Test CRC 7F6CB4E4
Copy CRC 7F6CB4E4
Track not present in AccurateRip database
Copy OK

Track 3

Filename J:\New Rips\Freddie Roach - Down To Earth (1962) [FLAC]\03 - Lujon.wav

Pre-gap length 0:00:01.44

Peak level 97.9 %
Extraction speed 5.3 X
Track quality 99.9 %
Test CRC 6B7C4C25
Copy CRC 6B7C4C25
Track not present in AccurateRip database
Copy OK

Track 4

Filename J:\New Rips\Freddie Roach - Down To Earth (1962) [FLAC]\04 - Althea Soon.wav

Pre-gap length 0:00:03.13

Peak level 97.9 %
Extraction speed 6.1 X
Track quality 99.9 %
Test CRC 0A0E8118
Copy CRC 0A0E8118
Track not present in AccurateRip database
Copy OK

Track 5

Filename J:\New Rips\Freddie Roach - Down To Earth (1962) [FLAC]\05 - More Mileage.wav

Pre-gap length 0:00:02.36

Peak level 87.3 %
Extraction speed 7.4 X
Track quality 100.0 %
Test CRC 2B709921
Copy CRC 2B709921
Track not present in AccurateRip database
Copy OK

Track 6

Filename J:\New Rips\Freddie Roach - Down To Earth (1962) [FLAC]\06 - Lion Down.wav

Pre-gap length 0:00:02.62

Peak level 97.9 %
Extraction speed 7.5 X
Track quality 100.0 %
Test CRC 59419EDE
Copy CRC 59419EDE
Track not present in AccurateRip database
Copy OK


None of the tracks are present in the AccurateRip database

No errors occurred

End of status report

==== Log checksum 356EDCA9C9BB20398CFB86E66A9CAAB90B884A571600B4BAAF9BB1EBAA67C687 ====

[CUETools log; Date: 01.02.2018 21:49:35; Version: 2.1.4]
[CTDB TOCID: hvujpuVNYbnrV3yxHVMyPYMDwxA-] found.
Track | CTDB Status
1 | (2/2) Accurately ripped
2 | (2/2) Accurately ripped
3 | (2/2) Accurately ripped
4 | (2/2) Accurately ripped
5 | (2/2) Accurately ripped
6 | (2/2) Accurately ripped
[AccurateRip ID: 00097808-00328ec2-3b091006] found.
Track [ CRC | V2 ] Status
01 [b47e98c7|591a6e2f] (0+2/2) Accurately ripped
02 [4031ab65|55e14c7d] (0+2/2) Accurately ripped
03 [7526e645|100ae0e9] (0+2/2) Accurately ripped
04 [0354f710|c2243552] (0+2/2) Accurately ripped
05 [648532c5|45e7ae0a] (0+2/2) Accurately ripped
06 [6f5bf71a|d4c9762c] (0+2/2) Accurately ripped

Track Peak [ CRC32 ] [W/O NULL] [ LOG ]
– 97,9 [E898FB3E] [5BC3443E]
01 97,9 [FCD5AA77] [8CAAA27D] CRC32
02 97,9 [7F6CB4E4] [505C2E9E] CRC32
03 97,9 [6B7C4C25] [F315918D] CRC32
04 97,9 [0A0E8118] [8A726794] CRC32
05 87,3 [2B709921] [088A5FB5] CRC32
06 97,9 [59419EDE] [CD3FB890] CRC32

Thanks to the original releaser

See also:
Freddie Roach - Good Move! (1963) [Reissue 2000]