Subcategories

Freddy Cole - Rio De Janeiro Blue (2001)

Posted By: Designol
Freddy Cole - Rio De Janeiro Blue (2001)

Freddy Cole - Rio De Janeiro Blue (2001)
EAC | FLAC | Image (Cue&Log) ~ 262 Mb | Mp3 (CBR320) ~ 126 Mb | Scans ~ 66 Mb
Vocal Jazz, Piano Jazz, Latin Jazz | Label: Telarc | # CD-83525 | 00:52:40

Freddy Cole is a marvelous singer, combining consummate ease with a lyric and acute sense of melodic and rhythmic phrasing. Whether it's the lost love of the title song or the reliable romance of Cole Porter's "I Concentrate on You," Cole's warm baritone creates the impression that everything he sings has been made up on the spot, as if every lyric is the current sum of his thoughts and experiences. That conversational art is much in evidence in this mix of Brazilian and jazz tunes, extending to the way Cole interacts with his sidemen and they with him. There are two basic groups here, an all-star Latin septet with arrangements by pianist Arturo O'Farrill and Cole's own working quartet, but there are also several permutations in between. O'Farrill's work is tailor-made to Cole's throaty voice, mixing it with contrasting flute and guitar and complementary trombone timbres, the latter provided by Angel "Papa" Vazquez, just one of several superb soloists. Tenor saxophonist Eric Alexander adds inventive, hard-swinging tenor to "I Concentrate"; Joe Beck's guitars define the delicacy of Jobim's "Sem Voce," sung here in the original Portuguese; and O'Farrill's piano is a dancing delight whenever it comes to the fore. Cole's own spare piano is almost as effective as his voice, a compellingly understated force on "Wild Is Love" and "There, I've Said It Again".

Review by Stuart Broomer

Freddy Cole's second Telarc release features him in a variety of jazz and Latin settings, with a stellar cast of musicians – most notably pianist/arranger Arturo O'Farrill. Cole plays very capable piano on five of the 11 tracks and arranges six of them. Gravel-voiced and relentlessly laid-back, the younger brother of Nat "King" Cole is true to form on this romantic collection of songs, most of which aren't too well known, with the exception of "Invitation" and "I Concentrate on You." The nicest surprise comes on Antonio Carlos Jobim's "Sem Voce," which Cole sings in the original Portuguese; Joe Beck plays the changes on alto guitar and solos beautifully on acoustic. Cole's regular band, with guitarist Jerry Byrd, bassist Herman Burney, and drummer Curtis Boyd, splits the program with a larger Latin ensemble that includes the likes of O'Farrill, "Papo" Vazquez on trombone, Lou Marini on sax and flute, and Steve Berrios on drums and Latin percussion. Even though Cole's voice is not "pretty" in a conventional sense, this definitely works as turn-the-lights-down-low music. O'Farrill's choice of Fender Rhodes electric piano on the first and last tracks is an inspired touch.

Review by David R. Adler, Allmusic.com

Freddy Cole - Rio De Janeiro Blue (2001)



Vocals, piano – Freddy Cole
Acoustic Guitar – Joe Beck (tracks: 1, 4, 8, 11)
Bass – George Mraz (tracks: 3, 7), Herman Burney (tracks: 2, 5, 6, 9, 10)
Drums – Curtis Boyd (tracks: 2, 5, 6, 9, 10)
Electric Bass – Rubén Rodriguez (tracks: 1)
Flugelhorn – Michael Philip Mossman (tracks: 1, 4)
Flute – Lou Marini (tracks: 1)
Guitar – Jerry Byrd (2) (tracks: 2, 5, 6, 9, 10)
Piano – Arturo O'Farrill (tracks: 1, 3, 4, 7, 11d)
Surdo, Drums, Congas, Bells – Steve Berrios (tracks: 1, 3, 6 to 8, 10, 11)
Tenor Saxophone – Eric Alexander (tracks: 2), Lou Marini (tracks: 4, 11)
Trombone – Papo Vázquez (tracks: 1, 4, 11)

Tracklist:

01. Rio de Janiero Blue (4:31)
02. I Concentrate On You (5:09)
03. Delrio (4:15)
04. Invitation (5:01)
05. Words Can't Describe (5:24)
06. Wild Is Love (3:31)
07. Yellow Days (5:50)
08. Sem Voce (3:04)
09. Something Happens To Me (4:28)
10. There, I've Said It Again (5:03)
11. To Say Goodbye (6:23)


Exact Audio Copy V1.1 from 23. June 2015

Отчёт EAC об извлечении, выполненном 4. мая 2017, 21:05

Freddy Cole / Rio De Janeiro Blue

Дисковод: ASUS DRW-24B3ST Adapter: 0 ID: 0

Режим чтения : Достоверность
Использование точного потока : Да
Отключение кэша аудио : Да
Использование указателей C2 : Нет

Коррекция смещения при чтении : 6
Способность читать области Lead-in и Lead-out : Нет
Заполнение пропущенных сэмплов тишиной : Да
Удаление блоков с тишиной в начале и конце : Нет
При вычислениях CRC использовались нулевые сэмплы : Да
Интерфейс : Установленный внешний ASPI-интерфейс

Выходной формат : Пользовательский кодировщик
Выбранный битрейт : 1024 kBit/s
Качество : Высокий
Добавление ID3-тега : Нет
Утилита сжатия : C:\Program Files (x86)\Exact Audio Copy\Flac\flac.exe
Дополнительные параметры : -V -8 -T "Date=%year%" -T "Genre=%genre%" %source%


TOC извлечённого CD

Трек | Старт | Длительность | Начальный сектор | Конечный сектор
––––––––––––––––––––––––––––––––––-
1 | 0:00.00 | 4:31.30 | 0 | 20354
2 | 4:31.30 | 5:09.37 | 20355 | 43566
3 | 9:40.67 | 4:15.05 | 43567 | 62696
4 | 13:55.72 | 5:00.53 | 62697 | 85249
5 | 18:56.50 | 5:23.45 | 85250 | 109519
6 | 24:20.20 | 3:30.62 | 109520 | 125331
7 | 27:51.07 | 5:50.18 | 125332 | 151599
8 | 33:41.25 | 3:04.07 | 151600 | 165406
9 | 36:45.32 | 4:28.18 | 165407 | 185524
10 | 41:13.50 | 5:03.15 | 185525 | 208264
11 | 46:16.65 | 6:23.05 | 208265 | 236994


Характеристики диапазона извлечения и сообщения об ошибках

Выбранный диапазон

Имя файла C:\Torrents - my\Freddy Cole - 2001 - Rio De Janeiro Blue\Freddy Cole - Rio De Janeiro Blue.wav

Пиковый уровень 87.1 %
Скорость извлечения 9.2 X
Качество диапазона 100.0 %
CRC теста 8D9C6112
CRC копии 8D9C6112
Копирование… OK

Ошибок не произошло


AccurateRip: сводка

Трек 1 : извлечено точно (доверие 12) [E96A811A] (AR v2)
Трек 2 : извлечено точно (доверие 12) [87857BEC] (AR v2)
Трек 3 : извлечено точно (доверие 12) [D1534121] (AR v2)
Трек 4 : извлечено точно (доверие 12) [E0DA75F6] (AR v2)
Трек 5 : извлечено точно (доверие 12) [BC378723] (AR v2)
Трек 6 : извлечено точно (доверие 12) [548EFA93] (AR v2)
Трек 7 : извлечено точно (доверие 12) [2FFE5F68] (AR v2)
Трек 8 : извлечено точно (доверие 12) [CC78104F] (AR v2)
Трек 9 : извлечено точно (доверие 12) [E070320E] (AR v2)
Трек 10 : извлечено точно (доверие 12) [C8D31BE6] (AR v2)
Трек 11 : извлечено точно (доверие 12) [200F6BD1] (AR v2)

Все треки извлечены точно

Конец отчёта

==== Контрольная сумма отчёта 3DF99FF02834557F6AACA87FFF0231CD721682060907BFCC8E6395A646188779 ====

foobar2000 1.2 / Dynamic Range Meter 1.1.1
log date: 2017-05-14 17:31:02

––––––––––––––––––––––––––––––––––––––––
Analyzed: Freddy Cole / Rio De Janeiro Blue
––––––––––––––––––––––––––––––––––––––––

DR Peak RMS Duration Track
––––––––––––––––––––––––––––––––––––––––
DR14 -1.20 dB -16.83 dB 4:31 01-Rio de Janiero Blue
DR14 -1.32 dB -18.76 dB 5:09 02-I Concentrate On You
DR15 -1.57 dB -21.06 dB 4:15 03-Delrio
DR15 -1.43 dB -19.03 dB 5:01 04-Invitation
DR15 -6.48 dB -24.85 dB 5:24 05-Words Can't Describe
DR13 -2.42 dB -19.11 dB 3:31 06-Wild Is Love
DR14 -4.67 dB -22.64 dB 5:50 07-Yellow Days
DR14 -5.72 dB -23.51 dB 3:04 08-Sem Voce
DR14 -1.24 dB -19.72 dB 4:28 09-Something Happens To Me
DR15 -5.70 dB -24.86 dB 5:03 10-There, I've Said It Again
DR16 -2.15 dB -22.39 dB 6:23 11-To Say Goodbye
––––––––––––––––––––––––––––––––––––––––

Number of tracks: 11
Official DR value: DR15

Samplerate: 44100 Hz
Channels: 2
Bits per sample: 16
Bitrate: 680 kbps
Codec: FLAC
================================================================================

Freddy Cole - Rio De Janeiro Blue (2001)

Freddy Cole - Rio De Janeiro Blue (2001)