Tags
Language
Tags

Free - All Right Now: The Essential (2018) {3CD Box Set}

Posted By: popsakov
Free - All Right Now: The Essential (2018) {3CD Box Set}

Free - All Right Now: The Essential (2018) {3CD Box Set}
EAC Rip | FLAC (Img) + Cue + Log ~ 1,12 Gb | MP3 CBR320 ~ 452 Mb
Full Scans (JPG, 600 dpi) | RAR 5% Recovery
Rock, Blues Rock, Hard Rock | Spectrum Music #SPECESS016

Incredible 43-track collection features "Broad Daylight", "Fire and Water", "My Brother Jake", "All Right Now", "Little Bit Of Love", "The Stealer", "I'll Be Creeping" and more favourites!

Free were an English rock band formed in London in 1968, best known for their 1970 signature song "All Right Now". They disbanded in 1973 and lead singer Paul Rodgers went on to become a frontman of the band Bad Company along with Simon Kirke on drums. Lead guitarist Paul Kossoff formed Back Street Crawler in 1975, but died from a pulmonary embolism at the age of 25 in 1976. Bassist Andy Fraser formed Sharks.

The band became famed for their sensational live shows and nonstop touring. However, early studio albums did not sell very well until the release of Fire and Water, which featured the massive hit "All Right Now". The song helped secure them a place at the Isle of Wight Festival 1970, where they played to 600,000 people.

By the early 1970s, Free became one of the biggest-selling British blues rock groups; by the time the band retired in 1973, they had sold more than 20 million albums around the world and had played more than 700 arena and festival concerts. "All Right Now" remains a rock staple and has been entered in ASCAP's "One Million" airplay singles club.

Rolling Stone has referred to the band as "British hard rock pioneers". The magazine ranked Rodgers No. 55 in its list of the "100 Greatest Singers of All Time", while Kossoff was ranked No. 51 in its list of the "100 Greatest Guitarists of All Time".

~ Wiki
Free - All Right Now: The Essential (2018) {3CD Box Set}


***************

Free - All Right Now: The Essential (2018) {3CD Box Set}

Track List CD1:

01. All Right Now [5:33]
02. Fire And Water [3:57]
03. Mr. Big [5:53]
04. The Highway Song [4:15]
05. Catch A Train [3:24]
06. Guardian Of The Universe [5:22]
07. I'm A Mover [2:54]
08. Songs Of Yesterday [3:33]
09. Oh I Wept [4:26]
10. Wild Indian Woman [3:40]
11. Don't You Say You Love Me [5:54]
12. Worry [3:22]
13. I'll Be Creepin [3:25]
14. Mourning Sad Morning [5:02]
15. Mouthful Of Grass [3:37]

Exact Audio Copy V1.3 from 2. September 2016

EAC extraction logfile from 17. March 2018, 12:57

Free / The Essential Free [CD 1]

Used drive : ATAPI iHAS122 C Adapter: 1 ID: 0

Read mode : Secure
Utilize accurate stream : Yes
Defeat audio cache : Yes
Make use of C2 pointers : No

Read offset correction : 6
Overread into Lead-In and Lead-Out : No
Fill up missing offset samples with silence : Yes
Delete leading and trailing silent blocks : No
Null samples used in CRC calculations : Yes
Used interface : Native Win32 interface for Win NT & 2000

Used output format : Internal WAV Routines
Sample format : 44.100 Hz; 16 Bit; Stereo


TOC of the extracted CD

Track | Start | Length | Start sector | End sector
––––––––––––––––––––––––––––-
1 | 0:00.00 | 5:32.41 | 0 | 24940
2 | 5:32.41 | 3:57.35 | 24941 | 42750
3 | 9:30.01 | 5:52.56 | 42751 | 69206
4 | 15:22.57 | 4:15.23 | 69207 | 88354
5 | 19:38.05 | 3:23.51 | 88355 | 103630
6 | 23:01.56 | 5:22.28 | 103631 | 127808
7 | 28:24.09 | 2:54.30 | 127809 | 140888
8 | 31:18.39 | 3:33.37 | 140889 | 156900
9 | 34:52.01 | 4:25.68 | 156901 | 176843
10 | 39:17.69 | 3:39.72 | 176844 | 193340
11 | 42:57.66 | 5:54.01 | 193341 | 219891
12 | 48:51.67 | 3:21.74 | 219892 | 235040
13 | 52:13.66 | 3:25.04 | 235041 | 250419
14 | 55:38.70 | 5:01.70 | 250420 | 273064
15 | 60:40.65 | 3:36.46 | 273065 | 289310


Range status and errors

Selected range

Filename C:\Users\London\Desktop\Free - The Essential Free [CD 1].wav

Peak level 100.0 %
Extraction speed 8.9 X
Range quality 100.0 %
Test CRC A6E364B5
Copy CRC A6E364B5
Copy OK

No errors occurred


AccurateRip summary

Track 1 not present in database
Track 2 not present in database
Track 3 not present in database
Track 4 not present in database
Track 5 not present in database
Track 6 not present in database
Track 7 not present in database
Track 8 not present in database
Track 9 not present in database
Track 10 not present in database
Track 11 not present in database
Track 12 not present in database
Track 13 not present in database
Track 14 not present in database
Track 15 not present in database

None of the tracks are present in the AccurateRip database

End of status report

–– CUETools DB Plugin V2.1.6

[CTDB TOCID: bNUJh23zrZxfKGIdDW_Mkt86H6c-] found
Submit result: bNUJh23zrZxfKGIdDW_Mkt86H6c- has been confirmed
Track | CTDB Status
1 | (5/5) Accurately ripped
2 | (5/5) Accurately ripped
3 | (5/5) Accurately ripped
4 | (5/5) Accurately ripped
5 | (5/5) Accurately ripped
6 | (5/5) Accurately ripped
7 | (5/5) Accurately ripped
8 | (5/5) Accurately ripped
9 | (5/5) Accurately ripped
10 | (5/5) Accurately ripped
11 | (5/5) Accurately ripped
12 | (5/5) Accurately ripped
13 | (5/5) Accurately ripped
14 | (5/5) Accurately ripped
15 | (5/5) Accurately ripped


==== Log checksum E5BAE14B050D366EA3FB021EDBFEC4CBE5986818433107013562C46A101642E5 ====

foobar2000 1.3.16 / Dynamic Range Meter 1.1.1
log date: 2018-03-18 22:34:17

––––––––––––––––––––––––––––––––––––––––
Analyzed: Free / The Essential Free [CD 1]
––––––––––––––––––––––––––––––––––––––––

DR Peak RMS Duration Track
––––––––––––––––––––––––––––––––––––––––
DR7 -0.89 dB -10.34 dB 5:33 01-All Right Now
DR10 -0.58 dB -12.48 dB 3:57 02-Fire And Water
DR8 -0.13 dB -11.21 dB 5:53 03-Mr. Big
DR11 -0.45 dB -14.07 dB 4:15 04-The Highway Song
DR9 -0.13 dB -10.75 dB 3:24 05-Catch A Train
DR8 -0.13 dB -10.73 dB 5:22 06-Guardian Of The Universe
DR9 0.00 dB -10.75 dB 2:54 07-I'm A Mover
DR8 -0.13 dB -9.60 dB 3:33 08-Songs Of Yesterday
DR11 -0.13 dB -14.70 dB 4:26 09-Oh I Wept
DR9 0.00 dB -10.63 dB 3:40 10-Wild Indian Woman
DR13 -0.01 dB -18.98 dB 5:54 11-Don't You Say You Love Me
DR12 -0.15 dB -13.93 dB 3:22 12-Worry
DR10 -0.13 dB -11.91 dB 3:25 13-I'll Be Creepin
DR8 -0.13 dB -11.25 dB 5:02 14-Mourning Sad Morning
DR8 -1.95 dB -13.96 dB 3:37 15-Mouthful Of Grass
––––––––––––––––––––––––––––––––––––––––

Number of tracks: 15
Official DR value: DR9

Samplerate: 44100 Hz
Channels: 2
Bits per sample: 16
Bitrate: 840 kbps
Codec: FLAC
================================================================================

[CUETools log; Date: 18.03.2018 22:34:34; Version: 2.1.6]
[CTDB TOCID: bNUJh23zrZxfKGIdDW_Mkt86H6c-] found.
Track | CTDB Status
1 | (7/7) Accurately ripped
2 | (7/7) Accurately ripped
3 | (7/7) Accurately ripped
4 | (7/7) Accurately ripped
5 | (7/7) Accurately ripped
6 | (7/7) Accurately ripped
7 | (7/7) Accurately ripped
8 | (7/7) Accurately ripped
9 | (7/7) Accurately ripped
10 | (7/7) Accurately ripped
11 | (7/7) Accurately ripped
12 | (7/7) Accurately ripped
13 | (7/7) Accurately ripped
14 | (7/7) Accurately ripped
15 | (7/7) Accurately ripped
[AccurateRip ID: 0024814e-019884bc-d00f110f] disk not present in database.

Track Peak [ CRC32 ] [W/O NULL] [ LOG ]
– 99,9 [A6E364B5] [AFF38D1F] CRC32
01 90,2 [9006D498] [270144BE]
02 93,5 [8ADFBC2E] [CB7868E1]
03 98,5 [2D5EC1AC] [0171A465]
04 94,9 [D1B91AAF] [B806D819]
05 98,5 [F4867511] [DA865DA5]
06 98,5 [2BC0B3F6] [A6061448]
07 99,9 [406F478E] [72D32D44]
08 98,5 [4B843006] [4324980B]
09 98,5 [EAC85309] [E9FEF31C]
10 99,9 [EE0DE465] [C294FBD5]
11 99,9 [3855AA2A] [CA818220]
12 98,2 [D06D8737] [DD8BC140]
13 98,5 [A76C0A33] [4AE4B20E]
14 98,5 [119F6734] [4D897627]
15 79,9 [11994088] [0102F817]

Track List CD2:

01. My Brother Jake [2:52]
02. Heavy Load [5:21]
03. The Stealer [3:16]
04. Remember [4:26]
05. Be My Friend [5:48]
06. Soon I Will Be Gone [3:02]
07. Get Where I Belong [4:22]
08. Travelling Man [3:21]
09. Soldier Boy [2:49]
10. Muddy Water [4:16]
11. Common Mortal Man [4:07]
12. Bodie [3:06]
13. Travellin' In Style [4:03]

Exact Audio Copy V1.3 from 2. September 2016

EAC extraction logfile from 17. March 2018, 15:02

Free / The Essential Free [CD 2]

Used drive : ATAPI iHAS122 C Adapter: 1 ID: 0

Read mode : Secure
Utilize accurate stream : Yes
Defeat audio cache : Yes
Make use of C2 pointers : No

Read offset correction : 6
Overread into Lead-In and Lead-Out : No
Fill up missing offset samples with silence : Yes
Delete leading and trailing silent blocks : No
Null samples used in CRC calculations : Yes
Used interface : Native Win32 interface for Win NT & 2000

Used output format : Internal WAV Routines
Sample format : 44.100 Hz; 16 Bit; Stereo


TOC of the extracted CD

Track | Start | Length | Start sector | End sector
––––––––––––––––––––––––––––-
1 | 0:00.00 | 2:51.44 | 0 | 12868
2 | 2:51.44 | 5:21.28 | 12869 | 36971
3 | 8:12.72 | 3:15.49 | 36972 | 51645
4 | 11:28.46 | 4:25.67 | 51646 | 71587
5 | 15:54.38 | 5:48.03 | 71588 | 97690
6 | 21:42.41 | 3:01.60 | 97691 | 111325
7 | 24:44.26 | 4:21.47 | 111326 | 130947
8 | 29:05.73 | 3:20.48 | 130948 | 145995
9 | 32:26.46 | 2:48.70 | 145996 | 158665
10 | 35:15.41 | 4:16.05 | 158666 | 177870
11 | 39:31.46 | 4:07.28 | 177871 | 196423
12 | 43:38.74 | 3:05.39 | 196424 | 210337
13 | 46:44.38 | 4:02.64 | 210338 | 228551


Range status and errors

Selected range

Filename C:\Users\London\Desktop\Free - The Essential Free [CD 2].wav

Peak level 100.0 %
Extraction speed 8.0 X
Range quality 100.0 %
Test CRC A7402EC1
Copy CRC A7402EC1
Copy OK

No errors occurred


AccurateRip summary

Track 1 not present in database
Track 2 not present in database
Track 3 not present in database
Track 4 not present in database
Track 5 not present in database
Track 6 not present in database
Track 7 not present in database
Track 8 not present in database
Track 9 not present in database
Track 10 not present in database
Track 11 not present in database
Track 12 not present in database
Track 13 not present in database

None of the tracks are present in the AccurateRip database

End of status report

–– CUETools DB Plugin V2.1.6

[CTDB TOCID: a28xzwFz8J7iufk17GpICBOJYP4-] found
Submit result: a28xzwFz8J7iufk17GpICBOJYP4- has been confirmed
Track | CTDB Status
1 | (5/5) Accurately ripped
2 | (5/5) Accurately ripped
3 | (5/5) Accurately ripped
4 | (5/5) Accurately ripped
5 | (5/5) Accurately ripped
6 | (5/5) Accurately ripped
7 | (5/5) Accurately ripped
8 | (5/5) Accurately ripped
9 | (5/5) Accurately ripped
10 | (5/5) Accurately ripped
11 | (5/5) Accurately ripped
12 | (5/5) Accurately ripped
13 | (5/5) Accurately ripped


==== Log checksum A14A1AB7B521E974C8A982D985AA5A2F0CFC0397A54DCA4AC3E129227E58EC2B ====

foobar2000 1.3.16 / Dynamic Range Meter 1.1.1
log date: 2018-03-18 22:35:33

––––––––––––––––––––––––––––––––––––––––
Analyzed: Free / The Essential Free [CD 2]
––––––––––––––––––––––––––––––––––––––––

DR Peak RMS Duration Track
––––––––––––––––––––––––––––––––––––––––
DR10 -0.42 dB -12.28 dB 2:52 01-My Brother Jake
DR10 -0.13 dB -13.75 dB 5:21 02-Heavy Load
DR10 -0.51 dB -12.64 dB 3:16 03-The Stealer
DR13 0.00 dB -14.19 dB 4:26 04-Remember
DR11 -0.66 dB -14.49 dB 5:48 05-Be My Friend
DR11 -0.59 dB -14.58 dB 3:02 06-Soon I Will Be Gone
DR11 0.00 dB -12.30 dB 4:22 07-Get Where I Belong
DR8 -0.13 dB -9.66 dB 3:21 08-Travelling Man
DR10 -0.01 dB -12.25 dB 2:49 09-Soldier Boy
DR9 -0.52 dB -12.80 dB 4:16 10-Muddy Water
DR7 -0.59 dB -11.24 dB 4:07 11-Common Mortal Man
DR11 -0.49 dB -13.79 dB 3:06 12-Bodie
DR11 -0.82 dB -14.83 dB 4:03 13-Travellin' In Style
––––––––––––––––––––––––––––––––––––––––

Number of tracks: 13
Official DR value: DR10

Samplerate: 44100 Hz
Channels: 2
Bits per sample: 16
Bitrate: 793 kbps
Codec: FLAC
================================================================================

[CUETools log; Date: 18.03.2018 22:35:35; Version: 2.1.6]
[CTDB TOCID: a28xzwFz8J7iufk17GpICBOJYP4-] found.
Track | CTDB Status
1 | (7/7) Accurately ripped
2 | (7/7) Accurately ripped
3 | (7/7) Accurately ripped
4 | (7/7) Accurately ripped
5 | (7/7) Accurately ripped
6 | (7/7) Accurately ripped
7 | (7/7) Accurately ripped
8 | (7/7) Accurately ripped
9 | (7/7) Accurately ripped
10 | (7/7) Accurately ripped
11 | (7/7) Accurately ripped
12 | (7/7) Accurately ripped
13 | (7/7) Accurately ripped
[AccurateRip ID: 0018e2a7-00f825ce-b90be70d] disk not present in database.

Track Peak [ CRC32 ] [W/O NULL] [ LOG ]
– 99,9 [A7402EC1] [DB280E28] CRC32
01 95,2 [47600912] [C1E44A3C]
02 98,5 [9710878C] [ADD207DD]
03 94,2 [9EA08B16] [D8419212]
04 99,9 [2BA36DAF] [41222A1E]
05 92,7 [A893FDBE] [F9D76533]
06 93,4 [EBE1AF24] [D220749A]
07 99,9 [B34B7A86] [755F4AED]
08 98,5 [7D553ECA] [74A510A4]
09 99,8 [EB18F78D] [791BE3F0]
10 94,2 [6E893C3E] [84141465]
11 93,4 [30059304] [EBE78B5B]
12 94,5 [136C20DB] [D915B0FD]
13 90,9 [949B40EE] [F8F954E7]

Track List CD3:

01. The Hunter [5:22]
02. Heartbreaker [6:12]
03. Little Bit Of Love [2:34]
04. Child [5:17]
05. Goodbye [5:06]
06. Lying In The Sunshine [3:52]
07. Trouble On Double Time [3:22]
08. On My Way [4:00]
09. Sunny Day [3:08]
10. Moonshine [5:04]
11. Sweet Tooth [4:55]
12. Broad Daylight [3:15]
13. Love You So [4:55]
14. Sail On [3:04]
15. Come Together In The Morning [4:35]

Exact Audio Copy V1.3 from 2. September 2016

EAC extraction logfile from 17. March 2018, 15:31

Free / The Essential Free [CD 3]

Used drive : ATAPI iHAS122 C Adapter: 1 ID: 0

Read mode : Secure
Utilize accurate stream : Yes
Defeat audio cache : Yes
Make use of C2 pointers : No

Read offset correction : 6
Overread into Lead-In and Lead-Out : No
Fill up missing offset samples with silence : Yes
Delete leading and trailing silent blocks : No
Null samples used in CRC calculations : Yes
Used interface : Native Win32 interface for Win NT & 2000

Used output format : Internal WAV Routines
Sample format : 44.100 Hz; 16 Bit; Stereo


TOC of the extracted CD

Track | Start | Length | Start sector | End sector
––––––––––––––––––––––––––––-
1 | 0:00.00 | 5:22.16 | 0 | 24165
2 | 5:22.16 | 6:12.03 | 24166 | 52068
3 | 11:34.19 | 2:34.24 | 52069 | 63642
4 | 14:08.43 | 5:16.66 | 63643 | 87408
5 | 19:25.34 | 5:05.68 | 87409 | 110351
6 | 24:31.27 | 3:52.12 | 110352 | 127763
7 | 28:23.39 | 3:21.52 | 127764 | 142890
8 | 31:45.16 | 4:00.18 | 142891 | 160908
9 | 35:45.34 | 3:08.15 | 160909 | 175023
10 | 38:53.49 | 5:04.00 | 175024 | 197823
11 | 43:57.49 | 4:54.69 | 197824 | 219942
12 | 48:52.43 | 3:15.33 | 219943 | 234600
13 | 52:08.01 | 4:54.73 | 234601 | 256723
14 | 57:02.74 | 3:04.00 | 256724 | 270523
15 | 60:06.74 | 4:34.73 | 270524 | 291146


Range status and errors

Selected range

Filename C:\Users\London\Desktop\Free - The Essential Free [CD 3].wav

Peak level 100.0 %
Extraction speed 9.0 X
Range quality 100.0 %
Test CRC A16A8A8C
Copy CRC A16A8A8C
Copy OK

No errors occurred


AccurateRip summary

Track 1 not present in database
Track 2 not present in database
Track 3 not present in database
Track 4 not present in database
Track 5 not present in database
Track 6 not present in database
Track 7 not present in database
Track 8 not present in database
Track 9 not present in database
Track 10 not present in database
Track 11 not present in database
Track 12 not present in database
Track 13 not present in database
Track 14 not present in database
Track 15 not present in database

None of the tracks are present in the AccurateRip database

End of status report

–– CUETools DB Plugin V2.1.6

[CTDB TOCID: AaIBJ.xy1.hCg42KV_yACV_hFVI-] found
Submit result: AaIBJ.xy1.hCg42KV_yACV_hFVI- has been confirmed
Track | CTDB Status
1 | (5/5) Accurately ripped
2 | (5/5) Accurately ripped
3 | (5/5) Accurately ripped
4 | (5/5) Accurately ripped
5 | (5/5) Accurately ripped
6 | (5/5) Accurately ripped
7 | (5/5) Accurately ripped
8 | (5/5) Accurately ripped
9 | (5/5) Accurately ripped
10 | (5/5) Accurately ripped
11 | (5/5) Accurately ripped
12 | (5/5) Accurately ripped
13 | (5/5) Accurately ripped
14 | (5/5) Accurately ripped
15 | (5/5) Accurately ripped


==== Log checksum E2D85C951DAC71482C014035E16D022DF267BFFF8B7221E5AC035EBEB6E7C32D ====

foobar2000 1.3.16 / Dynamic Range Meter 1.1.1
log date: 2018-03-18 22:36:20

––––––––––––––––––––––––––––––––––––––––
Analyzed: Free / The Essential Free [CD 3]
––––––––––––––––––––––––––––––––––––––––

DR Peak RMS Duration Track
––––––––––––––––––––––––––––––––––––––––
DR11 -0.38 dB -13.31 dB 5:22 01-The Hunter
DR11 -0.32 dB -12.78 dB 6:12 02-Heartbreaker
DR9 0.00 dB -11.00 dB 2:34 03-Little Bit Of Love
DR11 -0.13 dB -14.58 dB 5:17 04-Child
DR9 -0.13 dB -11.27 dB 5:06 05-Goodbye
DR10 -1.38 dB -13.13 dB 3:52 06-Lying In The Sunshine
DR10 -0.42 dB -12.79 dB 3:22 07-Trouble On Double Time
DR12 -0.75 dB -13.93 dB 4:00 08-On My Way
DR10 -0.12 dB -12.99 dB 3:08 09-Sunny Day
DR6 -0.13 dB -8.74 dB 5:04 10-Moonshine
DR9 -0.20 dB -10.47 dB 4:55 11-Sweet Tooth
DR11 -0.27 dB -13.68 dB 3:15 12-Broad Daylight
DR9 -0.13 dB -11.65 dB 4:55 13-Love You So
DR8 -0.13 dB -10.77 dB 3:04 14-Sail On
DR8 -0.13 dB -11.17 dB 4:35 15-Come Together In The Morning
––––––––––––––––––––––––––––––––––––––––

Number of tracks: 15
Official DR value: DR10

Samplerate: 44100 Hz
Channels: 2
Bits per sample: 16
Bitrate: 868 kbps
Codec: FLAC
================================================================================

[CUETools log; Date: 18.03.2018 22:36:27; Version: 2.1.6]
[CTDB TOCID: AaIBJ.xy1.hCg42KV_yACV_hFVI-] found.
Track | CTDB Status
1 | (7/7) Accurately ripped
2 | (7/7) Accurately ripped
3 | (7/7) Accurately ripped
4 | (7/7) Accurately ripped
5 | (7/7) Accurately ripped
6 | (7/7) Accurately ripped
7 | (7/7) Accurately ripped
8 | (7/7) Accurately ripped
9 | (7/7) Accurately ripped
10 | (7/7) Accurately ripped
11 | (7/7) Accurately ripped
12 | (7/7) Accurately ripped
13 | (7/7) Accurately ripped
14 | (7/7) Accurately ripped
15 | (7/7) Accurately ripped
[AccurateRip ID: 0024d98e-019b866b-cf0f290f] disk not present in database.

Track Peak [ CRC32 ] [W/O NULL] [ LOG ]
– 99,9 [A16A8A8C] [84AF130A] CRC32
01 95,7 [3449C034] [46C50175]
02 96,3 [2839E9DB] [2BF419AA]
03 99,9 [45B33478] [A084C8C9]
04 98,5 [CBF812BA] [2980903C]
05 98,5 [4D7609FE] [48F6A93A]
06 85,3 [DB18C2F5] [A0ADD4DA]
07 95,2 [C592AAAA] [32513453]
08 91,7 [982BFAB3] [B5F625E1]
09 98,6 [9F11CDA9] [FDFCAC57]
10 98,5 [3F4DE15D] [9E1F2531]
11 97,7 [9BB0F59C] [629439E8]
12 96,9 [E8F85154] [AD5A82BB]
13 98,5 [6C0F27C3] [CABEF3B0]
14 98,5 [45D80D7D] [D3F1B262]
15 98,5 [D4574437] [95C75A36]

Free - All Right Now: The Essential (2018) {3CD Box Set}


See also:

Free - The Best Of Free: All Right Now (1991)

All thanks go to London

>>> My Blog <<<

Download: