Free - Free (1969) [2014, Universal Music Japan, UICY-40086] Re-up

Posted By: v3122
Free - Free (1969) [2014, Universal Music Japan, UICY-40086] Re-up

Free - Free (1969)
EAC | Flac(Image) + Cue + Log & MP3 CBR 320Kbps
Universal Music Japan, UICY-40086 | ~ 284 or 114 Mb | Scans(png) -> 261 Mb
Blues Rock / Classic Rock / Hard Rock

Free's second album was recorded with the band itself in considerable turmoil as principle songwriters Paul Rodgers and Andy Fraser demanded strict discipline from their bandmates, and guitarist Paul Kossoff, in particular, equally demanded the spontaneity and freedom that had characterized the group's debut. It was an awkward period that saw both Kossoff and drummer Simon Kirke come close to quitting, and only the intervention of label chief Chris Blackwell seems to have prevented it. Few of these tensions are evident on the finished album – tribute, again, to Blackwell's powers of diplomacy. He replaced original producer Guy Stevens early into the sessions and, having reminded both warring parties where the band's strengths lie, proceeded to coax out an album that stands alongside its predecessor as a benchmark of British blues at the turn of the 1960s.

by Dave Thompson, AMG
Free - Free (1969):

Free - Free (1969) [2014, Universal Music Japan, UICY-40086] Re-up

Tracklist:

01. I'll Be Creepin' 03:31
02. Songs Of Yesterday 03:37
03. Living In The Sunshine 03:58
04. Trouble On Double Time 03:27
05. Mouthful Of Grass 03:39
06. Woman 03:53
07. Free Me 05:27
08. Broad Daylight 03:19
09. Mourning Sad Morning 05:13

Bonus Tracks:

10. Broad Daylight (Single Version / Mono Mix) 03;11
11. The Worm (Single Version / Mono Mix) 03:06
12. I'll Be Creepin' (Single Version / Mono Mix) 02:50
13. Sugar For Mr Morrison (Single Version / Mono Mix) 03:02

Exact Audio Copy V1.0 beta 3 from 29. August 2011

EAC extraction logfile from 7. September 2014, 11:03

Free / Free PT-SHM

Used drive : PLEXTOR BD-R PX-B950SA Adapter: 6 ID: 0

Read mode : Secure
Utilize accurate stream : Yes
Defeat audio cache : Yes
Make use of C2 pointers : No

Read offset correction : 6
Overread into Lead-In and Lead-Out : No
Fill up missing offset samples with silence : Yes
Delete leading and trailing silent blocks : No
Null samples used in CRC calculations : Yes
Used interface : Native Win32 interface for Win NT & 2000

Used output format : Internal WAV Routines
Sample format : 44.100 Hz; 16 Bit; Stereo


TOC of the extracted CD

Track | Start | Length | Start sector | End sector
––––––––––––––––––––––––––––-
1 | 0:00.00 | 3:31.12 | 0 | 15836
2 | 3:31.12 | 3:37.08 | 15837 | 32119
3 | 7:08.20 | 3:58.67 | 32120 | 50036
4 | 11:07.12 | 3:27.10 | 50037 | 65571
5 | 14:34.22 | 3:39.70 | 65572 | 82066
6 | 18:14.17 | 3:53.00 | 82067 | 99541
7 | 22:07.17 | 5:27.43 | 99542 | 124109
8 | 27:34.60 | 3:19.45 | 124110 | 139079
9 | 30:54.30 | 5:13.27 | 139080 | 162581
10 | 36:07.57 | 3:11.53 | 162582 | 176959
11 | 39:19.35 | 3:06.45 | 176960 | 190954
12 | 42:26.05 | 2:50.50 | 190955 | 203754
13 | 45:16.55 | 3:02.52 | 203755 | 217456


Range status and errors

Selected range

Filename C:\Users\Meijin\Desktop\ALLexxess\Free\1969 Free (Mini LP PT-SHM Universal Japan 2014)\Free - Free PT-SHM.wav

Peak level 97.3 %
Extraction speed 7.1 X
Range quality 100.0 %
Test CRC 439C7DB3
Copy CRC 439C7DB3
Copy OK

No errors occurred


AccurateRip summary

Track 1 not present in database
Track 2 not present in database
Track 3 not present in database
Track 4 not present in database
Track 5 not present in database
Track 6 not present in database
Track 7 not present in database
Track 8 not present in database
Track 9 not present in database
Track 10 not present in database
Track 11 not present in database
Track 12 not present in database
Track 13 not present in database

None of the tracks are present in the AccurateRip database

End of status report

foobar2000 1.2.9 / Dynamic Range Meter 1.1.1
log date: 2014-09-17 11:46:32

––––––––––––––––––––––––––––––––––––––––
Analyzed: Free / Free PT-SHM
––––––––––––––––––––––––––––––––––––––––

DR Peak RMS Duration Track
––––––––––––––––––––––––––––––––––––––––
DR11 -2.28 dB -15.22 dB 3:31 01-I'll Be Creepin'
DR9 -0.27 dB -13.24 dB 3:37 02-Songs Of Yesterday
DR10 -2.72 dB -15.96 dB 3:59 03-Living In The Sunshine
DR9 -1.57 dB -14.00 dB 3:27 04-Trouble On Double Time
DR8 -2.43 dB -15.38 dB 3:40 05-Mouthful Of Grass
DR10 -0.23 dB -13.56 dB 3:53 06-Woman
DR11 -1.87 dB -16.26 dB 5:28 07-Free Me
DR10 -1.77 dB -14.84 dB 3:20 08-Broad Daylight
DR11 -2.79 dB -17.89 dB 5:13 09-Mourning Sad Morning
DR10 -3.00 dB -14.49 dB 3:12 10-Broad Daylight (Single Version / Mono Mix) / Bonus Track
DR8 -3.34 dB -13.59 dB 3:07 11-The Worm (Single Version / Mono Mix) / Bonus Track
DR12 -2.47 dB -17.10 dB 2:51 12-I'll Be Creepin' (Single Version / Mono Mix) / Bonus Track
DR8 -2.99 dB -13.42 dB 3:03 13-Sugar For Mr Morrison (Single Version / Mono Mix) / Bonus Track
––––––––––––––––––––––––––––––––––––––––

Number of tracks: 13
Official DR value: DR10

Samplerate: 44100 Hz
Channels: 2
Bits per sample: 16
Bitrate: 798 kbps
Codec: FLAC

Free - Free (1969) [2014, Universal Music Japan, UICY-40086] Re-up

All thanks go to ALLexxess