Subcategories

Magnard, Koechlin, Widor - French Cello Music (Mats Lidstrom - cello & Bengt Forsberg - piano)

Posted By: tapaz9
Magnard, Koechlin, Widor - French Cello Music (Mats Lidstrom - cello & Bengt Forsberg - piano)

Magnard, Koechlin, Widor - French Cello Music (Mats Lidstrom - cello & Bengt Forsberg - piano)
Classical | EAC: FLAC+Cue+Log | 1 Cd, Covers + Booklet | 362 Mb
Label: Hyperion - Date: 2003

Mats Lidström opens his notes for this exciting and varied new release with these emphatic words: “Let it be known that cellists’ repertoire is unlimited”! In that spirit this outstanding duo offer us a feast of fine fare from the neglected French repertoire. This includes the remainder of the Breton song arrangements by Koechlin which where unknown to the players when they recorded the first set and have here been recorded for the first time from the manuscript in the composer’s family’s collection.
As for Widor, he has come down in history first and foremost as a compser of colossal organ symphonies but this is not the whole story of the hearty and colourful character, as is evident in his lyrical and strongly emotive cello sonata. Magnard, by contrast, had a greater wish for formal nicety in his writing which, as our players confess, meant that they were taken by surprise by their moist eyes at the close of the funeral march movement of this sonata.
All in all an issue of surprises and power, charm and delight, from players whose recordings for Hyperion pour light upon lurking treasures.
Tracks:

01. Albéric Magnard: Cello Sonata in A major Op.20 - I. Sans lenteur [0:10:19.01]
02. Albéric Magnard: Cello Sonata in A major Op.20 - II. Sans faiblir - [0:02:39.00]
03. Albéric Magnard: Cello Sonata in A major Op.20 - III. Fun'ebre [0:09:56.01]
04. Albéric Magnard: Cello Sonata in A major Op.20 - IV. Rondement [0:07:00.00]
05. Charles Koechlin: Chansons Bretonnes Book III - I. La Chanson du Pilote [0:01:34.00]
06. Charles Koechlin: Chansons Bretonnes Book III - II. Merlin au berceau [0:01:32.02]
07. Charles Koechlin: Chansons Bretonnes Book III - III. La conversation de Merlin [0:01:05.01]
08. Charles Koechlin: Chansons Bretonnes Book III - IV. Le Faucon [0:02:17.01]
09. Charles Koechlin: Chansons Bretonnes Book III - V. Le Rossignol [0:00:25.01]
10. Charles Koechlin: Chansons Bretonnes Book III - VI. L'Enfant suppose [0:02:12.00]
11. Charles Koechlin: Chansons Bretonnes Book III - VII. L'Epouse du Croise [0:01:13.00]
12. Charles Koechlin: Chansons Bretonnes Book III - VIII. Le Page de Louis XIII [0:00:41.01]
13. Charles Koechlin: Chansons Bretonnes Book III - IX. La Marche d'Arthur [0:00:36.00]
14. Charles-Marie Widor: Cello Sonata in A major Op.80 - I. Allegro moderato [0:10:07.01]
15. Charles-Marie Widor: Cello Sonata in A major Op.80 - II. Andante con moto [0:09:29.01]
16. Charles-Marie Widor: Cello Sonata in A major Op.80 - III. Allegro vivace [0:10:20.01]


Exact Audio Copy V1.0 beta 3 from 29. August 2011

EAC extraction logfile from 19. January 2013, 1:32

Magnard, Koeclin, Widor / French Cello Music (Mats Lidstrom - cello & Bengt Forsberg - piano)

Used drive : TSSTcorpCDDVDW SH-S223C Adapter: 2 ID: 1

Read mode : Secure
Utilize accurate stream : Yes
Defeat audio cache : Yes
Make use of C2 pointers : No

Read offset correction : 697
Overread into Lead-In and Lead-Out : No
Fill up missing offset samples with silence : Yes
Delete leading and trailing silent blocks : No
Null samples used in CRC calculations : Yes
Used interface : Native Win32 interface for Win NT & 2000

Used output format : User Defined Encoder
Selected bitrate : 896 kBit/s
Quality : High
Add ID3 tag : No
Command line compressor : C:\Program Files (x86)\Exact Audio Copy\FLAC\FLAC.EXE
Additional command line options : -V -0 -T "COMMENT=Ripped by Tapaz9" -T "artist=%artist%" -T "title=%title%" -T "album=%albumtitle%" -T "date=%year%" -T "tracknumber=%tracknr%" -T "genre=%genre%" %source%


TOC of the extracted CD

Track | Start | Length | Start sector | End sector
––––––––––––––––––––––––––––-
1 | 0:00.00 | 10:19.01 | 0 | 46425
2 | 10:19.01 | 2:39.00 | 46426 | 58350
3 | 12:58.01 | 9:56.01 | 58351 | 103051
4 | 22:54.02 | 7:00.00 | 103052 | 134551
5 | 29:54.02 | 1:34.00 | 134552 | 141601
6 | 31:28.02 | 1:32.02 | 141602 | 148503
7 | 33:00.04 | 1:05.01 | 148504 | 153379
8 | 34:05.05 | 2:17.01 | 153380 | 163655
9 | 36:22.06 | 0:25.01 | 163656 | 165531
10 | 36:47.07 | 2:12.00 | 165532 | 175431
11 | 38:59.07 | 1:13.00 | 175432 | 180906
12 | 40:12.07 | 0:41.01 | 180907 | 183982
13 | 40:53.08 | 0:36.00 | 183983 | 186682
14 | 41:29.08 | 10:07.01 | 186683 | 232208
15 | 51:36.09 | 9:29.01 | 232209 | 274884
16 | 61:05.10 | 10:20.01 | 274885 | 321385


Range status and errors

Selected range

Filename F:\Musique\Magnard\Magnard_CelloMusic\Magnard, Koeclin, Widor - French Cello Music (Mats Lidstrom - cello & Bengt Forsberg - piano).wav

Peak level 94.1 %
Extraction speed 14.3 X
Range quality 99.9 %
Copy CRC 9F436AF1
Copy OK

No errors occurred

End of status report

==== Log checksum 3686167196CB0138750E00EAA9235642DB7CEEAE889F76C8722E4840AE067B96 ====

No Mirrors and Torrent-uploads Please

See my classical digital download posts in the Vinyl & HR section or check out My Avax blog