Subcategories

Frijid Pink - Frijid Pink (1970) [Reissue 2005]

Posted By: gribovar
Frijid Pink - Frijid Pink (1970) [Reissue 2005]

Frijid Pink - Frijid Pink (1970) [Reissue 2005]
EAC Rip | WavPack (image+.cue+log) - 435 MB | MP3 CBR 320 kbps (LAME 3.93) - 224 MB | Covers included
Genre: Rock | RAR 3% Rec. | Label: Repertoire Records (REP 5057)

Frijid Pink's self-titled debut album is a slashing, seriously soulful example of late-'60s Detroit rock near its best. Although they never registered with critics or rock historians the way MC5 or the Stooges did, Frijid Pink had obviously learned something in the course of two years on the road, and with Mike Valvano producing, they were able to channel the excitement of their work onto the grooves of this album very neatly. Those who bought the number seven single "House of the Rising Sun" weren't disappointed with the bluesy boogie sound of "I'm on My Way" or the slowed-down Yardbirds approach of "Drivin' Blues" (somehow, when Kelly Green sang "My woman loves me" it seemed to matter), and even if "Tell Me Why" was a tuneless mess, Gary Thompson made up for it with a fuzz-out guitar performance that sounded like speaker burnout in slow motion. They were back in form on the next number, the crunchy, pumping rocker "End of the Line," where Green, Thompson, and company move into Led Zeppelin territory very effectively (you can just imagine them switching gear into "Black Dog" in a jam to this song on-stage), with a killer performance by Rich Stevers on the drums. And that was all leading up to "House of the Rising Sun." "Boozin' Blues," which closed the original LP, is a blues workout reminiscent of Cream's version of Willie Dixon's "Spoonful"; a virtuoso effort by Thompson and Green, it shows off a more reflective and studied side of the band's sound.

Tracklist:
01. God Gave Me You
02. Crying Shame
03. I'm on My Way
04. Drivin' Blues
05. Tell Me Why
06. End of the Line
07. House of the Rising Sun
08. I Want to Be Your Lover
09. Boozin' Blues
10. Heartbreak Hotel (Bonus track)
11. Music for the People (Bonus track)
12. House of the Rising Sun (Single Edit, Bonus track)
13. Sing a Song for Freedom (Mono Single Mix, Bonus track)
14. End of the Line (Mono Single Mix, Bonus track)

Total time: 57:02

Exact Audio Copy V1.0 beta 3 from 29. August 2011

EAC extraction logfile from 25. September 2012, 20:53

Frijid Pink / Frijid Pink [Repertoire REP 5057]

Used drive : Optiarc DVD RW AD-7200S Adapter: 5 ID: 1

Read mode : Secure
Utilize accurate stream : Yes
Defeat audio cache : Yes
Make use of C2 pointers : No

Read offset correction : 48
Overread into Lead-In and Lead-Out : No
Fill up missing offset samples with silence : Yes
Delete leading and trailing silent blocks : No
Null samples used in CRC calculations : Yes
Used interface : Installed external ASPI interface

Used output format : User Defined Encoder
Selected bitrate : 1024 kBit/s
Quality : High
Add ID3 tag : No
Command line compressor : D:\Program Files (x86)\Exact Audio Copy\wavpack.exe
Additional command line options : -hlmx2 %source% %dest%


TOC of the extracted CD

Track | Start | Length | Start sector | End sector
––––––––––––––––––––––––––––-
1 | 0:00.00 | 3:34.61 | 0 | 16110
2 | 3:34.61 | 3:12.73 | 16111 | 30583
3 | 6:47.59 | 4:35.58 | 30584 | 51266
4 | 11:23.42 | 3:15.74 | 51267 | 65965
5 | 14:39.41 | 2:52.67 | 65966 | 78932
6 | 17:32.33 | 4:08.71 | 78933 | 97603
7 | 21:41.29 | 4:44.26 | 97604 | 118929
8 | 26:25.55 | 7:32.33 | 118930 | 152862
9 | 33:58.13 | 6:03.53 | 152863 | 180140
10 | 40:01.66 | 2:51.38 | 180141 | 193003
11 | 42:53.29 | 2:59.15 | 193004 | 206443
12 | 45:52.44 | 3:56.55 | 206444 | 224198
13 | 49:49.24 | 3:04.03 | 224199 | 238001
14 | 52:53.27 | 4:08.68 | 238002 | 256669


Range status and errors

Selected range

Filename D:\eac\Frijid Pink\Frijid Pink - Frijid Pink [Repertoire REP 5057].wav

Peak level 98.8 %
Extraction speed 3.9 X
Range quality 99.9 %
Test CRC EC139B83
Copy CRC EC139B83
Copy OK

No errors occurred


AccurateRip summary

Track 1 accurately ripped (confidence 3) [BBD24599] (AR v1)
Track 2 accurately ripped (confidence 3) [325AFD5C] (AR v1)
Track 3 accurately ripped (confidence 3) [66A9B11F] (AR v1)
Track 4 accurately ripped (confidence 3) [F1DA4EB1] (AR v1)
Track 5 accurately ripped (confidence 3) [B9C767B7] (AR v1)
Track 6 accurately ripped (confidence 3) [C4FF8452] (AR v1)
Track 7 accurately ripped (confidence 3) [ABDF1E59] (AR v1)
Track 8 accurately ripped (confidence 3) [945E0D3C] (AR v1)
Track 9 accurately ripped (confidence 3) [98757A0D] (AR v1)
Track 10 accurately ripped (confidence 3) [D36D91C0] (AR v1)
Track 11 accurately ripped (confidence 3) [F09E2707] (AR v1)
Track 12 accurately ripped (confidence 3) [FF1C45BA] (AR v1)
Track 13 accurately ripped (confidence 3) [D623ABC6] (AR v1)
Track 14 accurately ripped (confidence 3) [FED126D7] (AR v1)

All tracks accurately ripped

End of status report

–– CUETools DB Plugin V2.1.3

[CTDB TOCID: nKtJZDlIA.NyJn3O.R6PgH5Fmb0-] found, Submit result: nKtJZDlIA.NyJn3O.R6PgH5Fmb0- has been confirmed
[4923447d] (4/4) Accurately ripped


==== Log checksum 9FB2C1FA019A7D3693119A8A96FFDD25190B42DD725BE0AE24D73ED644197993 ====

Thanks to taurus66

More Repertoire Records releases from my blog:
Repertoire Records
LOSSLESS:

Filepost.com
________________

MP3 320 kbps:

Filepost.com